找回密码

蓝光电影网

查看: 2407|回复: 50

[8bit.SDR] 超人:红色之子/超人:苏联之子 Superman.Red.Son.2020.2160p.BluRay.x264.8bit.SDR.DTS-HD.MA.5.1-SWTYBLZ 24.71GB

[复制链接]

 成长值: 25285

发表于 2020-3-11 00:13:10 | 显示全部楼层 |阅读模式
超人:红色之子/超人:苏联之子 Superman.Red.Son.2020.2160p.BluRay.x264.8bit.SDR.DTS-HD.MA.5.1-SWTYBLZ 24.71GB-1.png

译  名 超人:红色之子 / 超人:苏联之子 / 超人:赤子
片  名 Superman: Red Son
年  代 2020
产  地 美国
类  别 动画
语  言 英语
上映日期 2020-02-25(美国)
IMDb评分  6.3/10 from 2635 users
IMDb链接  https://www.imdb.com/title/tt10985510
豆瓣评分 4.8/10 from 2799 users
豆瓣链接 https://movie.douban.com/subject/27668334/
片  长 85分钟
导  演 刘山姆 Sam Liu
编  剧 J·M·德马泰 J.M. DeMatteis / 马克·米勒 Mark Millar
主  演 詹森·艾萨克 Jason Isaacs
       艾米·阿克 Amy Acker
       戴德里克·巴德 Diedrich Bader
       保罗·威廉姆斯 Paul Williams
       菲尔·拉马 Phil LaMarr
       罗杰·克莱格·史密斯 Roger Craig Smith
       萨沙·罗伊茨 Sasha Roiz
       特拉维斯·威林厄姆 Travis Willingham
       雯特·艾娃·佐莉 Winter Ave Zoli
       菲尔·莫里斯 Phil Morris
       瓦内萨·马歇尔 Vanessa Marshall
       吉姆·麦司奇门 Jim Meskimen
       威廉·赛莱耶 William Salyers


标  签 DC | 动画 | 美国 | 漫画改编 | 超级英雄 | 2020 | 科幻 | 大超

简  介  

  红子动画真的来了,经典DC漫画《超人:红色之子》动画版发布首张剧照,苏联超人亮相。
  杰森·伊萨克斯(《蝙蝠侠:红影迷踪》)配音超人,“根妹”艾米·阿克配音路易斯·莱恩,戴德里克·巴德配音莱克斯·卢瑟,瓦内萨·马歇尔配音神奇女侠,罗杰·克莱格·史密斯配音蝙蝠侠。
  《红子》由刘山姆(《超人之死》《超人王朝》)执导,将于明年第一季发碟和登陆数字平台。漫画来自马克·米拉,提出:如果超人不是降落在美国小镇,而是在乌克兰,长大成为了苏联领导人,胸前的S变成镰刀和锤子,他和世界会是怎样?对社会主义、资本主义、历史和人性的探讨相当有意思。
  1. Video
  2. ID                                       : 1
  3. Format                                   : AVC
  4. Format/Info                              : Advanced Video Codec
  5. Format profile                           : High@L4
  6. Format settings                          : CABAC / 5 Ref Frames
  7. Format settings, CABAC                   : Yes
  8. Format settings, Reference frames        : 5 frames
  9. Codec ID                                 : V_MPEG4/ISO/AVC
  10. Duration                                 : 1 h 24 min
  11. Bit rate                                 : 38.6 Mb/s
  12. Width                                    : 3 840 pixels
  13. Height                                   : 2 160 pixels
  14. Display aspect ratio                     : 16:9
  15. Frame rate mode                          : Constant
  16. Frame rate                               : 23.976 (24000/1001/189150) FPS
  17. Color space                              : YUV
  18. Chroma subsampling                       : 4:2:0
  19. Bit depth                                : 8 bits
  20. Scan type                                : Progressive
  21. Bits/(Pixel*Frame)                       : 0.194
  22. Stream size                              : 22.7 GiB (93%)
  23. Title                                    : Superman.Red.Son.2020.2160p.BluRay.x264.8bit.SDR.DTS-HD.MA.5.1-SWTYBLZ
  24. Writing library                          : x264 core 157 r2935 545de2f
  25. Encoding settings                        : cabac=1 / ref=5 / deblock=1:1:1 / analyse=0x3:0x113 / me=umh / subme=10 / psy=1 / psy_rd=0.40:0.00 / mixed_ref=1 / me_range=48 / chroma_me=1 / trellis=2 / 8x8dct=1 / cqm=0 / deadzone=21,11 / fast_pskip=1 / chroma_qp_offset=-2 / threads=38 / lookahead_threads=4 / sliced_threads=0 / nr=0 / decimate=0 / interlaced=0 / bluray_compat=0 / constrained_intra=0 / bframes=5 / b_pyramid=2 / b_adapt=2 / b_bias=0 / direct=3 / weightb=1 / open_gop=0 / weightp=2 / keyint=250 / keyint_min=23 / scenecut=40 / intra_refresh=0 / rc_lookahead=50 / rc=crf / mbtree=1 / crf=18.0 / qcomp=0.60 / qpmin=0 / qpmax=69 / qpstep=4 / ip_ratio=1.40 / aq=1:0.60
  26. Default                                  : Yes
  27. Forced                                   : No

  28. Audio #1
  29. ID                                       : 2
  30. Format                                   : DTS XLL
  31. Format/Info                              : Digital Theater Systems
  32. Commercial name                          : DTS-HD Master Audio
  33. Codec ID                                 : A_DTS
  34. Duration                                 : 1 h 24 min
  35. Bit rate mode                            : Variable
  36. Bit rate                                 : 2 435 kb/s
  37. Channel(s)                               : 6 channels
  38. Channel layout                           : C L R Ls Rs LFE
  39. Sampling rate                            : 48.0 kHz
  40. Frame rate                               : 93.750 FPS (512 SPF)
  41. Bit depth                                : 16 bits
  42. Compression mode                         : Lossless
  43. Stream size                              : 1.43 GiB (6%)
  44. Title                                    : Superman.Red.Son.2020.2160p.BluRay.x264.8bit.SDR.DTS-HD.MA.5.1-SWTYBLZ
  45. Language                                 : English
  46. Default                                  : Yes
  47. Forced                                   : No

  48. Audio #2
  49. ID                                       : 3
  50. Format                                   : AC-3
  51. Format/Info                              : Audio Coding 3
  52. Commercial name                          : Dolby Digital
  53. Codec ID                                 : A_AC3
  54. Duration                                 : 1 h 24 min
  55. Bit rate mode                            : Constant
  56. Bit rate                                 : 640 kb/s
  57. Channel(s)                               : 6 channels
  58. Channel layout                           : L R C LFE Ls Rs
  59. Sampling rate                            : 48.0 kHz
  60. Frame rate                               : 31.250 FPS (1536 SPF)
  61. Compression mode                         : Lossy
  62. Stream size                              : 386 MiB (2%)
  63. Title                                    : Superman.Red.Son.2020.2160p.BluRay.x264.8bit.SDR.DTS-HD.MA.5.1-SWTYBLZ
  64. Language                                 : English
  65. Service kind                             : Complete Main
  66. Default                                  : No
  67. Forced                                   : No

  68. Text #1
  69. ID                                       : 4
  70. Format                                   : UTF-8
  71. Codec ID                                 : S_TEXT/UTF8
  72. Codec ID/Info                            : UTF-8 Plain Text
  73. Duration                                 : 1 h 20 min
  74. Bit rate                                 : 55 b/s
  75. Count of elements                        : 808
  76. Stream size                              : 32.4 KiB (0%)
  77. Title                                    : English-SRT
  78. Language                                 : English
  79. Default                                  : Yes
  80. Forced                                   : No

  81. Text #2
  82. ID                                       : 5
  83. Format                                   : PGS
  84. Muxing mode                              : zlib
  85. Codec ID                                 : S_HDMV/PGS
  86. Codec ID/Info                            : Picture based subtitle format used on BDs/HD-DVDs
  87. Duration                                 : 1 h 20 min
  88. Bit rate                                 : 31.8 kb/s
  89. Count of elements                        : 1780
  90. Stream size                              : 18.3 MiB (0%)
  91. Title                                    : English-PGS
  92. Language                                 : English
  93. Default                                  : No
  94. Forced                                   : No

  95. Text #3
  96. ID                                       : 6
  97. Format                                   : PGS
  98. Muxing mode                              : zlib
  99. Codec ID                                 : S_HDMV/PGS
  100. Codec ID/Info                            : Picture based subtitle format used on BDs/HD-DVDs
  101. Duration                                 : 1 h 23 min
  102. Bit rate                                 : 27.9 kb/s
  103. Count of elements                        : 1632
  104. Stream size                              : 16.7 MiB (0%)
  105. Title                                    : French-PGS
  106. Language                                 : French
  107. Default                                  : No
  108. Forced                                   : No

  109. Text #4
  110. ID                                       : 7
  111. Format                                   : PGS
  112. Muxing mode                              : zlib
  113. Codec ID                                 : S_HDMV/PGS
  114. Codec ID/Info                            : Picture based subtitle format used on BDs/HD-DVDs
  115. Duration                                 : 1 h 23 min
  116. Bit rate                                 : 30.7 kb/s
  117. Count of elements                        : 1648
  118. Stream size                              : 18.3 MiB (0%)
  119. Title                                    : Spanish-PGS
  120. Language                                 : Spanish
  121. Default                                  : No
  122. Forced                                   : No

  123. Menu
  124. 00:00:00.000                             : en:Chapter 01
  125. 00:08:15.453                             : en:Chapter 02
  126. 00:16:59.852                             : en:Chapter 03
  127. 00:27:19.179                             : en:Chapter 04
  128. 00:38:09.954                             : en:Chapter 05
  129. 00:48:38.374                             : en:Chapter 06
  130. 00:56:55.621                             : en:Chapter 07
  131. 01:02:34.459                             : en:Chapter 08
  132. 01:12:30.596                             : en:Chapter 09
  133. 01:21:39.978                             : en:Chapter 10
复制代码

超人:红色之子/超人:苏联之子 Superman.Red.Son.2020.2160p.BluRay.x264.8bit.SDR.DTS-HD.MA.5.1-SWTYBLZ 24.71GB-2.png 超人:红色之子/超人:苏联之子 Superman.Red.Son.2020.2160p.BluRay.x264.8bit.SDR.DTS-HD.MA.5.1-SWTYBLZ 24.71GB-3.png 超人:红色之子/超人:苏联之子 Superman.Red.Son.2020.2160p.BluRay.x264.8bit.SDR.DTS-HD.MA.5.1-SWTYBLZ 24.71GB-4.png 超人:红色之子/超人:苏联之子 Superman.Red.Son.2020.2160p.BluRay.x264.8bit.SDR.DTS-HD.MA.5.1-SWTYBLZ 24.71GB-5.png 超人:红色之子/超人:苏联之子 Superman.Red.Son.2020.2160p.BluRay.x264.8bit.SDR.DTS-HD.MA.5.1-SWTYBLZ 24.71GB-6.png 超人:红色之子/超人:苏联之子 Superman.Red.Son.2020.2160p.BluRay.x264.8bit.SDR.DTS-HD.MA.5.1-SWTYBLZ 24.71GB-7.png 超人:红色之子/超人:苏联之子 Superman.Red.Son.2020.2160p.BluRay.x264.8bit.SDR.DTS-HD.MA.5.1-SWTYBLZ 24.71GB-8.png






回复

使用道具 举报

发表于 2020-3-11 00:17:01 | 显示全部楼层
感谢楼主分享!
回复 支持 反对

使用道具 举报

发表于 2020-3-11 05:14:10 | 显示全部楼层

楼主太厉害了!楼主,电影应该很好看我觉得蓝光电影网真是个好地方!
回复 支持 反对

使用道具 举报

发表于 2020-3-11 08:24:48 | 显示全部楼层
楼主发贴辛苦了,谢谢楼主分享!我觉得蓝光电影网是注册对了!
回复 支持 反对

使用道具 举报

发表于 2020-3-11 08:44:32 | 显示全部楼层
楼主发贴辛苦了,谢谢楼主分享!我觉得蓝光电影网是注册对了!
回复 支持 反对

使用道具 举报

发表于 2020-3-11 09:54:05 | 显示全部楼层
感谢楼主分享
回复 支持 反对

使用道具 举报

 成长值: 425

发表于 2020-3-11 10:13:51 | 显示全部楼层
感谢分享
回复

使用道具 举报

发表于 2020-3-11 10:41:53 | 显示全部楼层

感谢楼主的无私分享!要想蓝光电影网好 就靠你我他
回复 支持 反对

使用道具 举报

发表于 2020-3-11 11:51:56 | 显示全部楼层

这东西我收了!谢谢楼主!蓝光电影网真好!
回复 支持 反对

使用道具 举报

发表于 2020-3-11 12:58:41 | 显示全部楼层
楼主发贴辛苦了,谢谢楼主分享!我觉得蓝光电影网是注册对了!
回复 支持 反对

使用道具 举报

懒得打字嘛,点击右侧快捷回复 【右侧内容,后台自定义】
您需要登录后才可以回帖 登录 | 立即加入

本版积分规则

现在加入蓝光电影网,注册一个账号
上个主题 下个主题 快速回复 收藏帖子 返回列表 客服中心 搜索

手机版|小黑屋| 蓝光电影网 |网站地图 

Copyright © 2015-2019 Comsenz Inc.  Template by 蓝光电影论坛 All Rights Reserved.

Powered by 蓝光电影网 X3.4

特别声明:本站所有资源均由网上收集而来,版权归原影音公司所有,如果侵犯了你的权益,请通知我们,我们会及时删除侵权内容.

快速回复 返回顶部 返回列表