找回密码

蓝光电影网

查看: 677|回复: 10

[10bit.SDR] 超人:红色之子/超人:苏联之子 Superman.Red.Son.2020.2160p.BluRay.x265.10bit.SDR.DTS-HD.MA.5.1-SWTYBLZ 23.05GB

[复制链接]

 成长值: 25285

发表于 2020-3-10 23:48:00 | 显示全部楼层 |阅读模式
超人:红色之子/超人:苏联之子 Superman.Red.Son.2020.2160p.BluRay.x265.10bit.SDR.DTS-HD.MA.5.1-SWTYBLZ 23.05GB-1.png

译  名 超人:红色之子 / 超人:苏联之子 / 超人:赤子
片  名 Superman: Red Son
年  代 2020
产  地 美国
类  别 动画
语  言 英语
上映日期 2020-02-25(美国)
IMDb评分  6.3/10 from 2635 users
IMDb链接  https://www.imdb.com/title/tt10985510
豆瓣评分 4.8/10 from 2799 users
豆瓣链接 https://movie.douban.com/subject/27668334/
片  长 85分钟
导  演 刘山姆 Sam Liu
编  剧 J·M·德马泰 J.M. DeMatteis / 马克·米勒 Mark Millar
主  演 詹森·艾萨克 Jason Isaacs
       艾米·阿克 Amy Acker
       戴德里克·巴德 Diedrich Bader
       保罗·威廉姆斯 Paul Williams
       菲尔·拉马 Phil LaMarr
       罗杰·克莱格·史密斯 Roger Craig Smith
       萨沙·罗伊茨 Sasha Roiz
       特拉维斯·威林厄姆 Travis Willingham
       雯特·艾娃·佐莉 Winter Ave Zoli
       菲尔·莫里斯 Phil Morris
       瓦内萨·马歇尔 Vanessa Marshall
       吉姆·麦司奇门 Jim Meskimen
       威廉·赛莱耶 William Salyers


标  签 DC | 动画 | 美国 | 漫画改编 | 超级英雄 | 2020 | 科幻 | 大超

简  介  

  红子动画真的来了,经典DC漫画《超人:红色之子》动画版发布首张剧照,苏联超人亮相。
  杰森·伊萨克斯(《蝙蝠侠:红影迷踪》)配音超人,“根妹”艾米·阿克配音路易斯·莱恩,戴德里克·巴德配音莱克斯·卢瑟,瓦内萨·马歇尔配音神奇女侠,罗杰·克莱格·史密斯配音蝙蝠侠。
  《红子》由刘山姆(《超人之死》《超人王朝》)执导,将于明年第一季发碟和登陆数字平台。漫画来自马克·米拉,提出:如果超人不是降落在美国小镇,而是在乌克兰,长大成为了苏联领导人,胸前的S变成镰刀和锤子,他和世界会是怎样?对社会主义、资本主义、历史和人性的探讨相当有意思。
  1. Video
  2. ID                                       : 1
  3. Format                                   : HEVC
  4. Format/Info                              : High Efficiency Video Coding
  5. Format profile                           : Main High@L4@High
  6. Codec ID                                 : V_MPEGH/ISO/HEVC
  7. Duration                                 : 1 h 24 min
  8. Bit rate                                 : 35.8 Mb/s
  9. Width                                    : 3 840 pixels
  10. Height                                   : 2 160 pixels
  11. Display aspect ratio                     : 16:9
  12. Frame rate mode                          : Constant
  13. Frame rate                               : 23.976 (24000/1001/189150) FPS
  14. Color space                              : YUV
  15. Chroma subsampling                       : 4:2:0
  16. Bit depth                                : 10 bits
  17. Bits/(Pixel*Frame)                       : 0.180
  18. Stream size                              : 21.1 GiB (92%)
  19. Title                                    : Superman.Red.Son.2020.2160p.BluRay.x265.10bit.SDR.DTS-HD.MA.5.1-SWTYBLZ
  20. Writing library                          : x265 3.0ed72af837053:[Windows][GCC 8.2.0][64 bit] 10bit
  21. Encoding settings                        : cpuid=1111039 / frame-threads=6 / numa-pools=40 / wpp / no-pmode / no-pme / no-psnr / no-ssim / log-level=2 / input-csp=1 / input-res=3840x2160 / interlace=0 / total-frames=121264 / level-idc=51 / high-tier=1 / uhd-bd=0 / ref=3 / no-allow-non-conformance / repeat-headers / annexb / aud / hrd / info / hash=0 / no-temporal-layers / no-open-gop / min-keyint=1 / keyint=24 / gop-lookahead=0 / bframes=6 / b-adapt=2 / b-pyramid / bframe-bias=0 / rc-lookahead=25 / lookahead-slices=4 / scenecut=40 / radl=0 / no-splice / no-intra-refresh / ctu=64 / min-cu-size=8 / no-rect / no-amp / max-tu-size=32 / tu-inter-depth=1 / tu-intra-depth=1 / limit-tu=0 / rdoq-level=0 / dynamic-rd=0.00 / no-ssim-rd / signhide / no-tskip / nr-intra=0 / nr-inter=0 / no-constrained-intra / strong-intra-smoothing / max-merge=2 / limit-refs=3 / no-limit-modes / me=1 / subme=2 / merange=57 / temporal-mvp / weightp / no-weightb / no-analyze-src-pics / deblock=1:1 / no-sao / no-sao-non-deblock / rd=3 / no-early-skip / rskip / no-fast-intra / no-tskip-fast / no-cu-lossless / no-b-intra / no-splitrd-skip / rdpenalty=0 / psy-rd=0.40 / psy-rdoq=0.00 / no-rd-refine / no-lossless / cbqpoffs=0 / crqpoffs=0 / rc=crf / crf=16.0 / qcomp=0.60 / qpstep=4 / stats-write=0 / stats-read=0 / vbv-maxrate=160000 / vbv-bufsize=160000 / vbv-init=0.9 / crf-max=0.0 / crf-min=0.0 / ipratio=1.40 / pbratio=1.30 / aq-mode=1 / aq-strength=0.40 / cutree / zone-count=0 / no-strict-cbr / qg-size=32 / no-rc-grain / qpmax=69 / qpmin=0 / no-const-vbv / sar=1 / overscan=0 / videoformat=5 / range=0 / colorprim=2 / transfer=2 / colormatrix=2 / chromaloc=0 / display-window=0 / max-cll=0,0 / min-luma=0 / max-luma=1023 / log2-max-poc-lsb=8 / vui-timing-info / vui-hrd-info / slices=1 / opt-qp-pps / opt-ref-list-length-pps / no-multi-pass-opt-rps / scenecut-bias=0.05 / no-opt-cu-delta-qp / no-aq-motion / no-hdr / no-hdr-opt / no-dhdr10-opt / no-idr-recovery-sei / analysis-reuse-level=5 / scale-factor=0 / refine-intra=0 / refine-inter=0 / refine-mv=0 / refine-ctu-distortion=0 / no-limit-sao / ctu-info=0 / no-lowpass-dct / refine-analysis-type=0 / copy-pic=1 / max-ausize-factor=1.0 / no-dynamic-refine / no-single-sei / no-hevc-aq / qp-adaptation-range=1.00
  22. Default                                  : Yes
  23. Forced                                   : No

  24. Audio #1
  25. ID                                       : 2
  26. Format                                   : DTS XLL
  27. Format/Info                              : Digital Theater Systems
  28. Commercial name                          : DTS-HD Master Audio
  29. Codec ID                                 : A_DTS
  30. Duration                                 : 1 h 24 min
  31. Bit rate mode                            : Variable
  32. Bit rate                                 : 2 435 kb/s
  33. Channel(s)                               : 6 channels
  34. Channel layout                           : C L R Ls Rs LFE
  35. Sampling rate                            : 48.0 kHz
  36. Frame rate                               : 93.750 FPS (512 SPF)
  37. Bit depth                                : 16 bits
  38. Compression mode                         : Lossless
  39. Stream size                              : 1.43 GiB (6%)
  40. Title                                    : Superman.Red.Son.2020.2160p.BluRay.x265.10bit.SDR.DTS-HD.MA.5.1-SWTYBLZ
  41. Language                                 : English
  42. Default                                  : Yes
  43. Forced                                   : No

  44. Audio #2
  45. ID                                       : 3
  46. Format                                   : AC-3
  47. Format/Info                              : Audio Coding 3
  48. Commercial name                          : Dolby Digital
  49. Codec ID                                 : A_AC3
  50. Duration                                 : 1 h 24 min
  51. Bit rate mode                            : Constant
  52. Bit rate                                 : 640 kb/s
  53. Channel(s)                               : 6 channels
  54. Channel layout                           : L R C LFE Ls Rs
  55. Sampling rate                            : 48.0 kHz
  56. Frame rate                               : 31.250 FPS (1536 SPF)
  57. Compression mode                         : Lossy
  58. Stream size                              : 386 MiB (2%)
  59. Title                                    : Superman.Red.Son.2020.2160p.BluRay.x265.10bit.SDR.DTS-HD.MA.5.1-SWTYBLZ
  60. Language                                 : English
  61. Service kind                             : Complete Main
  62. Default                                  : No
  63. Forced                                   : No

  64. Text #1
  65. ID                                       : 4
  66. Format                                   : UTF-8
  67. Codec ID                                 : S_TEXT/UTF8
  68. Codec ID/Info                            : UTF-8 Plain Text
  69. Duration                                 : 1 h 20 min
  70. Bit rate                                 : 55 b/s
  71. Count of elements                        : 808
  72. Stream size                              : 32.4 KiB (0%)
  73. Title                                    : English-SRT
  74. Language                                 : English
  75. Default                                  : Yes
  76. Forced                                   : No

  77. Text #2
  78. ID                                       : 5
  79. Format                                   : PGS
  80. Muxing mode                              : zlib
  81. Codec ID                                 : S_HDMV/PGS
  82. Codec ID/Info                            : Picture based subtitle format used on BDs/HD-DVDs
  83. Duration                                 : 1 h 20 min
  84. Bit rate                                 : 31.8 kb/s
  85. Count of elements                        : 1780
  86. Stream size                              : 18.3 MiB (0%)
  87. Title                                    : English-PGS
  88. Language                                 : English
  89. Default                                  : No
  90. Forced                                   : No

  91. Text #3
  92. ID                                       : 6
  93. Format                                   : PGS
  94. Muxing mode                              : zlib
  95. Codec ID                                 : S_HDMV/PGS
  96. Codec ID/Info                            : Picture based subtitle format used on BDs/HD-DVDs
  97. Duration                                 : 1 h 23 min
  98. Bit rate                                 : 27.9 kb/s
  99. Count of elements                        : 1632
  100. Stream size                              : 16.7 MiB (0%)
  101. Title                                    : French-PGS
  102. Language                                 : French
  103. Default                                  : No
  104. Forced                                   : No

  105. Text #4
  106. ID                                       : 7
  107. Format                                   : PGS
  108. Muxing mode                              : zlib
  109. Codec ID                                 : S_HDMV/PGS
  110. Codec ID/Info                            : Picture based subtitle format used on BDs/HD-DVDs
  111. Duration                                 : 1 h 23 min
  112. Bit rate                                 : 30.7 kb/s
  113. Count of elements                        : 1648
  114. Stream size                              : 18.3 MiB (0%)
  115. Title                                    : Spanish-PGS
  116. Language                                 : Spanish
  117. Default                                  : No
  118. Forced                                   : No

  119. Menu
  120. 00:00:00.000                             : en:Chapter 01
  121. 00:08:15.453                             : en:Chapter 02
  122. 00:16:59.852                             : en:Chapter 03
  123. 00:27:19.179                             : en:Chapter 04
  124. 00:38:09.954                             : en:Chapter 05
  125. 00:48:38.374                             : en:Chapter 06
  126. 00:56:55.621                             : en:Chapter 07
  127. 01:02:34.459                             : en:Chapter 08
  128. 01:12:30.596                             : en:Chapter 09
  129. 01:21:39.978                             : en:Chapter 10
复制代码

超人:红色之子/超人:苏联之子 Superman.Red.Son.2020.2160p.BluRay.x265.10bit.SDR.DTS-HD.MA.5.1-SWTYBLZ 23.05GB-2.png 超人:红色之子/超人:苏联之子 Superman.Red.Son.2020.2160p.BluRay.x265.10bit.SDR.DTS-HD.MA.5.1-SWTYBLZ 23.05GB-3.png 超人:红色之子/超人:苏联之子 Superman.Red.Son.2020.2160p.BluRay.x265.10bit.SDR.DTS-HD.MA.5.1-SWTYBLZ 23.05GB-4.png 超人:红色之子/超人:苏联之子 Superman.Red.Son.2020.2160p.BluRay.x265.10bit.SDR.DTS-HD.MA.5.1-SWTYBLZ 23.05GB-5.png 超人:红色之子/超人:苏联之子 Superman.Red.Son.2020.2160p.BluRay.x265.10bit.SDR.DTS-HD.MA.5.1-SWTYBLZ 23.05GB-6.png 超人:红色之子/超人:苏联之子 Superman.Red.Son.2020.2160p.BluRay.x265.10bit.SDR.DTS-HD.MA.5.1-SWTYBLZ 23.05GB-7.png 超人:红色之子/超人:苏联之子 Superman.Red.Son.2020.2160p.BluRay.x265.10bit.SDR.DTS-HD.MA.5.1-SWTYBLZ 23.05GB-8.png







回复

使用道具 举报

发表于 2020-3-11 00:04:38 | 显示全部楼层
楼主发贴辛苦了,谢谢楼主分享!我觉得蓝光电影网是注册对了!
回复 支持 反对

使用道具 举报

发表于 2020-3-11 11:47:34 | 显示全部楼层
楼主发贴辛苦了,谢谢楼主分享!
回复 支持 反对

使用道具 举报

发表于 2020-3-11 21:55:19 | 显示全部楼层
感谢楼猪分享
回复 支持 反对

使用道具 举报

发表于 2020-3-11 23:18:54 | 显示全部楼层

楼主太厉害了!楼主,电影应该很好看我觉得蓝光电影网真是个好地方!
回复 支持 反对

使用道具 举报

已抛锚 成长值: 290

发表于 2020-3-12 21:55:46 | 显示全部楼层
楼主发贴辛苦了,谢谢楼主分享!我觉得蓝光电影网是注册对了!
回复 支持 反对

使用道具 举报

发表于 2020-3-16 10:40:02 | 显示全部楼层
谢谢楼主分享~!
回复 支持 反对

使用道具 举报

发表于 2020-3-17 09:17:33 | 显示全部楼层

楼主发贴辛苦了,谢谢楼主分享!
回复 支持 反对

使用道具 举报

发表于 2020-3-17 23:17:29 | 显示全部楼层
楼主发贴辛苦了,谢谢楼主分享!我觉得蓝光电影网是注册对了!
回复 支持 反对

使用道具 举报

发表于 2020-3-27 00:32:44 | 显示全部楼层
好看!!!!!!!!好看!!!!!!!!好看!!!!!!!!好看!!!!!!!!好看!!!!!!!!好看!!!!!!!!好看!!!!!!!!好看!!!!!!!!好看!!!!!!!!好看!!!!!!!!好看!!!!!!!!好看!!!!!!!!好看!!!!!!!!好看!!!!!!!!好看!!!!!!!!好看!!!!!!!!好看!!!!!!!!好看!!!!!!!!好看!!!!!!!!好看!!!!!!!!好看!!!!!!!!好看!!!!!!!!好看!!!!!!!!好看!!!!!!!!好看!!!!!!!!好看!!!!!!!!好看!!!!!!!!好看!!!!!!!!好看!!!!!!!!好看!!!!!!!!好看!!!!!!!!好看!!!!!!!!好看!!!!!!!!好看!!!!!!!!好看!!!!!!!!好看!!!!!!!!好看!!!!!!!!好看!!!!!!!!好看!!!!!!!!好看!!!!!!!!好看!!!!!!!!好看!!!!!!!!好看!!!!!!!!好看!!!!!!!!好看!!!!!!!!好看!!!!!!!!好看!!!!!!!!好看!!!!!!!!好看!!!!!!!!好看!!!!!!!!好看!!!!!!!!好看!!!!!!!!好看!!!!!!!!好看!!!!!!!!好看!!!!!!!!好看!!!!!!!!好看!!!!!!!!好看!!!!!!!!好看!!!!!!!!好看!!!!!!!!好看!!!!!!!!好看!!!!!!!!好看!!!!!!!!好看!!!!!!!!好看!!!!!!!!好看!!!!!!!!
回复 支持 反对

使用道具 举报

懒得打字嘛,点击右侧快捷回复 【右侧内容,后台自定义】
您需要登录后才可以回帖 登录 | 立即加入

本版积分规则

现在加入蓝光电影网,注册一个账号
上个主题 下个主题 快速回复 收藏帖子 返回列表 客服中心 搜索

手机版|小黑屋| 蓝光电影网 |网站地图 

Copyright © 2015-2019 Comsenz Inc.  Template by 蓝光电影论坛 All Rights Reserved.

Powered by 蓝光电影网 X3.4

特别声明:本站所有资源均由网上收集而来,版权归原影音公司所有,如果侵犯了你的权益,请通知我们,我们会及时删除侵权内容.

快速回复 返回顶部 返回列表