找回密码

蓝光电影网

查看: 470|回复: 4

[REMUX.HEVC] 超人:红色之子/超人:苏联之子 Superman.Red.Son.2020.2160p.BluRay.REMUX.HEVC.DTS-HD.MA.5.1-FGT 32.55GB

[复制链接]

 成长值: 25285

发表于 2020-3-10 23:46:07 | 显示全部楼层 |阅读模式
超人:红色之子/超人:苏联之子 Superman.Red.Son.2020.2160p.BluRay.REMUX.HEVC.DTS-HD.MA.5.1-FGT 32.55GB-1.png

译  名 超人:红色之子 / 超人:苏联之子 / 超人:赤子
片  名 Superman: Red Son
年  代 2020
产  地 美国
类  别 动画
语  言 英语
上映日期 2020-02-25(美国)
IMDb评分  6.3/10 from 2635 users
IMDb链接  https://www.imdb.com/title/tt10985510
豆瓣评分 4.8/10 from 2799 users
豆瓣链接 https://movie.douban.com/subject/27668334/
片  长 85分钟
导  演 刘山姆 Sam Liu
编  剧 J·M·德马泰 J.M. DeMatteis / 马克·米勒 Mark Millar
主  演 詹森·艾萨克 Jason Isaacs
       艾米·阿克 Amy Acker
       戴德里克·巴德 Diedrich Bader
       保罗·威廉姆斯 Paul Williams
       菲尔·拉马 Phil LaMarr
       罗杰·克莱格·史密斯 Roger Craig Smith
       萨沙·罗伊茨 Sasha Roiz
       特拉维斯·威林厄姆 Travis Willingham
       雯特·艾娃·佐莉 Winter Ave Zoli
       菲尔·莫里斯 Phil Morris
       瓦内萨·马歇尔 Vanessa Marshall
       吉姆·麦司奇门 Jim Meskimen
       威廉·赛莱耶 William Salyers


标  签 DC | 动画 | 美国 | 漫画改编 | 超级英雄 | 2020 | 科幻 | 大超

简  介  

  红子动画真的来了,经典DC漫画《超人:红色之子》动画版发布首张剧照,苏联超人亮相。
  杰森·伊萨克斯(《蝙蝠侠:红影迷踪》)配音超人,“根妹”艾米·阿克配音路易斯·莱恩,戴德里克·巴德配音莱克斯·卢瑟,瓦内萨·马歇尔配音神奇女侠,罗杰·克莱格·史密斯配音蝙蝠侠。
  《红子》由刘山姆(《超人之死》《超人王朝》)执导,将于明年第一季发碟和登陆数字平台。漫画来自马克·米拉,提出:如果超人不是降落在美国小镇,而是在乌克兰,长大成为了苏联领导人,胸前的S变成镰刀和锤子,他和世界会是怎样?对社会主义、资本主义、历史和人性的探讨相当有意思。
  1. Video
  2. ID                                       : 1
  3. Format                                   : HEVC
  4. Format/Info                              : High Efficiency Video Coding
  5. Format profile                           : Main High@L4@High
  6. HDR format                               : SMPTE ST 2086, HDR10 compatible
  7. Codec ID                                 : V_MPEGH/ISO/HEVC
  8. Duration                                 : 1 h 24 min
  9. Bit rate                                 : 51.5 Mb/s
  10. Width                                    : 3 840 pixels
  11. Height                                   : 2 160 pixels
  12. Display aspect ratio                     : 16:9
  13. Frame rate mode                          : Constant
  14. Frame rate                               : 23.976 (24000/1001/189150) FPS
  15. Color space                              : YUV
  16. Chroma subsampling                       : 4:2:0 (Type 2)
  17. Bit depth                                : 10 bits
  18. Bits/(Pixel*Frame)                       : 0.259
  19. Stream size                              : 30.3 GiB (93%)
  20. Title                                    : Superman.Red.Son.2020.2160p.BluRay.REMUX.HEVC.DTS-HD.MA.5.1-FGT
  21. Language                                 : English
  22. Default                                  : No
  23. Forced                                   : No
  24. Color range                              : Limited
  25. Color primaries                          : BT.2020
  26. Transfer characteristics                 : PQ
  27. Matrix coefficients                      : BT.2020 non-constant
  28. Mastering display color primaries        : BT.2020
  29. Mastering display luminance              : min: 0.0050 cd/m2, max: 4000 cd/m2
  30. Maximum Content Light Level              : 816 cd/m2
  31. Maximum Frame-Average Light Level        : 338 cd/m2

  32. Audio #1
  33. ID                                       : 2
  34. Format                                   : DTS XLL
  35. Format/Info                              : Digital Theater Systems
  36. Commercial name                          : DTS-HD Master Audio
  37. Codec ID                                 : A_DTS
  38. Duration                                 : 1 h 24 min
  39. Bit rate mode                            : Variable
  40. Bit rate                                 : 2 435 kb/s
  41. Channel(s)                               : 6 channels
  42. Channel layout                           : C L R Ls Rs LFE
  43. Sampling rate                            : 48.0 kHz
  44. Frame rate                               : 93.750 FPS (512 SPF)
  45. Bit depth                                : 16 bits
  46. Compression mode                         : Lossless
  47. Stream size                              : 1.43 GiB (4%)
  48. Title                                    : Superman.Red.Son.2020.2160p.BluRay.REMUX.HEVC.DTS-HD.MA.5.1-FGT
  49. Language                                 : English
  50. Default                                  : Yes
  51. Forced                                   : No

  52. Audio #2
  53. ID                                       : 3
  54. Format                                   : AC-3
  55. Format/Info                              : Audio Coding 3
  56. Commercial name                          : Dolby Digital
  57. Codec ID                                 : A_AC3
  58. Duration                                 : 1 h 24 min
  59. Bit rate mode                            : Constant
  60. Bit rate                                 : 640 kb/s
  61. Channel(s)                               : 6 channels
  62. Channel layout                           : L R C LFE Ls Rs
  63. Sampling rate                            : 48.0 kHz
  64. Frame rate                               : 31.250 FPS (1536 SPF)
  65. Bit depth                                : 16 bits
  66. Compression mode                         : Lossy
  67. Stream size                              : 386 MiB (1%)
  68. Title                                    : Superman.Red.Son.2020.2160p.BluRay.REMUX.HEVC.DTS-HD.MA.5.1-FGT
  69. Language                                 : French
  70. Service kind                             : Complete Main
  71. Default                                  : No
  72. Forced                                   : No

  73. Audio #3
  74. ID                                       : 4
  75. Format                                   : AC-3
  76. Format/Info                              : Audio Coding 3
  77. Commercial name                          : Dolby Digital
  78. Codec ID                                 : A_AC3
  79. Duration                                 : 1 h 24 min
  80. Bit rate mode                            : Constant
  81. Bit rate                                 : 640 kb/s
  82. Channel(s)                               : 6 channels
  83. Channel layout                           : L R C LFE Ls Rs
  84. Sampling rate                            : 48.0 kHz
  85. Frame rate                               : 31.250 FPS (1536 SPF)
  86. Bit depth                                : 16 bits
  87. Compression mode                         : Lossy
  88. Stream size                              : 386 MiB (1%)
  89. Title                                    : Superman.Red.Son.2020.2160p.BluRay.REMUX.HEVC.DTS-HD.MA.5.1-FGT
  90. Language                                 : Spanish
  91. Service kind                             : Complete Main
  92. Default                                  : No
  93. Forced                                   : No

  94. Text #1
  95. ID                                       : 5
  96. Format                                   : UTF-8
  97. Codec ID                                 : S_TEXT/UTF8
  98. Codec ID/Info                            : UTF-8 Plain Text
  99. Duration                                 : 1 h 20 min
  100. Bit rate                                 : 55 b/s
  101. Count of elements                        : 808
  102. Stream size                              : 32.4 KiB (0%)
  103. Title                                    : English-SRT
  104. Language                                 : English
  105. Default                                  : Yes
  106. Forced                                   : No

  107. Text #2
  108. ID                                       : 6
  109. Format                                   : PGS
  110. Muxing mode                              : zlib
  111. Codec ID                                 : S_HDMV/PGS
  112. Codec ID/Info                            : Picture based subtitle format used on BDs/HD-DVDs
  113. Duration                                 : 1 h 20 min
  114. Bit rate                                 : 31.8 kb/s
  115. Count of elements                        : 1780
  116. Stream size                              : 18.3 MiB (0%)
  117. Title                                    : English-PGS
  118. Language                                 : English
  119. Default                                  : No
  120. Forced                                   : No

  121. Text #3
  122. ID                                       : 7
  123. Format                                   : PGS
  124. Muxing mode                              : zlib
  125. Codec ID                                 : S_HDMV/PGS
  126. Codec ID/Info                            : Picture based subtitle format used on BDs/HD-DVDs
  127. Duration                                 : 1 h 23 min
  128. Bit rate                                 : 27.9 kb/s
  129. Count of elements                        : 1632
  130. Stream size                              : 16.7 MiB (0%)
  131. Title                                    : French-PGS
  132. Language                                 : French
  133. Default                                  : No
  134. Forced                                   : No

  135. Text #4
  136. ID                                       : 8
  137. Format                                   : PGS
  138. Muxing mode                              : zlib
  139. Codec ID                                 : S_HDMV/PGS
  140. Codec ID/Info                            : Picture based subtitle format used on BDs/HD-DVDs
  141. Duration                                 : 1 h 23 min
  142. Bit rate                                 : 30.7 kb/s
  143. Count of elements                        : 1648
  144. Stream size                              : 18.3 MiB (0%)
  145. Title                                    : Spanish-PGS
  146. Language                                 : Spanish
  147. Default                                  : No
  148. Forced                                   : No

  149. Text #5
  150. ID                                       : 9
  151. Format                                   : PGS
  152. Muxing mode                              : zlib
  153. Codec ID                                 : S_HDMV/PGS
  154. Codec ID/Info                            : Picture based subtitle format used on BDs/HD-DVDs
  155. Duration                                 : 1 h 20 min
  156. Bit rate                                 : 330 b/s
  157. Count of elements                        : 22
  158. Stream size                              : 195 KiB (0%)
  159. Title                                    : French-FORCED-PGS
  160. Language                                 : French
  161. Default                                  : No
  162. Forced                                   : No

  163. Menu
  164. 00:00:00.000                             : en:Chapter 01
  165. 00:08:15.286                             : en:Chapter 02
  166. 00:16:59.852                             : en:Chapter 03
  167. 00:27:19.179                             : en:Chapter 04
  168. 00:38:09.787                             : en:Chapter 05
  169. 00:48:37.998                             : en:Chapter 06
  170. 00:56:55.245                             : en:Chapter 07
  171. 01:02:34.459                             : en:Chapter 08
  172. 01:12:30.471                             : en:Chapter 09
  173. 01:21:39.686                             : en:Chapter 10
复制代码

超人:红色之子/超人:苏联之子 Superman.Red.Son.2020.2160p.BluRay.REMUX.HEVC.DTS-HD.MA.5.1-FGT 32.55GB-2.png 超人:红色之子/超人:苏联之子 Superman.Red.Son.2020.2160p.BluRay.REMUX.HEVC.DTS-HD.MA.5.1-FGT 32.55GB-3.png 超人:红色之子/超人:苏联之子 Superman.Red.Son.2020.2160p.BluRay.REMUX.HEVC.DTS-HD.MA.5.1-FGT 32.55GB-4.png






回复

使用道具 举报

发表于 2020-3-11 20:46:25 | 显示全部楼层
楼主发贴辛苦了,谢谢楼主分享!我觉得蓝光电影网是注册对了!
回复 支持 反对

使用道具 举报

发表于 2020-3-12 01:28:50 | 显示全部楼层
楼主发贴辛苦了,谢谢楼主分享!我觉得蓝光电影网是注册对了!
回复 支持 反对

使用道具 举报

发表于 2020-3-16 11:09:00 | 显示全部楼层
谢谢分享
回复

使用道具 举报

发表于 2020-3-27 17:32:22 | 显示全部楼层
多谢楼主分享!
回复 支持 反对

使用道具 举报

懒得打字嘛,点击右侧快捷回复 【右侧内容,后台自定义】
您需要登录后才可以回帖 登录 | 立即加入

本版积分规则

现在加入蓝光电影网,注册一个账号
上个主题 下个主题 快速回复 收藏帖子 返回列表 客服中心 搜索

手机版|小黑屋| 蓝光电影网 |网站地图 

Copyright © 2015-2019 Comsenz Inc.  Template by 蓝光电影论坛 All Rights Reserved.

Powered by 蓝光电影网 X3.4

特别声明:本站所有资源均由网上收集而来,版权归原影音公司所有,如果侵犯了你的权益,请通知我们,我们会及时删除侵权内容.

快速回复 返回顶部 返回列表