找回密码

蓝光电影网

查看: 661|回复: 31

[2160p-WEB] 哈拉/爱由自主 Hala.2019.2160p.WEB.h265-NiXON 14.06GB

[复制链接]

 成长值: 25285

发表于 2020-3-10 01:00:43 | 显示全部楼层 |阅读模式
哈拉/爱由自主 Hala.2019.2160p.WEB.h265-NiXON 14.06GB-1.png

译  名 哈拉 / 爱由自主
片  名 Hala
年  代 2019
产  地 美国
类  别 剧情
语  言 英语 / 乌尔都语
上映日期 2019-01-26(圣丹斯电影节) / 2019-12-06(美国)
IMDb评分  5.7/10 from 1047 users
IMDb链接  https://www.imdb.com/title/tt6348410
豆瓣评分 6.8/10 from 197 users
豆瓣链接 https://movie.douban.com/subject/30236566/
片  长 93分钟
导  演 Minhal Baig
编  剧 Minhal Baig
主  演 杰拉尔丁·维斯瓦纳坦 Geraldine Viswanathan
       杰克·基默 Jack Kilmer
       加布里埃尔·鲁纳 Gabriel Luna
       安娜·克拉姆斯基 Anna Chlumsky
       萨姆·史特拉雷 Sam Straley
       Jimmy Chung
       Purbi Joshi
       Azad Khan
       Keith LeCreed Harris
       Taylor Marie Blim
       Celia Skvaril
       Charin Alvarez
       Sonny Bhatt
       Ahmed Lucan
       Alka Nayyar
       Raven Whitley
       Bianca Corral
       Zayna Dib


标  签 青春 | 2019 | 美国 | 女性 | 剧情 | 穆斯林 | 美国电影 | AppleTV+

简  介  

  Hala是父亲的骄傲,她尽职尽责、有学术天赋,能够巧妙地驾驭她在芝加哥的青少年社交生活、以及作为巴基斯坦移民的独生子女的义务。
  然而随着高中毕业的临近,Hala 遇到了青春期的烦恼。她遇到同班级热情洋溢的滑板男孩 Jesse,但这段浪漫的感情,却因信仰和包办婚姻的传统而变得复杂。
  开始挑战这些习俗,将自己的生活与父母解绑,这无疑是对自身力量与呐喊的一次重大考验。

获奖情况  

  第35届圣丹斯电影节(2019)
  评审团大奖 剧情片(提名) 明哈尔·贝格
  1. Video
  2. ID                                       : 1
  3. Format                                   : HEVC
  4. Format/Info                              : High Efficiency Video Coding
  5. Format profile                           : Main High@L4@High
  6. Codec ID                                 : V_MPEGH/ISO/HEVC
  7. Duration                                 : 1 h 33 min
  8. Bit rate                                 : 20.7 Mb/s
  9. Width                                    : 3 840 pixels
  10. Height                                   : 2 076 pixels
  11. Display aspect ratio                     : 1.85:1
  12. Frame rate mode                          : Constant
  13. Frame rate                               : 23.976 FPS
  14. Color space                              : YUV
  15. Chroma subsampling                       : 4:2:0
  16. Bit depth                                : 10 bits
  17. Bits/(Pixel*Frame)                       : 0.108
  18. Stream size                              : 13.6 GiB (96%)
  19. Language                                 : English
  20. Default                                  : Yes
  21. Forced                                   : No
  22. Color range                              : Limited
  23. Color primaries                          : BT.709
  24. Transfer characteristics                 : BT.709
  25. Matrix coefficients                      : BT.709

  26. Audio
  27. ID                                       : 2
  28. Format                                   : E-AC-3 JOC
  29. Format/Info                              : Enhanced AC-3 with Joint Object Coding
  30. Commercial name                          : Dolby Digital Plus with Dolby Atmos
  31. Codec ID                                 : A_EAC3
  32. Duration                                 : 1 h 33 min
  33. Bit rate mode                            : Constant
  34. Bit rate                                 : 768 kb/s
  35. Channel(s)                               : 6 channels
  36. Channel layout                           : L R C LFE Ls Rs
  37. Sampling rate                            : 48.0 kHz
  38. Frame rate                               : 31.250 FPS (1536 SPF)
  39. Compression mode                         : Lossy
  40. Stream size                              : 516 MiB (4%)
  41. Language                                 : English
  42. Service kind                             : Complete Main
  43. Default                                  : Yes
  44. Forced                                   : No
  45. Complexity index                         : 16
  46. Number of dynamic objects                : 15
  47. Bed channel count                        : 1 channel
  48. Bed channel configuration                : LFE

  49. Text #1
  50. ID                                       : 3
  51. Format                                   : UTF-8
  52. Codec ID                                 : S_TEXT/UTF8
  53. Codec ID/Info                            : UTF-8 Plain Text
  54. Duration                                 : 1 h 33 min
  55. Bit rate                                 : 57 b/s
  56. Count of elements                        : 942
  57. Stream size                              : 39.2 KiB (0%)
  58. Title                                    : ???????
  59. Language                                 : Arabic
  60. Default                                  : No
  61. Forced                                   : No

  62. Text #2
  63. ID                                       : 4
  64. Format                                   : UTF-8
  65. Codec ID                                 : S_TEXT/UTF8
  66. Codec ID/Info                            : UTF-8 Plain Text
  67. Duration                                 : 1 h 33 min
  68. Bit rate                                 : 61 b/s
  69. Count of elements                        : 900
  70. Stream size                              : 41.9 KiB (0%)
  71. Title                                    : български
  72. Language                                 : Bulgarian
  73. Default                                  : No
  74. Forced                                   : No

  75. Text #3
  76. ID                                       : 5
  77. Format                                   : UTF-8
  78. Codec ID                                 : S_TEXT/UTF8
  79. Codec ID/Info                            : UTF-8 Plain Text
  80. Duration                                 : 1 h 33 min
  81. Bit rate                                 : 39 b/s
  82. Count of elements                        : 934
  83. Stream size                              : 26.9 KiB (0%)
  84. Title                                    : ?e?tina
  85. Language                                 : Czech
  86. Default                                  : No
  87. Forced                                   : No

  88. Text #4
  89. ID                                       : 6
  90. Format                                   : UTF-8
  91. Codec ID                                 : S_TEXT/UTF8
  92. Codec ID/Info                            : UTF-8 Plain Text
  93. Duration                                 : 1 h 33 min
  94. Bit rate                                 : 40 b/s
  95. Count of elements                        : 934
  96. Stream size                              : 27.9 KiB (0%)
  97. Title                                    : dansk
  98. Language                                 : Danish
  99. Default                                  : No
  100. Forced                                   : No

  101. Text #5
  102. ID                                       : 7
  103. Format                                   : UTF-8
  104. Codec ID                                 : S_TEXT/UTF8
  105. Codec ID/Info                            : UTF-8 Plain Text
  106. Duration                                 : 1 h 33 min
  107. Bit rate                                 : 39 b/s
  108. Count of elements                        : 902
  109. Stream size                              : 27.0 KiB (0%)
  110. Title                                    : Deutsch
  111. Language                                 : German
  112. Default                                  : No
  113. Forced                                   : No

  114. Text #6
  115. ID                                       : 8
  116. Format                                   : UTF-8
  117. Codec ID                                 : S_TEXT/UTF8
  118. Codec ID/Info                            : UTF-8 Plain Text
  119. Duration                                 : 1 h 33 min
  120. Bit rate                                 : 69 b/s
  121. Count of elements                        : 942
  122. Stream size                              : 47.1 KiB (0%)
  123. Title                                    : Ελληνικ?
  124. Language                                 : Greek
  125. Default                                  : No
  126. Forced                                   : No

  127. Text #7
  128. ID                                       : 9
  129. Format                                   : UTF-8
  130. Codec ID                                 : S_TEXT/UTF8
  131. Codec ID/Info                            : UTF-8 Plain Text
  132. Duration                                 : 1 h 27 min
  133. Bit rate                                 : 49 b/s
  134. Count of elements                        : 1043
  135. Stream size                              : 31.3 KiB (0%)
  136. Title                                    : English (SDH)
  137. Language                                 : English
  138. Default                                  : No
  139. Forced                                   : No

  140. Text #8
  141. ID                                       : 10
  142. Format                                   : UTF-8
  143. Codec ID                                 : S_TEXT/UTF8
  144. Codec ID/Info                            : UTF-8 Plain Text
  145. Duration                                 : 1 h 24 min
  146. Bit rate                                 : 44 b/s
  147. Count of elements                        : 919
  148. Stream size                              : 27.4 KiB (0%)
  149. Title                                    : English
  150. Language                                 : English
  151. Default                                  : No
  152. Forced                                   : No

  153. Text #9
  154. ID                                       : 11
  155. Format                                   : UTF-8
  156. Codec ID                                 : S_TEXT/UTF8
  157. Codec ID/Info                            : UTF-8 Plain Text
  158. Duration                                 : 1 h 24 min
  159. Bit rate                                 : 14 b/s
  160. Count of elements                        : 304
  161. Stream size                              : 8.86 KiB (0%)
  162. Title                                    : English (forced)
  163. Language                                 : English
  164. Default                                  : No
  165. Forced                                   : Yes

  166. Text #10
  167. ID                                       : 12
  168. Format                                   : UTF-8
  169. Codec ID                                 : S_TEXT/UTF8
  170. Codec ID/Info                            : UTF-8 Plain Text
  171. Duration                                 : 1 h 33 min
  172. Bit rate                                 : 40 b/s
  173. Count of elements                        : 1026
  174. Stream size                              : 27.6 KiB (0%)
  175. Title                                    : Espa?ol (Espa?a)
  176. Language                                 : Spanish
  177. Default                                  : No
  178. Forced                                   : No

  179. Text #11
  180. ID                                       : 13
  181. Format                                   : UTF-8
  182. Codec ID                                 : S_TEXT/UTF8
  183. Codec ID/Info                            : UTF-8 Plain Text
  184. Duration                                 : 1 h 33 min
  185. Bit rate                                 : 39 b/s
  186. Count of elements                        : 935
  187. Stream size                              : 27.3 KiB (0%)
  188. Title                                    : Espa?ol (Latinoamérica)
  189. Language                                 : Spanish
  190. Default                                  : No
  191. Forced                                   : No

  192. Text #12
  193. ID                                       : 14
  194. Format                                   : UTF-8
  195. Codec ID                                 : S_TEXT/UTF8
  196. Codec ID/Info                            : UTF-8 Plain Text
  197. Duration                                 : 1 h 33 min
  198. Bit rate                                 : 39 b/s
  199. Count of elements                        : 934
  200. Stream size                              : 27.0 KiB (0%)
  201. Title                                    : eesti
  202. Language                                 : Estonian
  203. Default                                  : No
  204. Forced                                   : No

  205. Text #13
  206. ID                                       : 15
  207. Format                                   : UTF-8
  208. Codec ID                                 : S_TEXT/UTF8
  209. Codec ID/Info                            : UTF-8 Plain Text
  210. Duration                                 : 1 h 33 min
  211. Bit rate                                 : 38 b/s
  212. Count of elements                        : 934
  213. Stream size                              : 26.2 KiB (0%)
  214. Title                                    : Suomi
  215. Language                                 : Finnish
  216. Default                                  : No
  217. Forced                                   : No

  218. Text #14
  219. ID                                       : 16
  220. Format                                   : UTF-8
  221. Codec ID                                 : S_TEXT/UTF8
  222. Codec ID/Info                            : UTF-8 Plain Text
  223. Duration                                 : 1 h 33 min
  224. Bit rate                                 : 40 b/s
  225. Count of elements                        : 899
  226. Stream size                              : 27.8 KiB (0%)
  227. Title                                    : Fran?ais (France)
  228. Language                                 : French
  229. Default                                  : No
  230. Forced                                   : No

  231. Text #15
  232. ID                                       : 17
  233. Format                                   : UTF-8
  234. Codec ID                                 : S_TEXT/UTF8
  235. Codec ID/Info                            : UTF-8 Plain Text
  236. Duration                                 : 1 h 33 min
  237. Bit rate                                 : 52 b/s
  238. Count of elements                        : 943
  239. Stream size                              : 36.2 KiB (0%)
  240. Title                                    : ?????
  241. Language                                 : Hebrew
  242. Default                                  : No
  243. Forced                                   : No

  244. Text #16
  245. ID                                       : 18
  246. Format                                   : UTF-8
  247. Codec ID                                 : S_TEXT/UTF8
  248. Codec ID/Info                            : UTF-8 Plain Text
  249. Duration                                 : 1 h 33 min
  250. Bit rate                                 : 76 b/s
  251. Count of elements                        : 661
  252. Stream size                              : 52.2 KiB (0%)
  253. Title                                    : ??????
  254. Language                                 : Hindi
  255. Default                                  : No
  256. Forced                                   : No

  257. Text #17
  258. ID                                       : 19
  259. Format                                   : UTF-8
  260. Codec ID                                 : S_TEXT/UTF8
  261. Codec ID/Info                            : UTF-8 Plain Text
  262. Duration                                 : 1 h 33 min
  263. Bit rate                                 : 39 b/s
  264. Count of elements                        : 934
  265. Stream size                              : 26.8 KiB (0%)
  266. Title                                    : magyar
  267. Language                                 : Hungarian
  268. Default                                  : No
  269. Forced                                   : No

  270. Text #18
  271. ID                                       : 20
  272. Format                                   : UTF-8
  273. Codec ID                                 : S_TEXT/UTF8
  274. Codec ID/Info                            : UTF-8 Plain Text
  275. Duration                                 : 1 h 33 min
  276. Bit rate                                 : 38 b/s
  277. Count of elements                        : 934
  278. Stream size                              : 26.5 KiB (0%)
  279. Title                                    : Bahasa Indonesia
  280. Language                                 : Indonesian
  281. Default                                  : No
  282. Forced                                   : No

  283. Text #19
  284. ID                                       : 21
  285. Format                                   : UTF-8
  286. Codec ID                                 : S_TEXT/UTF8
  287. Codec ID/Info                            : UTF-8 Plain Text
  288. Duration                                 : 1 h 33 min
  289. Bit rate                                 : 41 b/s
  290. Count of elements                        : 935
  291. Stream size                              : 28.5 KiB (0%)
  292. Title                                    : Italiano
  293. Language                                 : Italian
  294. Default                                  : No
  295. Forced                                   : No

  296. Text #20
  297. ID                                       : 22
  298. Format                                   : UTF-8
  299. Codec ID                                 : S_TEXT/UTF8
  300. Codec ID/Info                            : UTF-8 Plain Text
  301. Duration                                 : 1 h 33 min
  302. Bit rate                                 : 39 b/s
  303. Count of elements                        : 874
  304. Stream size                              : 27.2 KiB (0%)
  305. Title                                    : 日本語
  306. Language                                 : Japanese
  307. Default                                  : No
  308. Forced                                   : No

  309. Text #21
  310. ID                                       : 23
  311. Format                                   : UTF-8
  312. Codec ID                                 : S_TEXT/UTF8
  313. Codec ID/Info                            : UTF-8 Plain Text
  314. Duration                                 : 1 h 33 min
  315. Bit rate                                 : 37 b/s
  316. Count of elements                        : 941
  317. Stream size                              : 25.5 KiB (0%)
  318. Title                                    : lietuvi?
  319. Language                                 : Lithuanian
  320. Default                                  : No
  321. Forced                                   : No

  322. Text #22
  323. ID                                       : 24
  324. Format                                   : UTF-8
  325. Codec ID                                 : S_TEXT/UTF8
  326. Codec ID/Info                            : UTF-8 Plain Text
  327. Duration                                 : 1 h 33 min
  328. Bit rate                                 : 40 b/s
  329. Count of elements                        : 942
  330. Stream size                              : 27.6 KiB (0%)
  331. Title                                    : latvie?u
  332. Language                                 : Latvian
  333. Default                                  : No
  334. Forced                                   : No

  335. Text #23
  336. ID                                       : 25
  337. Format                                   : UTF-8
  338. Codec ID                                 : S_TEXT/UTF8
  339. Codec ID/Info                            : UTF-8 Plain Text
  340. Duration                                 : 1 h 33 min
  341. Bit rate                                 : 42 b/s
  342. Count of elements                        : 934
  343. Stream size                              : 28.9 KiB (0%)
  344. Title                                    : Bahasa Melayu
  345. Language                                 : Malay
  346. Default                                  : No
  347. Forced                                   : No

  348. Text #24
  349. ID                                       : 26
  350. Format                                   : UTF-8
  351. Codec ID                                 : S_TEXT/UTF8
  352. Codec ID/Info                            : UTF-8 Plain Text
  353. Duration                                 : 1 h 33 min
  354. Bit rate                                 : 36 b/s
  355. Count of elements                        : 893
  356. Stream size                              : 24.8 KiB (0%)
  357. Title                                    : Nederlands
  358. Language                                 : Dutch
  359. Default                                  : No
  360. Forced                                   : No

  361. Text #25
  362. ID                                       : 27
  363. Format                                   : UTF-8
  364. Codec ID                                 : S_TEXT/UTF8
  365. Codec ID/Info                            : UTF-8 Plain Text
  366. Duration                                 : 1 h 33 min
  367. Bit rate                                 : 39 b/s
  368. Count of elements                        : 930
  369. Stream size                              : 27.3 KiB (0%)
  370. Title                                    : norsk
  371. Language                                 : Norwegian
  372. Default                                  : No
  373. Forced                                   : No

  374. Text #26
  375. ID                                       : 28
  376. Format                                   : UTF-8
  377. Codec ID                                 : S_TEXT/UTF8
  378. Codec ID/Info                            : UTF-8 Plain Text
  379. Duration                                 : 1 h 33 min
  380. Bit rate                                 : 37 b/s
  381. Count of elements                        : 932
  382. Stream size                              : 25.9 KiB (0%)
  383. Title                                    : polski
  384. Language                                 : Polish
  385. Default                                  : No
  386. Forced                                   : No

  387. Text #27
  388. ID                                       : 29
  389. Format                                   : UTF-8
  390. Codec ID                                 : S_TEXT/UTF8
  391. Codec ID/Info                            : UTF-8 Plain Text
  392. Duration                                 : 1 h 33 min
  393. Bit rate                                 : 39 b/s
  394. Count of elements                        : 933
  395. Stream size                              : 27.0 KiB (0%)
  396. Title                                    : Português (Brasil)
  397. Language                                 : Portuguese
  398. Default                                  : No
  399. Forced                                   : No

  400. Text #28
  401. ID                                       : 30
  402. Format                                   : UTF-8
  403. Codec ID                                 : S_TEXT/UTF8
  404. Codec ID/Info                            : UTF-8 Plain Text
  405. Duration                                 : 1 h 33 min
  406. Bit rate                                 : 40 b/s
  407. Count of elements                        : 934
  408. Stream size                              : 27.4 KiB (0%)
  409. Title                                    : Português
  410. Language                                 : Portuguese
  411. Default                                  : No
  412. Forced                                   : No

  413. Text #29
  414. ID                                       : 31
  415. Format                                   : UTF-8
  416. Codec ID                                 : S_TEXT/UTF8
  417. Codec ID/Info                            : UTF-8 Plain Text
  418. Duration                                 : 1 h 33 min
  419. Bit rate                                 : 64 b/s
  420. Count of elements                        : 943
  421. Stream size                              : 44.1 KiB (0%)
  422. Title                                    : Русский
  423. Language                                 : Russian
  424. Default                                  : No
  425. Forced                                   : No

  426. Text #30
  427. ID                                       : 32
  428. Format                                   : UTF-8
  429. Codec ID                                 : S_TEXT/UTF8
  430. Codec ID/Info                            : UTF-8 Plain Text
  431. Duration                                 : 1 h 33 min
  432. Bit rate                                 : 38 b/s
  433. Count of elements                        : 934
  434. Stream size                              : 26.3 KiB (0%)
  435. Title                                    : Sloven?ina
  436. Language                                 : Slovak
  437. Default                                  : No
  438. Forced                                   : No

  439. Text #31
  440. ID                                       : 33
  441. Format                                   : UTF-8
  442. Codec ID                                 : S_TEXT/UTF8
  443. Codec ID/Info                            : UTF-8 Plain Text
  444. Duration                                 : 1 h 33 min
  445. Bit rate                                 : 33 b/s
  446. Count of elements                        : 933
  447. Stream size                              : 23.1 KiB (0%)
  448. Title                                    : sloven??ina
  449. Language                                 : Slovenian
  450. Default                                  : No
  451. Forced                                   : No

  452. Text #32
  453. ID                                       : 34
  454. Format                                   : UTF-8
  455. Codec ID                                 : S_TEXT/UTF8
  456. Codec ID/Info                            : UTF-8 Plain Text
  457. Duration                                 : 1 h 33 min
  458. Bit rate                                 : 40 b/s
  459. Count of elements                        : 934
  460. Stream size                              : 27.3 KiB (0%)
  461. Title                                    : Svenska
  462. Language                                 : Swedish
  463. Default                                  : No
  464. Forced                                   : No

  465. Text #33
  466. ID                                       : 35
  467. Format                                   : UTF-8
  468. Codec ID                                 : S_TEXT/UTF8
  469. Codec ID/Info                            : UTF-8 Plain Text
  470. Duration                                 : 1 h 33 min
  471. Bit rate                                 : 137 b/s
  472. Count of elements                        : 943
  473. Stream size                              : 93.7 KiB (0%)
  474. Title                                    : ?????
  475. Language                                 : Tamil
  476. Default                                  : No
  477. Forced                                   : No

  478. Text #34
  479. ID                                       : 36
  480. Format                                   : UTF-8
  481. Codec ID                                 : S_TEXT/UTF8
  482. Codec ID/Info                            : UTF-8 Plain Text
  483. Duration                                 : 1 h 33 min
  484. Bit rate                                 : 112 b/s
  485. Count of elements                        : 942
  486. Stream size                              : 76.9 KiB (0%)
  487. Title                                    : ??????
  488. Language                                 : Telugu
  489. Default                                  : No
  490. Forced                                   : No

  491. Text #35
  492. ID                                       : 37
  493. Format                                   : UTF-8
  494. Codec ID                                 : S_TEXT/UTF8
  495. Codec ID/Info                            : UTF-8 Plain Text
  496. Duration                                 : 1 h 33 min
  497. Bit rate                                 : 97 b/s
  498. Count of elements                        : 943
  499. Stream size                              : 66.7 KiB (0%)
  500. Title                                    : ???
  501. Language                                 : Thai
  502. Default                                  : No
  503. Forced                                   : No

  504. Text #36
  505. ID                                       : 38
  506. Format                                   : UTF-8
  507. Codec ID                                 : S_TEXT/UTF8
  508. Codec ID/Info                            : UTF-8 Plain Text
  509. Duration                                 : 1 h 33 min
  510. Bit rate                                 : 61 b/s
  511. Count of elements                        : 943
  512. Stream size                              : 41.8 KiB (0%)
  513. Title                                    : укра?нська
  514. Language                                 : Ukrainian
  515. Default                                  : No
  516. Forced                                   : No

  517. Text #37
  518. ID                                       : 39
  519. Format                                   : UTF-8
  520. Codec ID                                 : S_TEXT/UTF8
  521. Codec ID/Info                            : UTF-8 Plain Text
  522. Duration                                 : 1 h 33 min
  523. Bit rate                                 : 53 b/s
  524. Count of elements                        : 934
  525. Stream size                              : 36.4 KiB (0%)
  526. Title                                    : Ti?ng Vi?t
  527. Language                                 : Vietnamese
  528. Default                                  : No
  529. Forced                                   : No

  530. Text #38
  531. ID                                       : 40
  532. Format                                   : UTF-8
  533. Codec ID                                 : S_TEXT/UTF8
  534. Codec ID/Info                            : UTF-8 Plain Text
  535. Duration                                 : 1 h 33 min
  536. Bit rate                                 : 37 b/s
  537. Count of elements                        : 942
  538. Stream size                              : 25.4 KiB (0%)
  539. Title                                    : 廣東話
  540. Language                                 : Chinese
  541. Default                                  : No
  542. Forced                                   : No

  543. Text #39
  544. ID                                       : 41
  545. Format                                   : UTF-8
  546. Codec ID                                 : S_TEXT/UTF8
  547. Codec ID/Info                            : UTF-8 Plain Text
  548. Duration                                 : 1 h 33 min
  549. Bit rate                                 : 35 b/s
  550. Count of elements                        : 942
  551. Stream size                              : 24.0 KiB (0%)
  552. Title                                    : 中文(繁體)
  553. Language                                 : Chinese
  554. Default                                  : No
  555. Forced                                   : No

  556. Text #40
  557. ID                                       : 42
  558. Format                                   : UTF-8
  559. Codec ID                                 : S_TEXT/UTF8
  560. Codec ID/Info                            : UTF-8 Plain Text
  561. Duration                                 : 1 h 33 min
  562. Bit rate                                 : 36 b/s
  563. Count of elements                        : 941
  564. Stream size                              : 25.1 KiB (0%)
  565. Title                                    : 中文(简体)
  566. Language                                 : Chinese
  567. Default                                  : No
  568. Forced                                   : No
复制代码

哈拉/爱由自主 Hala.2019.2160p.WEB.h265-NiXON 14.06GB-2.png 哈拉/爱由自主 Hala.2019.2160p.WEB.h265-NiXON 14.06GB-3.png 010054kw0ofufg6px5gw60.png






回复

使用道具 举报

发表于 2020-3-10 21:32:34 | 显示全部楼层
楼主发贴辛苦了,谢谢楼主分享!我觉得蓝光电影网是注册对了!
回复 支持 1 反对 0

使用道具 举报

发表于 2020-3-10 02:30:08 | 显示全部楼层
楼主发贴辛苦了,谢谢楼主分享!我觉得蓝光电影网是注册对了!
回复 支持 反对

使用道具 举报

发表于 2020-3-10 05:12:47 | 显示全部楼层

论坛不能没有像楼主这样的人才啊!我会一直支持蓝光电影网
回复 支持 反对

使用道具 举报

发表于 2020-3-10 07:11:53 | 显示全部楼层
楼主发贴辛苦了,谢谢楼主分享!我觉得蓝光电影网是注册对了!
回复 支持 反对

使用道具 举报

发表于 2020-3-10 08:32:46 | 显示全部楼层
楼主发贴辛苦了,谢谢楼主分享!我觉得蓝光电影网是注册对了!
回复 支持 反对

使用道具 举报

发表于 2020-3-10 08:39:24 | 显示全部楼层
楼主发贴辛苦了,谢谢楼主分享!
回复 支持 反对

使用道具 举报

发表于 2020-3-10 10:52:32 | 显示全部楼层
楼主发贴辛苦了,谢谢楼主分享!我觉得蓝光电影网是注册对了!
回复 支持 反对

使用道具 举报

发表于 2020-3-10 12:23:50 | 显示全部楼层

楼主太厉害了!楼主,电影应该很好看我觉得蓝光电影网真是个好地方!
回复 支持 反对

使用道具 举报

发表于 2020-3-10 14:44:31 | 显示全部楼层

这东西我收了!谢谢楼主!蓝光电影网真好!
回复 支持 反对

使用道具 举报

发表于 2020-3-10 16:12:53 | 显示全部楼层
感谢分享,乐于下载!
回复 支持 反对

使用道具 举报

懒得打字嘛,点击右侧快捷回复 【右侧内容,后台自定义】
您需要登录后才可以回帖 登录 | 立即加入

本版积分规则

现在加入蓝光电影网,注册一个账号
上个主题 下个主题 快速回复 收藏帖子 返回列表 客服中心 搜索

手机版|小黑屋| 蓝光电影网 |网站地图 

Copyright © 2015-2019 Comsenz Inc.  Template by 蓝光电影论坛 All Rights Reserved.

Powered by 蓝光电影网 X3.4

特别声明:本站所有资源均由网上收集而来,版权归原影音公司所有,如果侵犯了你的权益,请通知我们,我们会及时删除侵权内容.

快速回复 返回顶部 返回列表