找回密码

蓝光电影网

查看: 963|回复: 24

[8bit.SDR] 虫虫危机/虫虫特工队 A.Bugs.Life.1998.2160p.BluRay.x264.8bit.SDR.DTS-HD.MA.TrueHD.7.1.Atmos-SWTYBLZ 21.70GB

[复制链接]

 成长值: 25285

发表于 2020-3-6 23:34:31 | 显示全部楼层 |阅读模式
虫虫危机/虫虫特工队 A.Bugs.Life.1998.2160p.BluRay.x264.8bit.SDR.DTS-HD.MA.TrueHD.7.1.Atmos-SWTYBLZ 21.70GB-1.png

译  名 虫虫危机 / 虫虫特工队
片  名 A Bug's Life
年  代 1998
产  地 美国
类  别 喜剧 / 动画 / 冒险
语  言 英语
上映日期 1998-11-25(美国)
IMDb评分  7.2/10 from 255140 users
IMDb链接  https://www.imdb.com/title/tt0120623
豆瓣评分 7.9/10 from 74506 users
豆瓣链接 https://movie.douban.com/subject/1291573/
片  长 95 分钟
导  演 约翰·拉塞特 John Lasseter / 安德鲁·斯坦顿 Andrew Stanton
编  剧 安德鲁·斯坦顿 Andrew Stanton / Don McEnery / Bob Shaw
主  演 Dave Foley
       凯文·史派西 Kevin Spacey
       茱莉亚·路易斯-德瑞弗斯 Julia Louis-Dreyfus
       海顿·潘妮蒂尔 Hayden Panettiere


标  签 动画 | 美国 | 迪斯尼 | pixar | 动画片 | DISNEY | 美国电影 | 1998

简  介  

  菲力在蚂蚁王国里并不怎么受欢迎,尽管他发明了先进的收割机,然而阴差阳错,他竟然惹了大祸,公主妹妹小不点因此被蝗虫敌人捉去,而且蚂蚁的粮食也受到了蝗虫的威胁。即使菲力救出了小不点,但还是被赶出蚂蚁王国。只有他在外面的世界找到了对付蝗虫的办法,才有可能回到家园。
  菲力在城市中遇到了马戏团的一队昆虫。爬虫、蝴蝶、瓢虫、臭虫,他们都似乎身怀绝技,令菲力十分兴奋,于是菲力把他们请回蚂蚁王国对付蝗虫。一场恶战即将开始,昆虫们愈战愈勇,和菲力一同投入到斗争中。智勇双全的菲力也终于回到了蚂蚁王国中,受到大伙儿的赞赏。

获奖情况  

  第71届奥斯卡金像奖(1999)
  音乐/喜剧片最佳原创配乐(提名) 兰迪·纽曼

  第53届英国电影学院奖(2000)
  电影奖 最佳特殊视觉效果(提名) Eben Ostby / Bill Reeves / Rick Sayre / Sharon Calahan

  第27届动画安妮奖(1999)
  最佳动画长片(提名)
  最佳导演(提名) 安德鲁·斯坦顿 / 约翰·拉塞特
  最佳编剧(提名) 唐·麦肯内里 / 安德鲁·斯坦顿 / Bob Shaw / 约翰·拉塞特 / 乔·兰福特
  最佳艺术指导(提名) William Cone
  1. Video
  2. ID                                       : 1
  3. Format                                   : AVC
  4. Format/Info                              : Advanced Video Codec
  5. Format profile                           : High@L4
  6. Format settings                          : CABAC / 7 Ref Frames
  7. Format settings, CABAC                   : Yes
  8. Format settings, Reference frames        : 7 frames
  9. Codec ID                                 : V_MPEG4/ISO/AVC
  10. Duration                                 : 1 h 34 min
  11. Bit rate                                 : 19.1 Mb/s
  12. Width                                    : 3 840 pixels
  13. Height                                   : 1 634 pixels
  14. Display aspect ratio                     : 2.35:1
  15. Frame rate mode                          : Constant
  16. Frame rate                               : 23.976 (24000/1001/189150) FPS
  17. Color space                              : YUV
  18. Chroma subsampling                       : 4:2:0
  19. Bit depth                                : 8 bits
  20. Scan type                                : Progressive
  21. Bits/(Pixel*Frame)                       : 0.127
  22. Stream size                              : 12.7 GiB (59%)
  23. Title                                    : A.Bugs.Life.1998.2160p.BluRay.x264.8bit.SDR.DTS-HD.MA.TrueHD.7.1.Atmos-SWTYBLZ
  24. Writing library                          : x264 core 157 r2935 545de2f
  25. Encoding settings                        : cabac=1 / ref=7 / deblock=1:1:1 / analyse=0x3:0x113 / me=umh / subme=10 / psy=1 / psy_rd=0.40:0.00 / mixed_ref=1 / me_range=48 / chroma_me=1 / trellis=2 / 8x8dct=1 / cqm=0 / deadzone=21,11 / fast_pskip=1 / chroma_qp_offset=-2 / threads=48 / lookahead_threads=5 / sliced_threads=0 / nr=0 / decimate=0 / interlaced=0 / bluray_compat=0 / constrained_intra=0 / bframes=5 / b_pyramid=2 / b_adapt=2 / b_bias=0 / direct=3 / weightb=1 / open_gop=0 / weightp=2 / keyint=250 / keyint_min=23 / scenecut=40 / intra_refresh=0 / rc_lookahead=50 / rc=crf / mbtree=1 / crf=18.0 / qcomp=0.60 / qpmin=0 / qpmax=69 / qpstep=4 / ip_ratio=1.40 / aq=1:0.60
  26. Default                                  : Yes
  27. Forced                                   : No

  28. Audio #1
  29. ID                                       : 2
  30. Format                                   : MLP FBA 16-ch
  31. Format/Info                              : Meridian Lossless Packing FBA with 16-channel presentation
  32. Commercial name                          : Dolby TrueHD with Dolby Atmos
  33. Codec ID                                 : A_TRUEHD
  34. Duration                                 : 1 h 34 min
  35. Bit rate mode                            : Variable
  36. Bit rate                                 : 8 178 kb/s
  37. Maximum bit rate                         : 8 088 kb/s
  38. Channel(s)                               : 8 channels
  39. Channel layout                           : L R C LFE Ls Rs Lb Rb
  40. Sampling rate                            : 48.0 kHz
  41. Frame rate                               : 1 200.000 FPS (40 SPF)
  42. Compression mode                         : Lossless
  43. Stream size                              : 5.42 GiB (25%)
  44. Title                                    : A.Bugs.Life.1998.2160p.BluRay.x264.8bit.SDR.DTS-HD.MA.TrueHD.7.1.Atmos-SWTYBLZ
  45. Language                                 : English
  46. Default                                  : Yes
  47. Forced                                   : No
  48. Number of dynamic objects                : 13
  49. Bed channel count                        : 1 channel
  50. Bed channel configuration                : LFE

  51. Audio #2
  52. ID                                       : 3
  53. Format                                   : DTS XLL
  54. Format/Info                              : Digital Theater Systems
  55. Commercial name                          : DTS-HD Master Audio
  56. Codec ID                                 : A_DTS
  57. Duration                                 : 1 h 34 min
  58. Bit rate mode                            : Variable
  59. Bit rate                                 : 4 546 kb/s
  60. Channel(s)                               : 8 channels
  61. Channel layout                           : C L R LFE Lb Rb Lss Rss
  62. Sampling rate                            : 48.0 kHz
  63. Frame rate                               : 93.750 FPS (512 SPF)
  64. Bit depth                                : 24 bits
  65. Compression mode                         : Lossless
  66. Stream size                              : 3.01 GiB (14%)
  67. Title                                    : A.Bugs.Life.1998.2160p.BluRay.x264.8bit.SDR.DTS-HD.MA.TrueHD.7.1.Atmos-SWTYBLZ
  68. Language                                 : English
  69. Default                                  : No
  70. Forced                                   : No

  71. Audio #3
  72. ID                                       : 4
  73. Format                                   : AC-3
  74. Format/Info                              : Audio Coding 3
  75. Commercial name                          : Dolby Digital
  76. Codec ID                                 : A_AC3
  77. Duration                                 : 1 h 34 min
  78. Bit rate mode                            : Constant
  79. Bit rate                                 : 640 kb/s
  80. Channel(s)                               : 6 channels
  81. Channel layout                           : L R C LFE Ls Rs
  82. Sampling rate                            : 48.0 kHz
  83. Frame rate                               : 31.250 FPS (1536 SPF)
  84. Compression mode                         : Lossy
  85. Stream size                              : 434 MiB (2%)
  86. Title                                    : A.Bugs.Life.1998.2160p.BluRay.x264.8bit.SDR.DTS-HD.MA.TrueHD.7.1.Atmos-SWTYBLZ
  87. Language                                 : English
  88. Service kind                             : Complete Main
  89. Default                                  : No
  90. Forced                                   : No

  91. Text #1
  92. ID                                       : 5
  93. Format                                   : UTF-8
  94. Codec ID                                 : S_TEXT/UTF8
  95. Codec ID/Info                            : UTF-8 Plain Text
  96. Duration                                 : 1 h 32 min
  97. Bit rate                                 : 69 b/s
  98. Count of elements                        : 1282
  99. Stream size                              : 47.4 KiB (0%)
  100. Title                                    : English-SRT
  101. Language                                 : English
  102. Default                                  : Yes
  103. Forced                                   : No

  104. Text #2
  105. ID                                       : 6
  106. Format                                   : PGS
  107. Muxing mode                              : zlib
  108. Codec ID                                 : S_HDMV/PGS
  109. Codec ID/Info                            : Picture based subtitle format used on BDs/HD-DVDs
  110. Duration                                 : 1 h 34 min
  111. Bit rate                                 : 46.4 kb/s
  112. Count of elements                        : 2998
  113. Stream size                              : 31.5 MiB (0%)
  114. Title                                    : English-PGS
  115. Language                                 : English
  116. Default                                  : No
  117. Forced                                   : No

  118. Text #3
  119. ID                                       : 7
  120. Format                                   : PGS
  121. Muxing mode                              : zlib
  122. Codec ID                                 : S_HDMV/PGS
  123. Codec ID/Info                            : Picture based subtitle format used on BDs/HD-DVDs
  124. Duration                                 : 1 h 32 min
  125. Bit rate                                 : 40.0 kb/s
  126. Count of elements                        : 2436
  127. Stream size                              : 26.4 MiB (0%)
  128. Title                                    : French-PGS
  129. Language                                 : French
  130. Default                                  : No
  131. Forced                                   : No

  132. Text #4
  133. ID                                       : 8
  134. Format                                   : PGS
  135. Muxing mode                              : zlib
  136. Codec ID                                 : S_HDMV/PGS
  137. Codec ID/Info                            : Picture based subtitle format used on BDs/HD-DVDs
  138. Duration                                 : 1 h 32 min
  139. Bit rate                                 : 37.9 kb/s
  140. Count of elements                        : 2436
  141. Stream size                              : 25.0 MiB (0%)
  142. Title                                    : Spanish-PGS
  143. Language                                 : Spanish
  144. Default                                  : No
  145. Forced                                   : No

  146. Menu
  147. 00:00:00.000                             : en:Chapter 01
  148. 00:04:29.143                             : en:Chapter 02
  149. 00:07:52.638                             : en:Chapter 03
  150. 00:09:52.633                             : en:Chapter 04
  151. 00:15:19.293                             : en:Chapter 05
  152. 00:17:19.830                             : en:Chapter 06
  153. 00:18:56.426                             : en:Chapter 07
  154. 00:20:05.120                             : en:Chapter 08
  155. 00:26:08.316                             : en:Chapter 09
  156. 00:27:49.501                             : en:Chapter 10
  157. 00:31:29.804                             : en:Chapter 11
  158. 00:32:43.670                             : en:Chapter 12
  159. 00:35:57.655                             : en:Chapter 13
  160. 00:39:42.880                             : en:Chapter 14
  161. 00:41:27.276                             : en:Chapter 15
  162. 00:45:08.914                             : en:Chapter 16
  163. 00:45:49.997                             : en:Chapter 17
  164. 00:47:17.334                             : en:Chapter 18
  165. 00:49:13.992                             : en:Chapter 19
  166. 00:52:51.293                             : en:Chapter 20
  167. 00:56:36.643                             : en:Chapter 21
  168. 00:58:49.526                             : en:Chapter 22
  169. 01:02:24.615                             : en:Chapter 23
  170. 01:04:27.613                             : en:Chapter 24
  171. 01:05:30.718                             : en:Chapter 25
  172. 01:06:47.378                             : en:Chapter 26
  173. 01:10:02.281                             : en:Chapter 27
  174. 01:10:49.745                             : en:Chapter 28
  175. 01:15:15.802                             : en:Chapter 29
  176. 01:17:29.978                             : en:Chapter 30
  177. 01:20:00.754                             : en:Chapter 31
  178. 01:21:13.577                             : en:Chapter 32
  179. 01:23:05.772                             : en:Chapter 33
  180. 01:24:16.593                             : en:Chapter 34
  181. 01:28:31.014                             : en:Chapter 35
  182. 01:29:56.599                             : en:Chapter 36
复制代码

虫虫危机/虫虫特工队 A.Bugs.Life.1998.2160p.BluRay.x264.8bit.SDR.DTS-HD.MA.TrueHD.7.1.Atmos-SWTYBLZ 21.70GB-2.png 虫虫危机/虫虫特工队 A.Bugs.Life.1998.2160p.BluRay.x264.8bit.SDR.DTS-HD.MA.TrueHD.7.1.Atmos-SWTYBLZ 21.70GB-3.png 虫虫危机/虫虫特工队 A.Bugs.Life.1998.2160p.BluRay.x264.8bit.SDR.DTS-HD.MA.TrueHD.7.1.Atmos-SWTYBLZ 21.70GB-4.png 虫虫危机/虫虫特工队 A.Bugs.Life.1998.2160p.BluRay.x264.8bit.SDR.DTS-HD.MA.TrueHD.7.1.Atmos-SWTYBLZ 21.70GB-5.png 虫虫危机/虫虫特工队 A.Bugs.Life.1998.2160p.BluRay.x264.8bit.SDR.DTS-HD.MA.TrueHD.7.1.Atmos-SWTYBLZ 21.70GB-6.png 虫虫危机/虫虫特工队 A.Bugs.Life.1998.2160p.BluRay.x264.8bit.SDR.DTS-HD.MA.TrueHD.7.1.Atmos-SWTYBLZ 21.70GB-7.png 虫虫危机/虫虫特工队 A.Bugs.Life.1998.2160p.BluRay.x264.8bit.SDR.DTS-HD.MA.TrueHD.7.1.Atmos-SWTYBLZ 21.70GB-8.png






回复

使用道具 举报

发表于 2020-3-7 10:58:01 | 显示全部楼层

楼主太厉害了!楼主,电影应该很好看我觉得蓝光电影网真是个好地方!
回复 支持 反对

使用道具 举报

发表于 2020-3-7 19:07:30 | 显示全部楼层

楼主太厉害了!楼主,电影应该很好看我觉得蓝光电影网真是个好地方!
回复 支持 反对

使用道具 举报

发表于 2020-3-7 20:54:04 | 显示全部楼层
我之前下载了一部没有字幕的,在改字幕,还没改完,要一点点改,累 啊啊啊
回复 支持 反对

使用道具 举报

发表于 2020-3-8 00:29:34 | 显示全部楼层

其实我一直觉得楼主的品味不错!呵呵!蓝光电影网太棒了!
回复 支持 反对

使用道具 举报

发表于 2020-3-8 09:40:56 | 显示全部楼层
一直有这片,儿子喜欢的,现在是否应该收藏高清版本了??感谢分享
回复 支持 反对

使用道具 举报

发表于 2020-3-8 10:57:21 | 显示全部楼层
感谢分享,乐于下载!
回复 支持 反对

使用道具 举报

发表于 2020-3-8 12:18:28 | 显示全部楼层
楼主发贴辛苦了,谢谢楼主分享!我觉得蓝光电影网是注册对了!
回复 支持 反对

使用道具 举报

发表于 2020-3-8 13:04:02 | 显示全部楼层
这个还可以看了。
回复 支持 反对

使用道具 举报

已抛锚 成长值: 270

发表于 2020-3-8 14:06:58 | 显示全部楼层
谢谢分享
回复

使用道具 举报

懒得打字嘛,点击右侧快捷回复 【右侧内容,后台自定义】
您需要登录后才可以回帖 登录 | 立即加入

本版积分规则

现在加入蓝光电影网,注册一个账号
上个主题 下个主题 快速回复 收藏帖子 返回列表 客服中心 搜索

手机版|小黑屋| 蓝光电影网 |网站地图 

Copyright © 2015-2019 Comsenz Inc.  Template by 蓝光电影论坛 All Rights Reserved.

Powered by 蓝光电影网 X3.4

特别声明:本站所有资源均由网上收集而来,版权归原影音公司所有,如果侵犯了你的权益,请通知我们,我们会及时删除侵权内容.

快速回复 返回顶部 返回列表