找回密码

蓝光电影网

查看: 1471|回复: 35

[10bit.HDR] 变身特工/伪装间谍 Spies.in.Disguise.2019.2160p.UHD.BluRay.X265.10bit.HDR.TrueHD.7.1.Atmos-WhiteRhino 8.47GB

[复制链接]

 成长值: 25285

发表于 2020-3-6 20:42:01 | 显示全部楼层 |阅读模式
变身特工/伪装间谍 Spies.in.Disguise.2019.2160p.UHD.BluRay.X265.10bit.HDR.TrueHD.7.1.Atmos-WhiteRhino 8.47GB-1.png

译  名 变身特工 / 伪装间谍 / 变身特务(台) / 变雀特工(港) / 百变间谍王 / 间谍伪装 / 飞鸽特工队 / 鸽中谍
片  名 Spies in Disguise
年  代 2019
产  地 美国
类  别 喜剧 / 动作 / 科幻 / 动画
语  言 英语 / 日语
上映日期 2019-12-04(加州首映) / 2019-12-25(美国) / 2020-01-03(中国大陆)
IMDb评分  6.8/10 from 9367 users
IMDb链接  https://www.imdb.com/title/tt5814534
豆瓣评分 7.6/10 from 31212 users
豆瓣链接 https://movie.douban.com/subject/27000084/
片  长 102分钟
导  演 尼克·布鲁诺 Nick Bruno / 特洛伊·奎安 Troy Quane
编  剧 布拉德·科普兰 Brad Copeland / 劳埃德·泰勒 Lloyd Taylor
主  演 威尔·史密斯 Will Smith
       汤姆·赫兰德 Tom Holland
       拉什达·琼斯 Rashida Jones
       本·门德尔森 Ben Mendelsohn
       瑞芭·麦肯泰尔 Reba McEntire
       瑞秋·布罗斯纳安 Rachel Brosnahan
       凯伦·吉兰 Karen Gillan
       DJ卡拉德 DJ Khaled
       丘增 Masi Oka
       斯特凡 Stefania Spampinato
       卡拉·吉门内斯 Carla Jimenez
       JB·布兰科 JB Blanc
       艾德里安·冈萨雷斯 Adrian Gonzalez
       尼克·布鲁诺 Nick Bruno
       特洛伊·奎安 Troy Quane


标  签 动画 | 喜剧 | 搞笑 | 美国 | 科幻 | 二十世纪福克斯 | 动作 | 蓝天工作室

简  介  

  兰斯与沃尔特,前者是超级炫酷又迷人的间谍,后者负责发明兰斯使用的各种炫酷小道具。危难当头,他们必须团结一致才能拯救世界。

获奖情况  

  第47届动画安妮奖(2020)
  最佳配乐(提名) 西奥多·沙皮洛 / 马克·容森
  最佳角色设计(提名)

  第67届美国音效剪辑协会奖(2020)
  金卷轴奖 最佳动画片音效剪辑(提名)
  1. Video
  2. ID                                       : 1
  3. Format                                   : HEVC
  4. Format/Info                              : High Efficiency Video Coding
  5. Format profile                           : Main High@L4@High
  6. HDR format                               : SMPTE ST 2086, HDR10 compatible
  7. Codec ID                                 : V_MPEGH/ISO/HEVC
  8. Duration                                 : 1 h 41 min
  9. Bit rate                                 : 6 872 kb/s
  10. Width                                    : 3 840 pixels
  11. Height                                   : 1 612 pixels
  12. Display aspect ratio                     : 2.40:1
  13. Frame rate mode                          : Constant
  14. Frame rate                               : 23.976 (24000/1001/189150) FPS
  15. Color space                              : YUV
  16. Chroma subsampling                       : 4:2:0 (Type 2)
  17. Bit depth                                : 10 bits
  18. Bits/(Pixel*Frame)                       : 0.046
  19. Stream size                              : 4.89 GiB (59%)
  20. Writing library                          : x265 3.3gbe2d82093:[Windows][GCC 10.0.1][64 bit] 10bit
  21. Encoding settings                        : cpuid=1111039 / frame-threads=5 / numa-pools=36 / wpp / no-pmode / no-pme / no-psnr / no-ssim / log-level=2 / input-csp=1 / input-res=3840x1612 / interlace=0 / total-frames=146513 / level-idc=51 / high-tier=1 / uhd-bd=0 / ref=4 / no-allow-non-conformance / repeat-headers / annexb / aud / hrd / info / hash=0 / no-temporal-layers / no-open-gop / min-keyint=1 / keyint=24 / gop-lookahead=0 / bframes=4 / b-adapt=2 / b-pyramid / bframe-bias=0 / rc-lookahead=25 / lookahead-slices=4 / scenecut=40 / hist-scenecut=0 / radl=0 / no-splice / no-intra-refresh / ctu=64 / min-cu-size=8 / rect / no-amp / max-tu-size=32 / tu-inter-depth=1 / tu-intra-depth=1 / limit-tu=0 / rdoq-level=2 / dynamic-rd=0.00 / no-ssim-rd / signhide / no-tskip / nr-intra=0 / nr-inter=0 / no-constrained-intra / no-strong-intra-smoothing / max-merge=3 / limit-refs=3 / limit-modes / me=3 / subme=3 / merange=57 / temporal-mvp / no-frame-dup / no-hme / weightp / no-weightb / no-analyze-src-pics / deblock=-3:-3 / no-sao / no-sao-non-deblock / rd=4 / selective-sao=0 / no-early-skip / rskip / no-fast-intra / no-tskip-fast / no-cu-lossless / no-b-intra / no-splitrd-skip / rdpenalty=0 / psy-rd=2.00 / psy-rdoq=1.00 / no-rd-refine / no-lossless / cbqpoffs=0 / crqpoffs=0 / rc=crf / crf=17.0 / qcomp=0.60 / qpstep=4 / stats-write=0 / stats-read=0 / vbv-maxrate=160000 / vbv-bufsize=160000 / vbv-init=0.9 / crf-max=0.0 / crf-min=0.0 / ipratio=1.40 / pbratio=1.30 / aq-mode=2 / aq-strength=1.00 / cutree / zone-count=0 / no-strict-cbr / qg-size=32 / no-rc-grain / qpmax=69 / qpmin=0 / no-const-vbv / sar=1 / overscan=0 / videoformat=5 / range=0 / colorprim=9 / transfer=16 / colormatrix=9 / chromaloc=1 / chromaloc-top=2 / chromaloc-bottom=2 / display-window=0 / master-display=G(13250,34500)B(7500,3000)R(34000,16000)WP(15635,16450)L(10000000,50) / cll=0,0 / min-luma=0 / max-luma=1023 / log2-max-poc-lsb=8 / vui-timing-info / vui-hrd-info / slices=1 / no-opt-qp-pps / no-opt-ref-list-length-pps / no-multi-pass-opt-rps / scenecut-bias=0.05 / hist-threshold=0.01 / no-opt-cu-delta-qp / no-aq-motion / hdr10 / hdr10-opt / no-dhdr10-opt / no-idr-recovery-sei / analysis-reuse-level=0 / analysis-save-reuse-level=0 / analysis-load-reuse-level=0 / scale-factor=0 / refine-intra=0 / refine-inter=0 / refine-mv=1 / refine-ctu-distortion=0 / no-limit-sao / ctu-info=0 / no-lowpass-dct / refine-analysis-type=0 / copy-pic=1 / max-ausize-factor=1.0 / no-dynamic-refine / no-single-sei / no-hevc-aq / no-svt / no-field / qp-adaptation-range=1.00 / no-scenecut-aware-qpconformance-window-offsets / right=0 / bottom=0
  22. Default                                  : Yes
  23. Forced                                   : No
  24. Color range                              : Limited
  25. Color primaries                          : BT.2020
  26. Transfer characteristics                 : PQ
  27. Matrix coefficients                      : BT.2020 non-constant
  28. Mastering display color primaries        : Display P3
  29. Mastering display luminance              : min: 0.0050 cd/m2, max: 1000 cd/m2

  30. Audio #1
  31. ID                                       : 2
  32. Format                                   : MLP FBA 16-ch
  33. Format/Info                              : Meridian Lossless Packing FBA with 16-channel presentation
  34. Commercial name                          : Dolby TrueHD with Dolby Atmos
  35. Codec ID                                 : A_TRUEHD
  36. Duration                                 : 1 h 41 min
  37. Bit rate mode                            : Variable
  38. Bit rate                                 : 4 125 kb/s
  39. Maximum bit rate                         : 7 800 kb/s
  40. Channel(s)                               : 8 channels
  41. Channel layout                           : L R C LFE Ls Rs Lb Rb
  42. Sampling rate                            : 48.0 kHz
  43. Frame rate                               : 1 200.000 FPS (40 SPF)
  44. Compression mode                         : Lossless
  45. Stream size                              : 2.93 GiB (35%)
  46. Language                                 : English
  47. Default                                  : Yes
  48. Forced                                   : No
  49. Number of dynamic objects                : 13
  50. Bed channel count                        : 1 channel
  51. Bed channel configuration                : LFE

  52. Audio #2
  53. ID                                       : 3
  54. Format                                   : AC-3
  55. Format/Info                              : Audio Coding 3
  56. Commercial name                          : Dolby Digital
  57. Codec ID                                 : A_AC3
  58. Duration                                 : 1 h 41 min
  59. Bit rate mode                            : Constant
  60. Bit rate                                 : 640 kb/s
  61. Channel(s)                               : 6 channels
  62. Channel layout                           : L R C LFE Ls Rs
  63. Sampling rate                            : 48.0 kHz
  64. Frame rate                               : 31.250 FPS (1536 SPF)
  65. Compression mode                         : Lossy
  66. Stream size                              : 466 MiB (5%)
  67. Language                                 : English
  68. Service kind                             : Complete Main
  69. Default                                  : No
  70. Forced                                   : No

  71. Text #1
  72. ID                                       : 4
  73. Format                                   : PGS
  74. Muxing mode                              : zlib
  75. Codec ID                                 : S_HDMV/PGS
  76. Codec ID/Info                            : Picture based subtitle format used on BDs/HD-DVDs
  77. Duration                                 : 1 h 18 min
  78. Bit rate                                 : 92 b/s
  79. Count of elements                        : 12
  80. Stream size                              : 52.9 KiB (0%)
  81. Title                                    : English Forced
  82. Language                                 : English
  83. Default                                  : Yes
  84. Forced                                   : No

  85. Text #2
  86. ID                                       : 5
  87. Format                                   : PGS
  88. Muxing mode                              : zlib
  89. Codec ID                                 : S_HDMV/PGS
  90. Codec ID/Info                            : Picture based subtitle format used on BDs/HD-DVDs
  91. Duration                                 : 1 h 41 min
  92. Bit rate                                 : 45.9 kb/s
  93. Count of elements                        : 3822
  94. Stream size                              : 33.2 MiB (0%)
  95. Language                                 : English
  96. Default                                  : No
  97. Forced                                   : No

  98. Text #3
  99. ID                                       : 6
  100. Format                                   : PGS
  101. Muxing mode                              : zlib
  102. Codec ID                                 : S_HDMV/PGS
  103. Codec ID/Info                            : Picture based subtitle format used on BDs/HD-DVDs
  104. Duration                                 : 1 h 40 min
  105. Bit rate                                 : 32.8 kb/s
  106. Count of elements                        : 2722
  107. Stream size                              : 23.5 MiB (0%)
  108. Language                                 : Spanish
  109. Default                                  : No
  110. Forced                                   : No

  111. Text #4
  112. ID                                       : 7
  113. Format                                   : PGS
  114. Muxing mode                              : zlib
  115. Codec ID                                 : S_HDMV/PGS
  116. Codec ID/Info                            : Picture based subtitle format used on BDs/HD-DVDs
  117. Duration                                 : 1 h 40 min
  118. Bit rate                                 : 36.5 kb/s
  119. Count of elements                        : 2926
  120. Stream size                              : 26.2 MiB (0%)
  121. Language                                 : French
  122. Default                                  : No
  123. Forced                                   : No

  124. Menu
  125. 00:00:00.000                             : en:Chapter 01
  126. 00:04:09.458                             : en:Chapter 02
  127. 00:06:54.456                             : en:Chapter 03
  128. 00:11:53.796                             : en:Chapter 04
  129. 00:15:30.972                             : en:Chapter 05
  130. 00:20:35.443                             : en:Chapter 06
  131. 00:23:20.816                             : en:Chapter 07
  132. 00:26:42.392                             : en:Chapter 08
  133. 00:30:59.483                             : en:Chapter 09
  134. 00:36:06.539                             : en:Chapter 10
  135. 00:41:34.909                             : en:Chapter 11
  136. 00:45:41.906                             : en:Chapter 12
  137. 00:49:57.745                             : en:Chapter 13
  138. 00:53:58.861                             : en:Chapter 14
  139. 00:56:34.266                             : en:Chapter 15
  140. 01:00:06.728                             : en:Chapter 16
  141. 01:08:46.873                             : en:Chapter 17
  142. 01:12:51.742                             : en:Chapter 18
  143. 01:17:34.233                             : en:Chapter 19
  144. 01:20:18.897                             : en:Chapter 20
  145. 01:23:19.036                             : en:Chapter 21
  146. 01:26:05.202                             : en:Chapter 22
  147. 01:29:47.132                             : en:Chapter 23
  148. 01:33:08.833                             : en:Chapter 24
复制代码

变身特工/伪装间谍 Spies.in.Disguise.2019.2160p.UHD.BluRay.X265.10bit.HDR.TrueHD.7.1.Atmos-WhiteRhino 8.47GB-2.png 变身特工/伪装间谍 Spies.in.Disguise.2019.2160p.UHD.BluRay.X265.10bit.HDR.TrueHD.7.1.Atmos-WhiteRhino 8.47GB-3.png 变身特工/伪装间谍 Spies.in.Disguise.2019.2160p.UHD.BluRay.X265.10bit.HDR.TrueHD.7.1.Atmos-WhiteRhino 8.47GB-4.png






回复

使用道具 举报

发表于 2020-3-6 21:09:23 | 显示全部楼层

这个帖子不回对不起自己!我想我是一天也不能离开蓝光电影网
回复 支持 反对

使用道具 举报

发表于 2020-3-6 21:16:08 | 显示全部楼层
感谢分享
回复

使用道具 举报

 成长值: 2920

发表于 2020-3-6 23:08:45 | 显示全部楼层
大佬有没有字幕呢?
回复 支持 反对

使用道具 举报

发表于 2020-3-7 00:25:32 | 显示全部楼层
楼主发贴辛苦了,谢谢楼主分享!我觉得蓝光电影网是注册对了!
回复 支持 反对

使用道具 举报

 成长值: 745

发表于 2020-3-7 08:50:56 | 显示全部楼层
这个版本有几种语言?
回复 支持 反对

使用道具 举报

发表于 2020-3-7 11:34:22 | 显示全部楼层

楼主太厉害了!楼主,电影应该很好看我觉得蓝光电影网真是个好地方!
回复 支持 反对

使用道具 举报

发表于 2020-3-7 12:43:47 | 显示全部楼层

这东西我收了!谢谢楼主!蓝光电影网真好!
回复 支持 反对

使用道具 举报

发表于 2020-3-7 14:17:18 | 显示全部楼层
楼主太厉害害了!
回复 支持 反对

使用道具 举报

发表于 2020-3-7 14:42:26 | 显示全部楼层
这个帖子不回对不起自己!我想我是一天也不能离开蓝光电影网。
回复 支持 反对

使用道具 举报

懒得打字嘛,点击右侧快捷回复 【右侧内容,后台自定义】
您需要登录后才可以回帖 登录 | 立即加入

本版积分规则

现在加入蓝光电影网,注册一个账号
上个主题 下个主题 快速回复 收藏帖子 返回列表 客服中心 搜索

手机版|小黑屋| 蓝光电影网 |网站地图 

Copyright © 2015-2019 Comsenz Inc.  Template by 蓝光电影论坛 All Rights Reserved.

Powered by 蓝光电影网 X3.4

特别声明:本站所有资源均由网上收集而来,版权归原影音公司所有,如果侵犯了你的权益,请通知我们,我们会及时删除侵权内容.

快速回复 返回顶部 返回列表