找回密码

蓝光电影网

查看: 398|回复: 5

[8bit.SDR] 怪兽电力公司/怪兽公司 Monsters.Inc.2001.2160p.BluRay.x264.8bit.SDR.TrueHD.7.1.Atmos-SWTYBLZ 16.71GB

[复制链接]

 成长值: 25285

发表于 2020-3-6 20:37:39 | 显示全部楼层 |阅读模式
怪兽电力公司/怪兽公司 Monsters.Inc.2001.2160p.BluRay.x264.8bit.SDR.TrueHD.7.1.Atmos-SWTYBLZ 16.71GB-1.png

译  名 怪兽电力公司 / 怪兽公司(港) / 怪物公司
片  名 Monsters, Inc.
年  代 2001
产  地 美国
类  别 喜剧 / 动画 / 儿童 / 奇幻 / 冒险
语  言 英语
上映日期 2001-11-02(美国) / 2012-12-19(美国)
IMDb评分  8.0/10 from 772879 users
IMDb链接  https://www.imdb.com/title/tt0198781
豆瓣评分 8.7/10 from 429148 users
豆瓣链接 https://movie.douban.com/subject/1291579/
片  长 92 分钟
导  演 彼特·道格特 Pete Docter / 大卫·斯沃曼 David Silverman / 李·昂克里奇 Lee Unkrich
编  剧 安德鲁·斯坦顿 Andrew Stanton / Daniel Gerson / Robert L. Baird / 略特·里斯 Rhett Reese / Jonathan Roberts / 彼特·道格特 Pete Docter / 杰夫·皮金  Jeff Pidgeon / 吉尔·卡尔顿 Jill Culton / 拉夫·埃格尔斯顿 Ralph Eggleston
主  演 约翰·古德曼 John Goodman
       比利·克里斯托 Billy Crystal
       玛丽·吉布斯 Mary Gibbs
       史蒂夫·布西密 Steve Buscemi
       詹姆斯·柯本 James Coburn
       詹妮弗·提莉 Jennifer Tilly
       鲍勃·彼德森 Bob Peterson
       约翰·拉岑贝格 John Ratzenberger
       弗兰克·奥兹 Frank Oz
       丹尼尔·吉尔森 Daniel Gerson
       邦尼·亨特 Bonnie Hunt
       杰克·安琪 Jack Angel
       Samuel Lord Black
       Steve Susskind


标  签 动画 | 迪斯尼 | 美国 | 喜剧 | pixar | 动画片 | 温情 | 美国电影

简  介  

  我们不知道,在那样的世界里住着那样一群怪物。他们长相滑稽,却必须装作狰狞。因为,在夜深的时候,他们要悄悄的出现在孩子的衣橱里,吓唬刚刚甜美睡去的宝宝。一切,只因为他们是怪物电力公司的员工,而孩子的尖叫,则是怪物王国发电的全部能量。怪物们害怕孩子,却又必须让孩子尖叫。在怪物的国度里,他们都是为全民造福的英雄。
  毛怪苏利文(约翰?古德曼)是怪物公司最出色的员工,业绩总是摇摇领先,他吓哭的小孩儿不计其数。他与搭档大眼怪麦克(比利?克里斯托)很受大家的爱戴。一次偶然,毛怪不小心把一个两岁的小女孩阿布(玛丽?吉布斯)带回了怪物世界,引起了极大的恐慌,调皮可爱的阿布把这些可怕的怪物吓的人仰马翻。警方在追捕阿布,而坏蛋亨利(詹姆斯?柯博)也计划利用阿布进行他改革工厂的邪恶计划。
  另一方面,在与阿布相处的过程中,毛怪渐渐对她产生莫名的情愫,甚至因此被放逐野外。可是一切都不能抵挡毛怪拯救女孩的信念,为了阿布,毛怪踏上了艰险的旅程……

获奖情况  

  第74届奥斯卡金像奖(2002)
  最佳动画长片(提名) 约翰·拉塞特 / 彼特·道格特
  最佳音效剪辑 嘉里·瑞德斯托姆 / 迈克尔·席维斯
  最佳原创配乐(提名) 兰迪·纽曼
  最佳原创歌曲 兰迪·纽曼

  第30届动画安妮奖(2003)
  最佳动画长片(提名)
  最佳导演(提名) 彼特·道格特 / 大卫·斯沃曼 / 李·昂克里奇
  最佳编剧(提名) 丹尼尔·吉尔森 / 安德鲁·斯坦顿
  最佳配乐(提名) 兰迪·纽曼
  最佳艺术指导(提名) 哈雷·杰斯普
  最佳动画角色(提名) Ricky Nierva
  最佳角色设计(提名) Ricky Nierva

  第27届报知映画赏(2002)
  海外作品奖 彼特·道格特
  1. Video
  2. ID                                       : 1
  3. Format                                   : AVC
  4. Format/Info                              : Advanced Video Codec
  5. Format profile                           : High@L4
  6. Format settings                          : CABAC / 5 Ref Frames
  7. Format settings, CABAC                   : Yes
  8. Format settings, Reference frames        : 5 frames
  9. Codec ID                                 : V_MPEG4/ISO/AVC
  10. Duration                                 : 1 h 32 min
  11. Bit rate                                 : 18.2 Mb/s
  12. Width                                    : 3 840 pixels
  13. Height                                   : 2 076 pixels
  14. Display aspect ratio                     : 1.85:1
  15. Frame rate mode                          : Constant
  16. Frame rate                               : 23.976 (24000/1001/189150) FPS
  17. Color space                              : YUV
  18. Chroma subsampling                       : 4:2:0
  19. Bit depth                                : 8 bits
  20. Scan type                                : Progressive
  21. Bits/(Pixel*Frame)                       : 0.095
  22. Stream size                              : 11.7 GiB (70%)
  23. Title                                    : Monsters.Inc.2001.2160p.BluRay.x264.8bit.SDR.TrueHD.7.1.Atmos-SWTYBLZ
  24. Writing library                          : x264 core 157 r2935 545de2f
  25. Encoding settings                        : cabac=1 / ref=5 / deblock=1:1:1 / analyse=0x3:0x113 / me=umh / subme=10 / psy=1 / psy_rd=0.40:0.00 / mixed_ref=1 / me_range=48 / chroma_me=1 / trellis=2 / 8x8dct=1 / cqm=0 / deadzone=21,11 / fast_pskip=1 / chroma_qp_offset=-2 / threads=48 / lookahead_threads=5 / sliced_threads=0 / nr=0 / decimate=0 / interlaced=0 / bluray_compat=0 / constrained_intra=0 / bframes=5 / b_pyramid=2 / b_adapt=2 / b_bias=0 / direct=3 / weightb=1 / open_gop=0 / weightp=2 / keyint=250 / keyint_min=23 / scenecut=40 / intra_refresh=0 / rc_lookahead=50 / rc=crf / mbtree=1 / crf=18.0 / qcomp=0.60 / qpmin=0 / qpmax=69 / qpstep=4 / ip_ratio=1.40 / aq=1:0.60
  26. Default                                  : Yes
  27. Forced                                   : No

  28. Audio #1
  29. ID                                       : 2
  30. Format                                   : MLP FBA 16-ch
  31. Format/Info                              : Meridian Lossless Packing FBA with 16-channel presentation
  32. Commercial name                          : Dolby TrueHD with Dolby Atmos
  33. Codec ID                                 : A_TRUEHD
  34. Duration                                 : 1 h 32 min
  35. Bit rate mode                            : Variable
  36. Bit rate                                 : 6 905 kb/s
  37. Maximum bit rate                         : 8 211 kb/s
  38. Channel(s)                               : 8 channels
  39. Channel layout                           : L R C LFE Ls Rs Lb Rb
  40. Sampling rate                            : 48.0 kHz
  41. Frame rate                               : 1 200.000 FPS (40 SPF)
  42. Compression mode                         : Lossless
  43. Stream size                              : 4.45 GiB (27%)
  44. Title                                    : Monsters.Inc.2001.2160p.BluRay.x264.8bit.SDR.TrueHD.7.1.Atmos-SWTYBLZ
  45. Language                                 : English
  46. Default                                  : Yes
  47. Forced                                   : No
  48. Number of dynamic objects                : 13
  49. Bed channel count                        : 1 channel
  50. Bed channel configuration                : LFE

  51. Audio #2
  52. ID                                       : 3
  53. Format                                   : AC-3
  54. Format/Info                              : Audio Coding 3
  55. Commercial name                          : Dolby Digital
  56. Codec ID                                 : A_AC3
  57. Duration                                 : 1 h 32 min
  58. Bit rate mode                            : Constant
  59. Bit rate                                 : 640 kb/s
  60. Channel(s)                               : 6 channels
  61. Channel layout                           : L R C LFE Ls Rs
  62. Sampling rate                            : 48.0 kHz
  63. Frame rate                               : 31.250 FPS (1536 SPF)
  64. Compression mode                         : Lossy
  65. Stream size                              : 422 MiB (2%)
  66. Title                                    : Monsters.Inc.2001.2160p.BluRay.x264.8bit.SDR.TrueHD.7.1.Atmos-SWTYBLZ
  67. Language                                 : English
  68. Service kind                             : Complete Main
  69. Default                                  : No
  70. Forced                                   : No

  71. Text #1
  72. ID                                       : 4
  73. Format                                   : UTF-8
  74. Codec ID                                 : S_TEXT/UTF8
  75. Codec ID/Info                            : UTF-8 Plain Text
  76. Duration                                 : 1 h 23 min
  77. Bit rate                                 : 62 b/s
  78. Count of elements                        : 1110
  79. Stream size                              : 38.4 KiB (0%)
  80. Title                                    : English-SRT
  81. Language                                 : English
  82. Default                                  : Yes
  83. Forced                                   : No

  84. Text #2
  85. ID                                       : 5
  86. Format                                   : PGS
  87. Muxing mode                              : zlib
  88. Codec ID                                 : S_HDMV/PGS
  89. Codec ID/Info                            : Picture based subtitle format used on BDs/HD-DVDs
  90. Duration                                 : 1 h 28 min
  91. Bit rate                                 : 41.6 kb/s
  92. Count of elements                        : 2650
  93. Stream size                              : 26.2 MiB (0%)
  94. Title                                    : English-PGS
  95. Language                                 : English
  96. Default                                  : No
  97. Forced                                   : No

  98. Text #3
  99. ID                                       : 6
  100. Format                                   : PGS
  101. Muxing mode                              : zlib
  102. Codec ID                                 : S_HDMV/PGS
  103. Codec ID/Info                            : Picture based subtitle format used on BDs/HD-DVDs
  104. Duration                                 : 1 h 28 min
  105. Bit rate                                 : 35.9 kb/s
  106. Count of elements                        : 2182
  107. Stream size                              : 22.7 MiB (0%)
  108. Title                                    : French-PGS
  109. Language                                 : French
  110. Default                                  : No
  111. Forced                                   : No

  112. Text #4
  113. ID                                       : 7
  114. Format                                   : PGS
  115. Muxing mode                              : zlib
  116. Codec ID                                 : S_HDMV/PGS
  117. Codec ID/Info                            : Picture based subtitle format used on BDs/HD-DVDs
  118. Duration                                 : 1 h 28 min
  119. Bit rate                                 : 34.5 kb/s
  120. Count of elements                        : 2182
  121. Stream size                              : 21.8 MiB (0%)
  122. Title                                    : Spanish-PGS
  123. Language                                 : Spanish
  124. Default                                  : No
  125. Forced                                   : No

  126. Menu
  127. 00:00:00.000                             : en:Chapter 01
  128. 00:01:33.468                             : en:Chapter 02
  129. 00:03:08.271                             : en:Chapter 03
  130. 00:04:51.791                             : en:Chapter 04
  131. 00:07:17.603                             : en:Chapter 05
  132. 00:09:12.176                             : en:Chapter 06
  133. 00:10:44.268                             : en:Chapter 07
  134. 00:11:54.296                             : en:Chapter 08
  135. 00:17:26.420                             : en:Chapter 09
  136. 00:20:06.747                             : en:Chapter 10
  137. 00:22:04.281                             : en:Chapter 11
  138. 00:25:49.089                             : en:Chapter 12
  139. 00:28:35.630                             : en:Chapter 13
  140. 00:31:07.156                             : en:Chapter 14
  141. 00:34:50.379                             : en:Chapter 15
  142. 00:36:56.297                             : en:Chapter 16
  143. 00:38:50.953                             : en:Chapter 17
  144. 00:40:28.551                             : en:Chapter 18
  145. 00:43:34.903                             : en:Chapter 19
  146. 00:45:30.394                             : en:Chapter 20
  147. 00:48:08.093                             : en:Chapter 21
  148. 00:50:37.743                             : en:Chapter 22
  149. 00:54:41.945                             : en:Chapter 23
  150. 00:57:30.113                             : en:Chapter 24
  151. 01:03:42.401                             : en:Chapter 25
  152. 01:06:25.690                             : en:Chapter 26
  153. 01:07:27.043                             : en:Chapter 27
  154. 01:13:52.428                             : en:Chapter 28
  155. 01:17:50.248                             : en:Chapter 29
  156. 01:21:25.589                             : en:Chapter 30
  157. 01:24:08.543                             : en:Chapter 31
  158. 01:25:06.893                             : en:Chapter 32
复制代码

怪兽电力公司/怪兽公司 Monsters.Inc.2001.2160p.BluRay.x264.8bit.SDR.TrueHD.7.1.Atmos-SWTYBLZ 16.71GB-2.png 怪兽电力公司/怪兽公司 Monsters.Inc.2001.2160p.BluRay.x264.8bit.SDR.TrueHD.7.1.Atmos-SWTYBLZ 16.71GB-3.png 怪兽电力公司/怪兽公司 Monsters.Inc.2001.2160p.BluRay.x264.8bit.SDR.TrueHD.7.1.Atmos-SWTYBLZ 16.71GB-4.png 怪兽电力公司/怪兽公司 Monsters.Inc.2001.2160p.BluRay.x264.8bit.SDR.TrueHD.7.1.Atmos-SWTYBLZ 16.71GB-5.png 怪兽电力公司/怪兽公司 Monsters.Inc.2001.2160p.BluRay.x264.8bit.SDR.TrueHD.7.1.Atmos-SWTYBLZ 16.71GB-6.png 怪兽电力公司/怪兽公司 Monsters.Inc.2001.2160p.BluRay.x264.8bit.SDR.TrueHD.7.1.Atmos-SWTYBLZ 16.71GB-7.png 怪兽电力公司/怪兽公司 Monsters.Inc.2001.2160p.BluRay.x264.8bit.SDR.TrueHD.7.1.Atmos-SWTYBLZ 16.71GB-8.png







回复

使用道具 举报

发表于 2020-3-6 21:53:49 | 显示全部楼层
效果是相当的好啊,不错
回复 支持 反对

使用道具 举报

发表于 2020-3-7 08:30:00 | 显示全部楼层
电力公司。好哒
回复 支持 反对

使用道具 举报

发表于 2020-3-8 15:31:35 | 显示全部楼层

楼主,我太崇拜你了!我想我是一天也不能离开蓝光电影网
回复 支持 反对

使用道具 举报

发表于 2020-3-10 12:13:21 | 显示全部楼层

这个帖子不回对不起自己!我想我是一天也不能离开蓝光电影网
回复 支持 反对

使用道具 举报

发表于 2020-3-18 22:21:26 | 显示全部楼层
楼主发贴辛苦了,谢谢楼主分享!我觉得蓝光电影网是注册对了!
回复 支持 反对

使用道具 举报

懒得打字嘛,点击右侧快捷回复 【右侧内容,后台自定义】
您需要登录后才可以回帖 登录 | 立即加入

本版积分规则

现在加入蓝光电影网,注册一个账号
上个主题 下个主题 快速回复 收藏帖子 返回列表 客服中心 搜索

手机版|小黑屋| 蓝光电影网 |网站地图 

Copyright © 2015-2019 Comsenz Inc.  Template by 蓝光电影论坛 All Rights Reserved.

Powered by 蓝光电影网 X3.4

特别声明:本站所有资源均由网上收集而来,版权归原影音公司所有,如果侵犯了你的权益,请通知我们,我们会及时删除侵权内容.

快速回复 返回顶部 返回列表