找回密码

蓝光电影网

查看: 272|回复: 3

[10bit.SDR] 怪兽电力公司/怪兽公司 Monsters.Inc.2001.2160p.BluRay.x265.10bit.SDR.TrueHD.7.1.Atmos-SWTYBLZ 17.72GB

[复制链接]

 成长值: 25285

发表于 2020-3-6 20:35:59 | 显示全部楼层 |阅读模式
怪兽电力公司/怪兽公司 Monsters.Inc.2001.2160p.BluRay.x265.10bit.SDR.TrueHD.7.1.Atmos-SWTYBLZ 17.72GB-1.png

译  名 怪兽电力公司 / 怪兽公司(港) / 怪物公司
片  名 Monsters, Inc.
年  代 2001
产  地 美国
类  别 喜剧 / 动画 / 儿童 / 奇幻 / 冒险
语  言 英语
上映日期 2001-11-02(美国) / 2012-12-19(美国)
IMDb评分  8.0/10 from 772879 users
IMDb链接  https://www.imdb.com/title/tt0198781
豆瓣评分 8.7/10 from 429148 users
豆瓣链接 https://movie.douban.com/subject/1291579/
片  长 92 分钟
导  演 彼特·道格特 Pete Docter / 大卫·斯沃曼 David Silverman / 李·昂克里奇 Lee Unkrich
编  剧 安德鲁·斯坦顿 Andrew Stanton / Daniel Gerson / Robert L. Baird / 略特·里斯 Rhett Reese / Jonathan Roberts / 彼特·道格特 Pete Docter / 杰夫·皮金  Jeff Pidgeon / 吉尔·卡尔顿 Jill Culton / 拉夫·埃格尔斯顿 Ralph Eggleston
主  演 约翰·古德曼 John Goodman
       比利·克里斯托 Billy Crystal
       玛丽·吉布斯 Mary Gibbs
       史蒂夫·布西密 Steve Buscemi
       詹姆斯·柯本 James Coburn
       詹妮弗·提莉 Jennifer Tilly
       鲍勃·彼德森 Bob Peterson
       约翰·拉岑贝格 John Ratzenberger
       弗兰克·奥兹 Frank Oz
       丹尼尔·吉尔森 Daniel Gerson
       邦尼·亨特 Bonnie Hunt
       杰克·安琪 Jack Angel
       Samuel Lord Black
       Steve Susskind


标  签 动画 | 迪斯尼 | 美国 | 喜剧 | pixar | 动画片 | 温情 | 美国电影

简  介  

  我们不知道,在那样的世界里住着那样一群怪物。他们长相滑稽,却必须装作狰狞。因为,在夜深的时候,他们要悄悄的出现在孩子的衣橱里,吓唬刚刚甜美睡去的宝宝。一切,只因为他们是怪物电力公司的员工,而孩子的尖叫,则是怪物王国发电的全部能量。怪物们害怕孩子,却又必须让孩子尖叫。在怪物的国度里,他们都是为全民造福的英雄。
  毛怪苏利文(约翰?古德曼)是怪物公司最出色的员工,业绩总是摇摇领先,他吓哭的小孩儿不计其数。他与搭档大眼怪麦克(比利?克里斯托)很受大家的爱戴。一次偶然,毛怪不小心把一个两岁的小女孩阿布(玛丽?吉布斯)带回了怪物世界,引起了极大的恐慌,调皮可爱的阿布把这些可怕的怪物吓的人仰马翻。警方在追捕阿布,而坏蛋亨利(詹姆斯?柯博)也计划利用阿布进行他改革工厂的邪恶计划。
  另一方面,在与阿布相处的过程中,毛怪渐渐对她产生莫名的情愫,甚至因此被放逐野外。可是一切都不能抵挡毛怪拯救女孩的信念,为了阿布,毛怪踏上了艰险的旅程……

获奖情况  

  第74届奥斯卡金像奖(2002)
  最佳动画长片(提名) 约翰·拉塞特 / 彼特·道格特
  最佳音效剪辑 嘉里·瑞德斯托姆 / 迈克尔·席维斯
  最佳原创配乐(提名) 兰迪·纽曼
  最佳原创歌曲 兰迪·纽曼

  第30届动画安妮奖(2003)
  最佳动画长片(提名)
  最佳导演(提名) 彼特·道格特 / 大卫·斯沃曼 / 李·昂克里奇
  最佳编剧(提名) 丹尼尔·吉尔森 / 安德鲁·斯坦顿
  最佳配乐(提名) 兰迪·纽曼
  最佳艺术指导(提名) 哈雷·杰斯普
  最佳动画角色(提名) Ricky Nierva
  最佳角色设计(提名) Ricky Nierva

  第27届报知映画赏(2002)
  海外作品奖 彼特·道格特
  1. Video
  2. ID                                       : 1
  3. Format                                   : HEVC
  4. Format/Info                              : High Efficiency Video Coding
  5. Format profile                           : Main High@L4@High
  6. Codec ID                                 : V_MPEGH/ISO/HEVC
  7. Duration                                 : 1 h 32 min
  8. Bit rate                                 : 19.8 Mb/s
  9. Width                                    : 3 840 pixels
  10. Height                                   : 2 076 pixels
  11. Display aspect ratio                     : 1.85:1
  12. Frame rate mode                          : Constant
  13. Frame rate                               : 23.976 (24000/1001/189150) FPS
  14. Color space                              : YUV
  15. Chroma subsampling                       : 4:2:0
  16. Bit depth                                : 10 bits
  17. Bits/(Pixel*Frame)                       : 0.103
  18. Stream size                              : 12.7 GiB (72%)
  19. Title                                    : Monsters.Inc.2001.2160p.BluRay.x265.10bit.SDR.TrueHD.7.1.Atmos-SWTYBLZ
  20. Writing library                          : x265 3.0ed72af837053:[Windows][GCC 8.2.0][64 bit] 10bit
  21. Encoding settings                        : cpuid=1111039 / frame-threads=6 / numa-pools=40 / wpp / no-pmode / no-pme / no-psnr / no-ssim / log-level=2 / input-csp=1 / input-res=3840x2076 / interlace=0 / total-frames=132584 / level-idc=51 / high-tier=1 / uhd-bd=0 / ref=3 / no-allow-non-conformance / repeat-headers / annexb / aud / hrd / info / hash=0 / no-temporal-layers / no-open-gop / min-keyint=1 / keyint=24 / gop-lookahead=0 / bframes=6 / b-adapt=2 / b-pyramid / bframe-bias=0 / rc-lookahead=25 / lookahead-slices=4 / scenecut=40 / radl=0 / no-splice / no-intra-refresh / ctu=64 / min-cu-size=8 / no-rect / no-amp / max-tu-size=32 / tu-inter-depth=1 / tu-intra-depth=1 / limit-tu=0 / rdoq-level=0 / dynamic-rd=0.00 / no-ssim-rd / signhide / no-tskip / nr-intra=0 / nr-inter=0 / no-constrained-intra / strong-intra-smoothing / max-merge=2 / limit-refs=3 / no-limit-modes / me=1 / subme=2 / merange=57 / temporal-mvp / weightp / no-weightb / no-analyze-src-pics / deblock=1:1 / no-sao / no-sao-non-deblock / rd=3 / no-early-skip / rskip / no-fast-intra / no-tskip-fast / no-cu-lossless / no-b-intra / no-splitrd-skip / rdpenalty=0 / psy-rd=0.40 / psy-rdoq=0.00 / no-rd-refine / no-lossless / cbqpoffs=0 / crqpoffs=0 / rc=crf / crf=16.0 / qcomp=0.60 / qpstep=4 / stats-write=0 / stats-read=0 / vbv-maxrate=160000 / vbv-bufsize=160000 / vbv-init=0.9 / crf-max=0.0 / crf-min=0.0 / ipratio=1.40 / pbratio=1.30 / aq-mode=1 / aq-strength=0.40 / cutree / zone-count=0 / no-strict-cbr / qg-size=32 / no-rc-grain / qpmax=69 / qpmin=0 / no-const-vbv / sar=1 / overscan=0 / videoformat=5 / range=0 / colorprim=2 / transfer=2 / colormatrix=2 / chromaloc=0 / display-window=0 / max-cll=0,0 / min-luma=0 / max-luma=1023 / log2-max-poc-lsb=8 / vui-timing-info / vui-hrd-info / slices=1 / opt-qp-pps / opt-ref-list-length-pps / no-multi-pass-opt-rps / scenecut-bias=0.05 / no-opt-cu-delta-qp / no-aq-motion / no-hdr / no-hdr-opt / no-dhdr10-opt / no-idr-recovery-sei / analysis-reuse-level=5 / scale-factor=0 / refine-intra=0 / refine-inter=0 / refine-mv=0 / refine-ctu-distortion=0 / no-limit-sao / ctu-info=0 / no-lowpass-dct / refine-analysis-type=0 / copy-pic=1 / max-ausize-factor=1.0 / no-dynamic-refine / no-single-sei / no-hevc-aq / qp-adaptation-range=1.00
  22. Default                                  : Yes
  23. Forced                                   : No

  24. Audio #1
  25. ID                                       : 2
  26. Format                                   : MLP FBA 16-ch
  27. Format/Info                              : Meridian Lossless Packing FBA with 16-channel presentation
  28. Commercial name                          : Dolby TrueHD with Dolby Atmos
  29. Codec ID                                 : A_TRUEHD
  30. Duration                                 : 1 h 32 min
  31. Bit rate mode                            : Variable
  32. Bit rate                                 : 6 905 kb/s
  33. Maximum bit rate                         : 8 211 kb/s
  34. Channel(s)                               : 8 channels
  35. Channel layout                           : L R C LFE Ls Rs Lb Rb
  36. Sampling rate                            : 48.0 kHz
  37. Frame rate                               : 1 200.000 FPS (40 SPF)
  38. Compression mode                         : Lossless
  39. Stream size                              : 4.45 GiB (25%)
  40. Title                                    : Monsters.Inc.2001.2160p.BluRay.x265.10bit.SDR.TrueHD.7.1.Atmos-SWTYBLZ
  41. Language                                 : English
  42. Default                                  : Yes
  43. Forced                                   : No
  44. Number of dynamic objects                : 13
  45. Bed channel count                        : 1 channel
  46. Bed channel configuration                : LFE

  47. Audio #2
  48. ID                                       : 3
  49. Format                                   : AC-3
  50. Format/Info                              : Audio Coding 3
  51. Commercial name                          : Dolby Digital
  52. Codec ID                                 : A_AC3
  53. Duration                                 : 1 h 32 min
  54. Bit rate mode                            : Constant
  55. Bit rate                                 : 640 kb/s
  56. Channel(s)                               : 6 channels
  57. Channel layout                           : L R C LFE Ls Rs
  58. Sampling rate                            : 48.0 kHz
  59. Frame rate                               : 31.250 FPS (1536 SPF)
  60. Compression mode                         : Lossy
  61. Stream size                              : 422 MiB (2%)
  62. Title                                    : Monsters.Inc.2001.2160p.BluRay.x265.10bit.SDR.TrueHD.7.1.Atmos-SWTYBLZ
  63. Language                                 : English
  64. Service kind                             : Complete Main
  65. Default                                  : No
  66. Forced                                   : No

  67. Text #1
  68. ID                                       : 4
  69. Format                                   : UTF-8
  70. Codec ID                                 : S_TEXT/UTF8
  71. Codec ID/Info                            : UTF-8 Plain Text
  72. Duration                                 : 1 h 23 min
  73. Bit rate                                 : 62 b/s
  74. Count of elements                        : 1110
  75. Stream size                              : 38.4 KiB (0%)
  76. Title                                    : English-SRT
  77. Language                                 : English
  78. Default                                  : Yes
  79. Forced                                   : No

  80. Text #2
  81. ID                                       : 5
  82. Format                                   : PGS
  83. Muxing mode                              : zlib
  84. Codec ID                                 : S_HDMV/PGS
  85. Codec ID/Info                            : Picture based subtitle format used on BDs/HD-DVDs
  86. Duration                                 : 1 h 28 min
  87. Bit rate                                 : 41.6 kb/s
  88. Count of elements                        : 2650
  89. Stream size                              : 26.2 MiB (0%)
  90. Title                                    : English-PGS
  91. Language                                 : English
  92. Default                                  : No
  93. Forced                                   : No

  94. Text #3
  95. ID                                       : 6
  96. Format                                   : PGS
  97. Muxing mode                              : zlib
  98. Codec ID                                 : S_HDMV/PGS
  99. Codec ID/Info                            : Picture based subtitle format used on BDs/HD-DVDs
  100. Duration                                 : 1 h 28 min
  101. Bit rate                                 : 35.9 kb/s
  102. Count of elements                        : 2182
  103. Stream size                              : 22.7 MiB (0%)
  104. Title                                    : French-PGS
  105. Language                                 : French
  106. Default                                  : No
  107. Forced                                   : No

  108. Text #4
  109. ID                                       : 7
  110. Format                                   : PGS
  111. Muxing mode                              : zlib
  112. Codec ID                                 : S_HDMV/PGS
  113. Codec ID/Info                            : Picture based subtitle format used on BDs/HD-DVDs
  114. Duration                                 : 1 h 28 min
  115. Bit rate                                 : 34.5 kb/s
  116. Count of elements                        : 2182
  117. Stream size                              : 21.8 MiB (0%)
  118. Title                                    : Spanish-PGS
  119. Language                                 : Spanish
  120. Default                                  : No
  121. Forced                                   : No

  122. Menu
  123. 00:00:00.000                             : en:Chapter 01
  124. 00:01:33.468                             : en:Chapter 02
  125. 00:03:08.271                             : en:Chapter 03
  126. 00:04:51.791                             : en:Chapter 04
  127. 00:07:17.603                             : en:Chapter 05
  128. 00:09:12.176                             : en:Chapter 06
  129. 00:10:44.268                             : en:Chapter 07
  130. 00:11:54.296                             : en:Chapter 08
  131. 00:17:26.420                             : en:Chapter 09
  132. 00:20:06.747                             : en:Chapter 10
  133. 00:22:04.281                             : en:Chapter 11
  134. 00:25:49.089                             : en:Chapter 12
  135. 00:28:35.630                             : en:Chapter 13
  136. 00:31:07.156                             : en:Chapter 14
  137. 00:34:50.379                             : en:Chapter 15
  138. 00:36:56.297                             : en:Chapter 16
  139. 00:38:50.953                             : en:Chapter 17
  140. 00:40:28.551                             : en:Chapter 18
  141. 00:43:34.903                             : en:Chapter 19
  142. 00:45:30.394                             : en:Chapter 20
  143. 00:48:08.093                             : en:Chapter 21
  144. 00:50:37.743                             : en:Chapter 22
  145. 00:54:41.945                             : en:Chapter 23
  146. 00:57:30.113                             : en:Chapter 24
  147. 01:03:42.401                             : en:Chapter 25
  148. 01:06:25.690                             : en:Chapter 26
  149. 01:07:27.043                             : en:Chapter 27
  150. 01:13:52.428                             : en:Chapter 28
  151. 01:17:50.248                             : en:Chapter 29
  152. 01:21:25.589                             : en:Chapter 30
  153. 01:24:08.543                             : en:Chapter 31
  154. 01:25:06.893                             : en:Chapter 32
复制代码

怪兽电力公司/怪兽公司 Monsters.Inc.2001.2160p.BluRay.x265.10bit.SDR.TrueHD.7.1.Atmos-SWTYBLZ 17.72GB-2.png 怪兽电力公司/怪兽公司 Monsters.Inc.2001.2160p.BluRay.x265.10bit.SDR.TrueHD.7.1.Atmos-SWTYBLZ 17.72GB-3.png 怪兽电力公司/怪兽公司 Monsters.Inc.2001.2160p.BluRay.x265.10bit.SDR.TrueHD.7.1.Atmos-SWTYBLZ 17.72GB-4.png 怪兽电力公司/怪兽公司 Monsters.Inc.2001.2160p.BluRay.x265.10bit.SDR.TrueHD.7.1.Atmos-SWTYBLZ 17.72GB-5.png 怪兽电力公司/怪兽公司 Monsters.Inc.2001.2160p.BluRay.x265.10bit.SDR.TrueHD.7.1.Atmos-SWTYBLZ 17.72GB-6.png 怪兽电力公司/怪兽公司 Monsters.Inc.2001.2160p.BluRay.x265.10bit.SDR.TrueHD.7.1.Atmos-SWTYBLZ 17.72GB-7.png 怪兽电力公司/怪兽公司 Monsters.Inc.2001.2160p.BluRay.x265.10bit.SDR.TrueHD.7.1.Atmos-SWTYBLZ 17.72GB-8.png






回复

使用道具 举报

发表于 2020-3-8 00:50:40 | 显示全部楼层
楼主发贴辛苦了,谢谢楼主分享!我觉得蓝光电影网是注册对了!
回复 支持 反对

使用道具 举报

发表于 2020-3-9 19:22:13 | 显示全部楼层

楼主发贴辛苦了,谢谢楼主分享!!
回复 支持 反对

使用道具 举报

发表于 2020-3-10 07:15:53 | 显示全部楼层

这东西我收了!谢谢楼主!蓝光电影网真好!
回复 支持 反对

使用道具 举报

懒得打字嘛,点击右侧快捷回复 【右侧内容,后台自定义】
您需要登录后才可以回帖 登录 | 立即加入

本版积分规则

现在加入蓝光电影网,注册一个账号
上个主题 下个主题 快速回复 收藏帖子 返回列表 客服中心 搜索

手机版|小黑屋| 蓝光电影网 |网站地图 

Copyright © 2015-2019 Comsenz Inc.  Template by 蓝光电影论坛 All Rights Reserved.

Powered by 蓝光电影网 X3.4

特别声明:本站所有资源均由网上收集而来,版权归原影音公司所有,如果侵犯了你的权益,请通知我们,我们会及时删除侵权内容.

快速回复 返回顶部 返回列表