找回密码

蓝光电影网

查看: 1412|回复: 43

[10bit.HDR] 速度与激情:特别行动 Fast.and.Furious.Presents.Hobbs.and.Shaw.2019.2160p.UHD.BluRay.X265.10bit.HDR10Plus.TrueHD.7.1.Atmos-JustWatch 19.71GB

[复制链接]

 成长值: 25360

发表于 2020-3-6 14:23:09 | 显示全部楼层 |阅读模式
速度与激情:特别行动 Fast.and.Furious.Presents.Hobbs.and.Shaw.2019.2160p.UHD.BluRay.X265.10bit.HDR10Plus.TrueHD.7.1.Atmos-JustWatch 19.71GB-1.png

译  名 速度与激情:特别行动 / Hobbs and Shaw / The Fast and the Furious Spinoff / 狂野时速:双雄联盟(港) / 玩命关头:特别行动(台) / 速度与基情(豆友译名) / 速度与激情外传 / 速度与激情衍生片 / 霍布斯与肖
片  名 Fast & Furious Presents: Hobbs & Shaw
年  代 2019
产  地 美国
类  别 动作 / 犯罪
语  言 英语 / 萨摩亚语 / 俄语
上映日期 2019-08-02(美国) / 2019-08-23(中国大陆)
IMDb评分  6.5/10 from 134381 users
IMDb链接  https://www.imdb.com/title/tt6806448
豆瓣评分 6.3/10 from 191493 users
豆瓣链接 https://movie.douban.com/subject/27163278/
片  长 137分钟
导  演 大卫·雷奇 David Leitch
编  剧 克里斯·摩根 Chris Morgan / 盖瑞·斯科特·汤普森 Gary Scott Thompson / 德鲁·皮尔斯 Drew Pearce
主  演 道恩·强森 Dwayne Johnson
       杰森·斯坦森 Jason Statham
       伊德里斯·艾尔巴 Idris Elba
       凡妮莎·柯比 Vanessa Kirby
       艾莎·冈萨雷斯 Eiza González
       海伦·米伦 Helen Mirren
       瑞恩·雷诺兹 Ryan Reynolds
       凯文·哈特 Kevin Hart
       埃迪·马森 Eddie Marsan
       罗曼·雷恩斯 Roman Reigns
       斯蒂芬妮·沃格特 Stephanie Vogt
       维克托里娅·菲斯 Viktorija Faith
       康兰·卡萨尔 Conlan Casal
       海伦娜·福尔摩斯 Helena Holmes
       伯纳多·桑托斯 Bernardo Santos
       露丝·霍洛克斯 Ruth Horrocks
       大卫·穆梅尼 David Mumeni
       马诺伊·阿南德 Manoj Anand
       阿玛尔·阿达蒂亚 Amar Adatia
       朱利安·费罗 Julian Ferro
       丹尼尔·厄根 Daniel Eghan
       拉普洛斯·卡伦福佐斯 Lampros Kalfuntzos
       阿克塞尔·努 Axel Nu
       史蒂夫·莱温顿 Steve Lewington
       安东尼奥·曼奇诺 Antonio Mancino
       斯特拉·斯托克尔 Stella Stocker
       克利夫·柯蒂斯 Cliff Curtis


标  签 动作 | 美国 | 速度与激情:特别行动 | 飙车 | 犯罪 | 2019 | 冒险 | 赛车

简  介  

  一个是美国外交安全局的忠诚特工、身材魁梧的执法者霍布斯(强森饰),一个是前英国军事特工精英、无法无天的恶棍肖(斯坦森饰)。在2015年的《速度与激情7》中首次对峙之后,两人不论言语还是肢体都冲突不断,一直试图打倒对方。
  然而,通过高科技进行了基因增强的无政府主义者布里克斯顿(伊德瑞斯·艾尔巴饰)控制了一种可能永远改变人类命运的不为人知的生化武器,并且还打败了一位大胆优秀又特立独行的军情六处特工(曾出演《王冠》的凡妮莎·科比饰)——她恰好是肖的妹妹,为了扳倒这个世界上唯一可能比他们更厉害的敌人,这两个不共戴天的宿敌不得不联手。
  《速度与激情:特别行动》一片在《速度与激情》系列的宇宙中推开了一扇全新的大门。从洛杉矶到伦敦,从切尔诺贝利的有毒废墟到美丽的南太平洋岛国萨摩亚,本次特别行动席卷全球。
  该片由大卫·雷奇执导(《死侍2》导演),由《速度与激情》系列故事的缔造者克里斯·摩根编剧,摩根、强森、斯坦森和海拉姆·加西亚共同担纲制片。丹尼·加西亚、凯利·麦考密克、 、史蒂文·查斯曼、伊森·史密斯和安斯利·戴维斯担任监制。
  1. Video
  2. ID                                       : 1
  3. Format                                   : HEVC
  4. Format/Info                              : High Efficiency Video Coding
  5. Format profile                           : Main High@L4@High
  6. HDR format                               : SMPTE ST 2094 App 4, Version 1, HDR10+ Profile B compatible
  7. Codec ID                                 : V_MPEGH/ISO/HEVC
  8. Duration                                 : 2 h 15 min
  9. Bit rate                                 : 16.7 Mb/s
  10. Width                                    : 3 840 pixels
  11. Height                                   : 2 160 pixels
  12. Display aspect ratio                     : 16:9
  13. Frame rate mode                          : Constant
  14. Frame rate                               : 23.976 (24000/1001/189150) FPS
  15. Color space                              : YUV
  16. Chroma subsampling                       : 4:2:0 (Type 2)
  17. Bit depth                                : 10 bits
  18. Bits/(Pixel*Frame)                       : 0.084
  19. Stream size                              : 15.8 GiB (81%)
  20. Writing library                          : x265 3.19c5c9cef2a86:[Windows][MSVC 1900][64 bit] 10bit
  21. Encoding settings                        : cpuid=1111039 / frame-threads=6 / numa-pools=16,16 / wpp / no-pmode / no-pme / no-psnr / no-ssim / log-level=2 / input-csp=1 / input-res=3840x2160 / interlace=0 / total-frames=195520 / level-idc=51 / high-tier=1 / uhd-bd=0 / ref=4 / no-allow-non-conformance / repeat-headers / annexb / aud / hrd / info / hash=0 / no-temporal-layers / no-open-gop / min-keyint=24 / keyint=240 / gop-lookahead=0 / bframes=4 / b-adapt=2 / b-pyramid / bframe-bias=0 / rc-lookahead=25 / lookahead-slices=4 / scenecut=40 / radl=0 / no-splice / no-intra-refresh / ctu=64 / min-cu-size=8 / rect / no-amp / max-tu-size=32 / tu-inter-depth=1 / tu-intra-depth=1 / limit-tu=0 / rdoq-level=2 / dynamic-rd=0.00 / no-ssim-rd / signhide / no-tskip / nr-intra=0 / nr-inter=0 / no-constrained-intra / no-strong-intra-smoothing / max-merge=3 / limit-refs=3 / limit-modes / me=3 / subme=3 / merange=57 / temporal-mvp / weightp / no-weightb / no-analyze-src-pics / deblock=-3:-3 / no-sao / no-sao-non-deblock / rd=4 / no-early-skip / rskip / no-fast-intra / no-tskip-fast / no-cu-lossless / no-b-intra / no-splitrd-skip / rdpenalty=0 / psy-rd=2.00 / psy-rdoq=1.00 / no-rd-refine / no-lossless / cbqpoffs=0 / crqpoffs=0 / rc=crf / crf=15.0 / qcomp=0.60 / qpstep=4 / stats-write=0 / stats-read=0 / vbv-maxrate=160000 / vbv-bufsize=160000 / vbv-init=0.9 / crf-max=0.0 / crf-min=0.0 / ipratio=1.40 / pbratio=1.30 / aq-mode=2 / aq-strength=1.00 / cutree / zone-count=0 / no-strict-cbr / qg-size=32 / no-rc-grain / qpmax=69 / qpmin=0 / no-const-vbv / sar=1 / overscan=0 / videoformat=5 / range=0 / colorprim=9 / transfer=16 / colormatrix=9 / chromaloc=1 / chromaloc-top=2 / chromaloc-bottom=2 / display-window=0 / master-display=G(13250,34500)B(7500,3000)R(34000,16000)WP(15635,16450)L(40000000,50)cll=1000,419 / min-luma=0 / max-luma=1023 / log2-max-poc-lsb=8 / vui-timing-info / vui-hrd-info / slices=1 / no-opt-qp-pps / no-opt-ref-list-length-pps / no-multi-pass-opt-rps / scenecut-bias=0.05 / no-opt-cu-delta-qp / no-aq-motion / hdr / hdr-opt / dhdr10-opt / no-idr-recovery-sei / analysis-reuse-level=5 / scale-factor=0 / refine-intra=0 / refine-inter=0 / refine-mv=0 / refine-ctu-distortion=0 / no-limit-sao / ctu-info=0 / no-lowpass-dct / refine-analysis-type=0 / copy-pic=1 / max-ausize-factor=1.0 / no-dynamic-refine / no-single-sei / no-hevc-aq / no-svt / no-field / qp-adaptation-range=1.00
  22. Default                                  : Yes
  23. Forced                                   : No
  24. Color range                              : Limited
  25. Color primaries                          : BT.2020
  26. Transfer characteristics                 : PQ
  27. Matrix coefficients                      : BT.2020 non-constant
  28. Mastering display color primaries        : Display P3
  29. Mastering display luminance              : min: 0.0050 cd/m2, max: 4000 cd/m2
  30. Maximum Content Light Level              : 1000 cd/m2
  31. Maximum Frame-Average Light Level        : 419 cd/m2

  32. Audio #1
  33. ID                                       : 2
  34. Format                                   : MLP FBA 16-ch
  35. Format/Info                              : Meridian Lossless Packing FBA with 16-channel presentation
  36. Commercial name                          : Dolby TrueHD with Dolby Atmos
  37. Codec ID                                 : A_TRUEHD
  38. Duration                                 : 2 h 15 min
  39. Bit rate mode                            : Variable
  40. Bit rate                                 : 3 120 kb/s
  41. Maximum bit rate                         : 5 127 kb/s
  42. Channel(s)                               : 8 channels
  43. Channel layout                           : L R C LFE Ls Rs Lb Rb
  44. Sampling rate                            : 48.0 kHz
  45. Frame rate                               : 1 200.000 FPS (40 SPF)
  46. Compression mode                         : Lossless
  47. Stream size                              : 2.96 GiB (15%)
  48. Title                                    : Surround 7.1
  49. Language                                 : English
  50. Default                                  : No
  51. Forced                                   : No
  52. Number of dynamic objects                : 11
  53. Bed channel count                        : 1 channel
  54. Bed channel configuration                : LFE

  55. Audio #2
  56. ID                                       : 3
  57. Format                                   : AC-3
  58. Format/Info                              : Audio Coding 3
  59. Commercial name                          : Dolby Digital
  60. Codec ID                                 : A_AC3
  61. Duration                                 : 2 h 15 min
  62. Bit rate mode                            : Constant
  63. Bit rate                                 : 448 kb/s
  64. Channel(s)                               : 6 channels
  65. Channel layout                           : L R C LFE Ls Rs
  66. Sampling rate                            : 48.0 kHz
  67. Frame rate                               : 31.250 FPS (1536 SPF)
  68. Compression mode                         : Lossy
  69. Stream size                              : 436 MiB (2%)
  70. Title                                    : Surround 5.1
  71. Language                                 : English
  72. Service kind                             : Complete Main
  73. Default                                  : No
  74. Forced                                   : No

  75. Audio #3
  76. ID                                       : 4
  77. Format                                   : AC-3
  78. Format/Info                              : Audio Coding 3
  79. Commercial name                          : Dolby Digital
  80. Codec ID                                 : A_AC3
  81. Duration                                 : 2 h 15 min
  82. Bit rate mode                            : Constant
  83. Bit rate                                 : 192 kb/s
  84. Channel(s)                               : 2 channels
  85. Channel layout                           : L R
  86. Sampling rate                            : 48.0 kHz
  87. Frame rate                               : 31.250 FPS (1536 SPF)
  88. Compression mode                         : Lossy
  89. Stream size                              : 187 MiB (1%)
  90. Title                                    : Stereo
  91. Language                                 : English
  92. Service kind                             : Complete Main
  93. Default                                  : No
  94. Forced                                   : No

  95. Text #1
  96. ID                                       : 5
  97. Format                                   : UTF-8
  98. Codec ID                                 : S_TEXT/UTF8
  99. Codec ID/Info                            : UTF-8 Plain Text
  100. Duration                                 : 1 h 1 min
  101. Bit rate                                 : 0 b/s
  102. Count of elements                        : 13
  103. Stream size                              : 439 Bytes (0%)
  104. Title                                    : forced srt
  105. Language                                 : English
  106. Default                                  : No
  107. Forced                                   : No

  108. Text #2
  109. ID                                       : 6
  110. Format                                   : PGS
  111. Muxing mode                              : zlib
  112. Codec ID                                 : S_HDMV/PGS
  113. Codec ID/Info                            : Picture based subtitle format used on BDs/HD-DVDs
  114. Duration                                 : 1 h 1 min
  115. Bit rate                                 : 445 b/s
  116. Count of elements                        : 26
  117. Stream size                              : 201 KiB (0%)
  118. Title                                    : forced
  119. Language                                 : English
  120. Default                                  : No
  121. Forced                                   : No

  122. Text #3
  123. ID                                       : 7
  124. Format                                   : PGS
  125. Muxing mode                              : zlib
  126. Codec ID                                 : S_HDMV/PGS
  127. Codec ID/Info                            : Picture based subtitle format used on BDs/HD-DVDs
  128. Duration                                 : 2 h 15 min
  129. Bit rate                                 : 54.4 kb/s
  130. Count of elements                        : 4426
  131. Stream size                              : 52.8 MiB (0%)
  132. Language                                 : English
  133. Default                                  : No
  134. Forced                                   : No

  135. Text #4
  136. ID                                       : 8
  137. Format                                   : PGS
  138. Muxing mode                              : zlib
  139. Codec ID                                 : S_HDMV/PGS
  140. Codec ID/Info                            : Picture based subtitle format used on BDs/HD-DVDs
  141. Duration                                 : 2 h 15 min
  142. Bit rate                                 : 72.3 kb/s
  143. Count of elements                        : 4404
  144. Stream size                              : 70.2 MiB (0%)
  145. Language                                 : English
  146. Default                                  : No
  147. Forced                                   : No

  148. Menu
  149. 00:00:00.000                             : en:Chapter 01
  150. 00:04:57.880                             : en:Chapter 02
  151. 00:13:43.489                             : en:Chapter 03
  152. 00:19:21.451                             : en:Chapter 04
  153. 00:26:45.979                             : en:Chapter 05
  154. 00:35:41.514                             : en:Chapter 06
  155. 00:40:12.952                             : en:Chapter 07
  156. 00:46:22.029                             : en:Chapter 08
  157. 00:51:33.840                             : en:Chapter 09
  158. 00:57:51.801                             : en:Chapter 10
  159. 01:01:53.000                             : en:Chapter 11
  160. 01:08:45.162                             : en:Chapter 12
  161. 01:14:22.833                             : en:Chapter 13
  162. 01:19:48.074                             : en:Chapter 14
  163. 01:24:59.177                             : en:Chapter 15
  164. 01:32:58.114                             : en:Chapter 16
  165. 01:38:49.214                             : en:Chapter 17
  166. 01:46:32.928                             : en:Chapter 18
  167. 01:53:29.594                             : en:Chapter 19
  168. 02:01:14.809                             : en:Chapter 20
复制代码

速度与激情:特别行动 Fast.and.Furious.Presents.Hobbs.and.Shaw.2019.2160p.UHD.BluRay.X265.10bit.HDR10Plus.TrueHD.7.1.Atmos-JustWatch 19.71GB-2.png 速度与激情:特别行动 Fast.and.Furious.Presents.Hobbs.and.Shaw.2019.2160p.UHD.BluRay.X265.10bit.HDR10Plus.TrueHD.7.1.Atmos-JustWatch 19.71GB-3.png 速度与激情:特别行动 Fast.and.Furious.Presents.Hobbs.and.Shaw.2019.2160p.UHD.BluRay.X265.10bit.HDR10Plus.TrueHD.7.1.Atmos-JustWatch 19.71GB-4.png






回复

使用道具 举报

发表于 2020-3-6 14:40:07 | 显示全部楼层
谢谢楼主!
回复

使用道具 举报

发表于 2020-3-6 14:41:37 | 显示全部楼层
谢谢楼主!
回复

使用道具 举报

发表于 2020-3-6 14:47:22 | 显示全部楼层
楼主发贴辛苦了,谢谢楼主分享!我觉得蓝光电影网是注册对了!
回复 支持 反对

使用道具 举报

发表于 2020-3-6 14:53:12 | 显示全部楼层

楼主,我太崇拜你了!我想我是一天也不能离开蓝光电影网
回复 支持 反对

使用道具 举报

发表于 2020-3-6 16:15:04 | 显示全部楼层
楼主发贴辛苦了,谢谢楼主分享!我觉得蓝光电影网是注册对了!
回复 支持 反对

使用道具 举报

发表于 2020-3-6 16:28:11 | 显示全部楼层

楼主太厉害了!楼主,电影应该很好看我觉得蓝光电影网真是个好地方!
回复 支持 反对

使用道具 举报

发表于 2020-3-6 16:30:16 | 显示全部楼层

这东西我收了!谢谢楼主!蓝光电影网真好!
回复 支持 反对

使用道具 举报

 成长值: 280

发表于 2020-3-6 17:43:40 | 显示全部楼层
谢谢楼主!蓝光电影网真好!
回复 支持 反对

使用道具 举报

发表于 2020-3-6 17:51:09 | 显示全部楼层

我看不错噢 谢谢楼主!蓝光电影网越来越好!
回复 支持 反对

使用道具 举报

懒得打字嘛,点击右侧快捷回复 【右侧内容,后台自定义】
您需要登录后才可以回帖 登录 | 立即加入

本版积分规则

现在加入蓝光电影网,注册一个账号
上个主题 下个主题 快速回复 收藏帖子 返回列表 客服中心 搜索

手机版|小黑屋| 蓝光电影网 |网站地图 

Copyright © 2015-2019 Comsenz Inc.  Template by 蓝光电影论坛 All Rights Reserved.

Powered by 蓝光电影网 X3.4

特别声明:本站所有资源均由网上收集而来,版权归原影音公司所有,如果侵犯了你的权益,请通知我们,我们会及时删除侵权内容.

快速回复 返回顶部 返回列表