找回密码

蓝光电影网

查看: 291|回复: 3

[10bit.HDR] 虫虫危机/虫虫特工队 A.Bugs.Life.1998.2160p.UHD.BluRay.X265.10bit.HDR.TrueHD.7.1.Atmos-AViATOR 14.40GB

[复制链接]

 成长值: 25360

发表于 2020-3-6 14:21:19 | 显示全部楼层 |阅读模式
虫虫危机/虫虫特工队 A.Bugs.Life.1998.2160p.UHD.BluRay.X265.10bit.HDR.TrueHD.7.1.Atmos-AViATOR 14.40GB-1.png

译  名 虫虫危机 / 虫虫特工队
片  名 A Bug's Life
年  代 1998
产  地 美国
类  别 喜剧 / 动画 / 冒险
语  言 英语
上映日期 1998-11-25(美国)
IMDb评分  7.2/10 from 254815 users
IMDb链接  https://www.imdb.com/title/tt0120623
豆瓣评分 7.9/10 from 73997 users
豆瓣链接 https://movie.douban.com/subject/1291573/
片  长 95 分钟
导  演 约翰·拉塞特 John Lasseter / 安德鲁·斯坦顿 Andrew Stanton
编  剧 安德鲁·斯坦顿 Andrew Stanton / Don McEnery / Bob Shaw
主  演 Dave Foley
       凯文·史派西 Kevin Spacey
       茱莉亚·路易斯-德瑞弗斯 Julia Louis-Dreyfus
       海顿·潘妮蒂尔 Hayden Panettiere


标  签 动画 | 美国 | 迪斯尼 | pixar | 动画片 | DISNEY | 美国电影 | 1998

简  介  

  菲力在蚂蚁王国里并不怎么受欢迎,尽管他发明了先进的收割机,然而阴差阳错,他竟然惹了大祸,公主妹妹小不点因此被蝗虫敌人捉去,而且蚂蚁的粮食也受到了蝗虫的威胁。即使菲力救出了小不点,但还是被赶出蚂蚁王国。只有他在外面的世界找到了对付蝗虫的办法,才有可能回到家园。
  菲力在城市中遇到了马戏团的一队昆虫。爬虫、蝴蝶、瓢虫、臭虫,他们都似乎身怀绝技,令菲力十分兴奋,于是菲力把他们请回蚂蚁王国对付蝗虫。一场恶战即将开始,昆虫们愈战愈勇,和菲力一同投入到斗争中。智勇双全的菲力也终于回到了蚂蚁王国中,受到大伙儿的赞赏。

获奖情况  

  第71届奥斯卡金像奖(1999)
  音乐/喜剧片最佳原创配乐(提名) 兰迪·纽曼

  第53届英国电影学院奖(2000)
  电影奖 最佳特殊视觉效果(提名) Eben Ostby / Bill Reeves / Rick Sayre / Sharon Calahan

  第27届动画安妮奖(1999)
  最佳动画长片(提名)
  最佳导演(提名) 安德鲁·斯坦顿 / 约翰·拉塞特
  最佳编剧(提名) 唐·麦肯内里 / 安德鲁·斯坦顿 / Bob Shaw / 约翰·拉塞特 / 乔·兰福特
  最佳艺术指导(提名) William Cone
  1. Video
  2. ID                                       : 6
  3. Format                                   : HEVC
  4. Format/Info                              : High Efficiency Video Coding
  5. Format profile                           : Main High@L4@High
  6. HDR format                               : SMPTE ST 2086, HDR10 compatible
  7. Codec ID                                 : V_MPEGH/ISO/HEVC
  8. Duration                                 : 1 h 34 min
  9. Bit rate                                 : 12.5 Mb/s
  10. Width                                    : 3 840 pixels
  11. Height                                   : 1 634 pixels
  12. Display aspect ratio                     : 2.35:1
  13. Frame rate mode                          : Constant
  14. Frame rate                               : 23.976 (24000/1001/189150) FPS
  15. Color space                              : YUV
  16. Chroma subsampling                       : 4:2:0 (Type 2)
  17. Bit depth                                : 10 bits
  18. Bits/(Pixel*Frame)                       : 0.083
  19. Stream size                              : 8.30 GiB (58%)
  20. Writing library                          : x265 3.330eb4de83092:[Windows][GCC 6.3.0][64 bit] 10bit
  21. Encoding settings                        : cpuid=1111039 / frame-threads=4 / numa-pools=20 / wpp / no-pmode / no-pme / no-psnr / no-ssim / log-level=2 / input-csp=1 / input-res=3840x1634 / interlace=0 / total-frames=136528 / level-idc=51 / high-tier=1 / uhd-bd=0 / ref=4 / no-allow-non-conformance / repeat-headers / annexb / aud / hrd / info / hash=0 / no-temporal-layers / no-open-gop / min-keyint=1 / keyint=24 / gop-lookahead=0 / bframes=4 / b-adapt=2 / b-pyramid / bframe-bias=0 / rc-lookahead=25 / lookahead-slices=4 / scenecut=40 / hist-scenecut=0 / radl=0 / no-splice / no-intra-refresh / ctu=64 / min-cu-size=8 / rect / no-amp / max-tu-size=32 / tu-inter-depth=1 / tu-intra-depth=1 / limit-tu=0 / rdoq-level=2 / dynamic-rd=0.00 / no-ssim-rd / signhide / no-tskip / nr-intra=0 / nr-inter=0 / no-constrained-intra / no-strong-intra-smoothing / max-merge=3 / limit-refs=3 / limit-modes / me=3 / subme=3 / merange=57 / temporal-mvp / no-frame-dup / no-hme / weightp / no-weightb / no-analyze-src-pics / deblock=-3:-3 / no-sao / no-sao-non-deblock / rd=4 / selective-sao=0 / no-early-skip / rskip / no-fast-intra / no-tskip-fast / no-cu-lossless / no-b-intra / no-splitrd-skip / rdpenalty=0 / psy-rd=2.00 / psy-rdoq=1.00 / no-rd-refine / no-lossless / cbqpoffs=0 / crqpoffs=0 / rc=crf / crf=17.0 / qcomp=0.60 / qpstep=4 / stats-write=0 / stats-read=0 / vbv-maxrate=160000 / vbv-bufsize=160000 / vbv-init=0.9 / crf-max=0.0 / crf-min=0.0 / ipratio=1.40 / pbratio=1.30 / aq-mode=1 / aq-strength=1.00 / cutree / zone-count=0 / no-strict-cbr / qg-size=32 / no-rc-grain / qpmax=69 / qpmin=0 / no-const-vbv / sar=1 / overscan=0 / videoformat=5 / range=0 / colorprim=9 / transfer=16 / colormatrix=9 / chromaloc=1 / chromaloc-top=2 / chromaloc-bottom=2 / display-window=0 / master-display=G(13250,34500)B(7500,3000)R(34000,16000)WP(15635,16450)L(10000000,0) / cll=0,0 / min-luma=0 / max-luma=1023 / log2-max-poc-lsb=8 / vui-timing-info / vui-hrd-info / slices=1 / no-opt-qp-pps / no-opt-ref-list-length-pps / no-multi-pass-opt-rps / scenecut-bias=0.05 / hist-threshold=0.01 / no-opt-cu-delta-qp / no-aq-motion / hdr10 / hdr10-opt / no-dhdr10-opt / no-idr-recovery-sei / analysis-reuse-level=0 / analysis-save-reuse-level=0 / analysis-load-reuse-level=0 / scale-factor=0 / refine-intra=0 / refine-inter=0 / refine-mv=1 / refine-ctu-distortion=0 / no-limit-sao / ctu-info=0 / no-lowpass-dct / refine-analysis-type=0 / copy-pic=1 / max-ausize-factor=1.0 / no-dynamic-refine / no-single-sei / no-hevc-aq / no-svt / no-field / qp-adaptation-range=1.00 / no-scenecut-aware-qpconformance-window-offsets / right=0 / bottom=0
  22. Language                                 : English
  23. Default                                  : Yes
  24. Forced                                   : No
  25. Color range                              : Limited
  26. Color primaries                          : BT.2020
  27. Transfer characteristics                 : PQ
  28. Matrix coefficients                      : BT.2020 non-constant
  29. Mastering display color primaries        : Display P3
  30. Mastering display luminance              : min: 0.0000 cd/m2, max: 1000 cd/m2

  31. Audio #1
  32. ID                                       : 1
  33. Format                                   : MLP FBA 16-ch
  34. Format/Info                              : Meridian Lossless Packing FBA with 16-channel presentation
  35. Commercial name                          : Dolby TrueHD with Dolby Atmos
  36. Codec ID                                 : A_TRUEHD
  37. Duration                                 : 1 h 34 min
  38. Bit rate mode                            : Variable
  39. Bit rate                                 : 8 178 kb/s
  40. Maximum bit rate                         : 8 088 kb/s
  41. Channel(s)                               : 8 channels
  42. Channel layout                           : L R C LFE Ls Rs Lb Rb
  43. Sampling rate                            : 48.0 kHz
  44. Frame rate                               : 1 200.000 FPS (40 SPF)
  45. Compression mode                         : Lossless
  46. Stream size                              : 5.42 GiB (38%)
  47. Language                                 : English
  48. Default                                  : Yes
  49. Forced                                   : No
  50. Number of dynamic objects                : 13
  51. Bed channel count                        : 1 channel
  52. Bed channel configuration                : LFE

  53. Audio #2
  54. ID                                       : 2
  55. Format                                   : AC-3
  56. Format/Info                              : Audio Coding 3
  57. Commercial name                          : Dolby Digital
  58. Codec ID                                 : A_AC3
  59. Duration                                 : 1 h 34 min
  60. Bit rate mode                            : Constant
  61. Bit rate                                 : 640 kb/s
  62. Channel(s)                               : 6 channels
  63. Channel layout                           : L R C LFE Ls Rs
  64. Sampling rate                            : 48.0 kHz
  65. Frame rate                               : 31.250 FPS (1536 SPF)
  66. Compression mode                         : Lossy
  67. Stream size                              : 434 MiB (3%)
  68. Language                                 : English
  69. Service kind                             : Complete Main
  70. Default                                  : No
  71. Forced                                   : No

  72. Text #1
  73. ID                                       : 3
  74. Format                                   : PGS
  75. Muxing mode                              : zlib
  76. Codec ID                                 : S_HDMV/PGS
  77. Codec ID/Info                            : Picture based subtitle format used on BDs/HD-DVDs
  78. Duration                                 : 1 h 34 min
  79. Bit rate                                 : 46.4 kb/s
  80. Count of elements                        : 2998
  81. Stream size                              : 31.5 MiB (0%)
  82. Title                                    : SDH
  83. Language                                 : English
  84. Default                                  : No
  85. Forced                                   : No

  86. Text #2
  87. ID                                       : 4
  88. Format                                   : PGS
  89. Muxing mode                              : zlib
  90. Codec ID                                 : S_HDMV/PGS
  91. Codec ID/Info                            : Picture based subtitle format used on BDs/HD-DVDs
  92. Duration                                 : 1 h 32 min
  93. Bit rate                                 : 40.0 kb/s
  94. Count of elements                        : 2436
  95. Stream size                              : 26.4 MiB (0%)
  96. Language                                 : French
  97. Default                                  : No
  98. Forced                                   : No

  99. Text #3
  100. ID                                       : 5
  101. Format                                   : PGS
  102. Muxing mode                              : zlib
  103. Codec ID                                 : S_HDMV/PGS
  104. Codec ID/Info                            : Picture based subtitle format used on BDs/HD-DVDs
  105. Duration                                 : 1 h 32 min
  106. Bit rate                                 : 37.9 kb/s
  107. Count of elements                        : 2436
  108. Stream size                              : 25.0 MiB (0%)
  109. Language                                 : Spanish
  110. Default                                  : No
  111. Forced                                   : No

  112. Menu
  113. 00:00:00.000                             : en:Chapter 01
  114. 00:04:29.143                             : en:Chapter 02
  115. 00:07:52.638                             : en:Chapter 03
  116. 00:09:52.633                             : en:Chapter 04
  117. 00:15:19.293                             : en:Chapter 05
  118. 00:17:19.830                             : en:Chapter 06
  119. 00:18:56.426                             : en:Chapter 07
  120. 00:20:05.120                             : en:Chapter 08
  121. 00:26:08.316                             : en:Chapter 09
  122. 00:27:49.501                             : en:Chapter 10
  123. 00:31:29.804                             : en:Chapter 11
  124. 00:32:43.670                             : en:Chapter 12
  125. 00:35:57.655                             : en:Chapter 13
  126. 00:39:42.880                             : en:Chapter 14
  127. 00:41:27.276                             : en:Chapter 15
  128. 00:45:08.914                             : en:Chapter 16
  129. 00:45:49.997                             : en:Chapter 17
  130. 00:47:17.334                             : en:Chapter 18
  131. 00:49:13.992                             : en:Chapter 19
  132. 00:52:51.293                             : en:Chapter 20
  133. 00:56:36.643                             : en:Chapter 21
  134. 00:58:49.526                             : en:Chapter 22
  135. 01:02:24.615                             : en:Chapter 23
  136. 01:04:27.613                             : en:Chapter 24
  137. 01:05:30.718                             : en:Chapter 25
  138. 01:06:47.378                             : en:Chapter 26
  139. 01:10:02.281                             : en:Chapter 27
  140. 01:10:49.745                             : en:Chapter 28
  141. 01:15:15.802                             : en:Chapter 29
  142. 01:17:29.978                             : en:Chapter 30
  143. 01:20:00.754                             : en:Chapter 31
  144. 01:21:13.577                             : en:Chapter 32
  145. 01:23:05.772                             : en:Chapter 33
  146. 01:24:16.593                             : en:Chapter 34
  147. 01:28:31.014                             : en:Chapter 35
  148. 01:29:56.599                             : en:Chapter 36
复制代码

虫虫危机/虫虫特工队 A.Bugs.Life.1998.2160p.UHD.BluRay.X265.10bit.HDR.TrueHD.7.1.Atmos-AViATOR 14.40GB-2.png 虫虫危机/虫虫特工队 A.Bugs.Life.1998.2160p.UHD.BluRay.X265.10bit.HDR.TrueHD.7.1.Atmos-AViATOR 14.40GB-3.png 虫虫危机/虫虫特工队 A.Bugs.Life.1998.2160p.UHD.BluRay.X265.10bit.HDR.TrueHD.7.1.Atmos-AViATOR 14.40GB-4.png






回复

使用道具 举报

发表于 2020-3-6 17:40:52 | 显示全部楼层

这个帖子不回对不起自己!我想我是一天也不能离开蓝光电影网
回复 支持 反对

使用道具 举报

发表于 2020-3-7 11:00:57 | 显示全部楼层
楼主发贴辛苦了,谢谢楼主分享!我觉得蓝光电影网是注册对了!
回复 支持 反对

使用道具 举报

发表于 2020-3-11 22:40:10 | 显示全部楼层

楼主太厉害了!楼主,电影应该很好看我觉得蓝光电影网真是个好地方!
回复 支持 反对

使用道具 举报

懒得打字嘛,点击右侧快捷回复 【右侧内容,后台自定义】
您需要登录后才可以回帖 登录 | 立即加入

本版积分规则

现在加入蓝光电影网,注册一个账号
上个主题 下个主题 快速回复 收藏帖子 返回列表 客服中心 搜索

手机版|小黑屋| 蓝光电影网 |网站地图 

Copyright © 2015-2019 Comsenz Inc.  Template by 蓝光电影论坛 All Rights Reserved.

Powered by 蓝光电影网 X3.4

特别声明:本站所有资源均由网上收集而来,版权归原影音公司所有,如果侵犯了你的权益,请通知我们,我们会及时删除侵权内容.

快速回复 返回顶部 返回列表