找回密码

蓝光电影网

查看: 189|回复: 3

[REMUX.HEVC] 虫虫危机/虫虫特工队 A.Bugs.Life.1998.2160p.BluRay.REMUX.HEVC.DTS-HD.MA.TrueHD.7.1.Atmos-FGT 50.21GB

[复制链接]

 成长值: 25285

发表于 2020-3-6 14:10:19 | 显示全部楼层 |阅读模式
虫虫危机/虫虫特工队 A.Bugs.Life.1998.2160p.BluRay.REMUX.HEVC.DTS-HD.MA.TrueHD.7.1.Atmos-FGT 50.21GB-1.png

译  名 虫虫危机 / 虫虫特工队
片  名 A Bug's Life
年  代 1998
产  地 美国
类  别 喜剧 / 动画 / 冒险
语  言 英语
上映日期 1998-11-25(美国)
IMDb评分  7.2/10 from 254815 users
IMDb链接  https://www.imdb.com/title/tt0120623
豆瓣评分 7.9/10 from 73997 users
豆瓣链接 https://movie.douban.com/subject/1291573/
片  长 95 分钟
导  演 约翰·拉塞特 John Lasseter / 安德鲁·斯坦顿 Andrew Stanton
编  剧 安德鲁·斯坦顿 Andrew Stanton / Don McEnery / Bob Shaw
主  演 Dave Foley
       凯文·史派西 Kevin Spacey
       茱莉亚·路易斯-德瑞弗斯 Julia Louis-Dreyfus
       海顿·潘妮蒂尔 Hayden Panettiere


标  签 动画 | 美国 | 迪斯尼 | pixar | 动画片 | DISNEY | 美国电影 | 1998

简  介  

  菲力在蚂蚁王国里并不怎么受欢迎,尽管他发明了先进的收割机,然而阴差阳错,他竟然惹了大祸,公主妹妹小不点因此被蝗虫敌人捉去,而且蚂蚁的粮食也受到了蝗虫的威胁。即使菲力救出了小不点,但还是被赶出蚂蚁王国。只有他在外面的世界找到了对付蝗虫的办法,才有可能回到家园。
  菲力在城市中遇到了马戏团的一队昆虫。爬虫、蝴蝶、瓢虫、臭虫,他们都似乎身怀绝技,令菲力十分兴奋,于是菲力把他们请回蚂蚁王国对付蝗虫。一场恶战即将开始,昆虫们愈战愈勇,和菲力一同投入到斗争中。智勇双全的菲力也终于回到了蚂蚁王国中,受到大伙儿的赞赏。

获奖情况  

  第71届奥斯卡金像奖(1999)
  音乐/喜剧片最佳原创配乐(提名) 兰迪·纽曼

  第53届英国电影学院奖(2000)
  电影奖 最佳特殊视觉效果(提名) Eben Ostby / Bill Reeves / Rick Sayre / Sharon Calahan

  第27届动画安妮奖(1999)
  最佳动画长片(提名)
  最佳导演(提名) 安德鲁·斯坦顿 / 约翰·拉塞特
  最佳编剧(提名) 唐·麦肯内里 / 安德鲁·斯坦顿 / Bob Shaw / 约翰·拉塞特 / 乔·兰福特
  最佳艺术指导(提名) William Cone
  1. Video
  2. ID                                       : 1
  3. Format                                   : HEVC
  4. Format/Info                              : High Efficiency Video Coding
  5. Format profile                           : Main High@L4@High
  6. HDR format                               : SMPTE ST 2086, HDR10 compatible
  7. Codec ID                                 : V_MPEGH/ISO/HEVC
  8. Duration                                 : 1 h 34 min
  9. Bit rate                                 : 59.7 Mb/s
  10. Width                                    : 3 840 pixels
  11. Height                                   : 2 160 pixels
  12. Display aspect ratio                     : 16:9
  13. Frame rate mode                          : Constant
  14. Frame rate                               : 23.976 (24000/1001/189150) FPS
  15. Color space                              : YUV
  16. Chroma subsampling                       : 4:2:0 (Type 2)
  17. Bit depth                                : 10 bits
  18. Bits/(Pixel*Frame)                       : 0.300
  19. Stream size                              : 39.6 GiB (79%)
  20. Title                                    : A.Bugs.Life.1998.2160p.BluRay.REMUX.HEVC.DTS-HD.MA.TrueHD.7.1.Atmos-FGT
  21. Writing library                          : ATEME Titan File 3.9.0 (4.9.0.0)        
  22. Language                                 : English
  23. Default                                  : No
  24. Forced                                   : No
  25. Color range                              : Limited
  26. Color primaries                          : BT.2020
  27. Transfer characteristics                 : PQ
  28. Matrix coefficients                      : BT.2020 non-constant
  29. Mastering display color primaries        : Display P3
  30. Mastering display luminance              : min: 0.0000 cd/m2, max: 1000 cd/m2

  31. Audio #1
  32. ID                                       : 2
  33. Format                                   : MLP FBA 16-ch
  34. Format/Info                              : Meridian Lossless Packing FBA with 16-channel presentation
  35. Commercial name                          : Dolby TrueHD with Dolby Atmos
  36. Codec ID                                 : A_TRUEHD
  37. Duration                                 : 1 h 34 min
  38. Bit rate mode                            : Variable
  39. Bit rate                                 : 8 178 kb/s
  40. Maximum bit rate                         : 8 088 kb/s
  41. Channel(s)                               : 8 channels
  42. Channel layout                           : L R C LFE Ls Rs Lb Rb
  43. Sampling rate                            : 48.0 kHz
  44. Frame rate                               : 1 200.000 FPS (40 SPF)
  45. Compression mode                         : Lossless
  46. Stream size                              : 5.42 GiB (11%)
  47. Title                                    : A.Bugs.Life.1998.2160p.BluRay.REMUX.HEVC.DTS-HD.MA.TrueHD.7.1.Atmos-FGT
  48. Language                                 : English
  49. Default                                  : Yes
  50. Forced                                   : No
  51. Number of dynamic objects                : 13
  52. Bed channel count                        : 1 channel
  53. Bed channel configuration                : LFE

  54. Audio #2
  55. ID                                       : 3
  56. Format                                   : DTS XLL
  57. Format/Info                              : Digital Theater Systems
  58. Commercial name                          : DTS-HD Master Audio
  59. Codec ID                                 : A_DTS
  60. Duration                                 : 1 h 34 min
  61. Bit rate mode                            : Variable
  62. Bit rate                                 : 4 546 kb/s
  63. Channel(s)                               : 8 channels
  64. Channel layout                           : C L R LFE Lb Rb Lss Rss
  65. Sampling rate                            : 48.0 kHz
  66. Frame rate                               : 93.750 FPS (512 SPF)
  67. Bit depth                                : 24 bits
  68. Compression mode                         : Lossless
  69. Stream size                              : 3.01 GiB (6%)
  70. Title                                    : A.Bugs.Life.1998.2160p.BluRay.REMUX.HEVC.DTS-HD.MA.TrueHD.7.1.Atmos-FGT
  71. Language                                 : English
  72. Default                                  : No
  73. Forced                                   : No

  74. Audio #3
  75. ID                                       : 4
  76. Format                                   : AC-3
  77. Format/Info                              : Audio Coding 3
  78. Commercial name                          : Dolby Digital
  79. Codec ID                                 : A_AC3
  80. Duration                                 : 1 h 34 min
  81. Bit rate mode                            : Constant
  82. Bit rate                                 : 640 kb/s
  83. Channel(s)                               : 6 channels
  84. Channel layout                           : L R C LFE Ls Rs
  85. Sampling rate                            : 48.0 kHz
  86. Frame rate                               : 31.250 FPS (1536 SPF)
  87. Bit depth                                : 16 bits
  88. Compression mode                         : Lossy
  89. Stream size                              : 434 MiB (1%)
  90. Title                                    : A.Bugs.Life.1998.2160p.BluRay.REMUX.HEVC.DTS-HD.MA.TrueHD.7.1.Atmos-FGT
  91. Language                                 : English
  92. Service kind                             : Complete Main
  93. Default                                  : No
  94. Forced                                   : No

  95. Audio #4
  96. ID                                       : 5
  97. Format                                   : AC-3
  98. Format/Info                              : Audio Coding 3
  99. Commercial name                          : Dolby Digital
  100. Codec ID                                 : A_AC3
  101. Duration                                 : 1 h 34 min
  102. Bit rate mode                            : Constant
  103. Bit rate                                 : 640 kb/s
  104. Channel(s)                               : 6 channels
  105. Channel layout                           : L R C LFE Ls Rs
  106. Sampling rate                            : 48.0 kHz
  107. Frame rate                               : 31.250 FPS (1536 SPF)
  108. Bit depth                                : 16 bits
  109. Compression mode                         : Lossy
  110. Stream size                              : 434 MiB (1%)
  111. Title                                    : A.Bugs.Life.1998.2160p.BluRay.REMUX.HEVC.DTS-HD.MA.TrueHD.7.1.Atmos-FGT
  112. Language                                 : English
  113. Service kind                             : Complete Main
  114. Default                                  : No
  115. Forced                                   : No

  116. Audio #5
  117. ID                                       : 6
  118. Format                                   : AC-3
  119. Format/Info                              : Audio Coding 3
  120. Commercial name                          : Dolby Digital
  121. Codec ID                                 : A_AC3
  122. Duration                                 : 1 h 34 min
  123. Bit rate mode                            : Constant
  124. Bit rate                                 : 320 kb/s
  125. Channel(s)                               : 2 channels
  126. Channel layout                           : L R
  127. Sampling rate                            : 48.0 kHz
  128. Frame rate                               : 31.250 FPS (1536 SPF)
  129. Bit depth                                : 16 bits
  130. Compression mode                         : Lossy
  131. Stream size                              : 217 MiB (0%)
  132. Title                                    : A.Bugs.Life.1998.2160p.BluRay.REMUX.HEVC.DTS-HD.MA.TrueHD.7.1.Atmos-FGT
  133. Language                                 : English
  134. Service kind                             : Complete Main
  135. Default                                  : No
  136. Forced                                   : No

  137. Audio #6
  138. ID                                       : 7
  139. Format                                   : AC-3
  140. Format/Info                              : Audio Coding 3
  141. Commercial name                          : Dolby Digital
  142. Codec ID                                 : A_AC3
  143. Duration                                 : 1 h 34 min
  144. Bit rate mode                            : Constant
  145. Bit rate                                 : 320 kb/s
  146. Channel(s)                               : 2 channels
  147. Channel layout                           : L R
  148. Sampling rate                            : 48.0 kHz
  149. Frame rate                               : 31.250 FPS (1536 SPF)
  150. Bit depth                                : 16 bits
  151. Compression mode                         : Lossy
  152. Stream size                              : 217 MiB (0%)
  153. Title                                    : A.Bugs.Life.1998.2160p.BluRay.REMUX.HEVC.DTS-HD.MA.TrueHD.7.1.Atmos-FGT
  154. Language                                 : English
  155. Service kind                             : Complete Main
  156. Default                                  : No
  157. Forced                                   : No

  158. Audio #7
  159. ID                                       : 8
  160. Format                                   : AC-3
  161. Format/Info                              : Audio Coding 3
  162. Commercial name                          : Dolby Digital
  163. Codec ID                                 : A_AC3
  164. Duration                                 : 1 h 34 min
  165. Bit rate mode                            : Constant
  166. Bit rate                                 : 640 kb/s
  167. Channel(s)                               : 6 channels
  168. Channel layout                           : L R C LFE Ls Rs
  169. Sampling rate                            : 48.0 kHz
  170. Frame rate                               : 31.250 FPS (1536 SPF)
  171. Bit depth                                : 16 bits
  172. Compression mode                         : Lossy
  173. Delay relative to video                  : 667 ms
  174. Stream size                              : 434 MiB (1%)
  175. Title                                    : A.Bugs.Life.1998.2160p.BluRay.REMUX.HEVC.DTS-HD.MA.TrueHD.7.1.Atmos-FGT
  176. Language                                 : French
  177. Service kind                             : Complete Main
  178. Default                                  : No
  179. Forced                                   : No

  180. Audio #8
  181. ID                                       : 9
  182. Format                                   : AC-3
  183. Format/Info                              : Audio Coding 3
  184. Commercial name                          : Dolby Digital
  185. Codec ID                                 : A_AC3
  186. Duration                                 : 1 h 34 min
  187. Bit rate mode                            : Constant
  188. Bit rate                                 : 640 kb/s
  189. Channel(s)                               : 6 channels
  190. Channel layout                           : L R C LFE Ls Rs
  191. Sampling rate                            : 48.0 kHz
  192. Frame rate                               : 31.250 FPS (1536 SPF)
  193. Bit depth                                : 16 bits
  194. Compression mode                         : Lossy
  195. Delay relative to video                  : 667 ms
  196. Stream size                              : 434 MiB (1%)
  197. Title                                    : A.Bugs.Life.1998.2160p.BluRay.REMUX.HEVC.DTS-HD.MA.TrueHD.7.1.Atmos-FGT
  198. Language                                 : Spanish
  199. Service kind                             : Complete Main
  200. Default                                  : No
  201. Forced                                   : No

  202. Text #1
  203. ID                                       : 10
  204. Format                                   : UTF-8
  205. Codec ID                                 : S_TEXT/UTF8
  206. Codec ID/Info                            : UTF-8 Plain Text
  207. Duration                                 : 1 h 32 min
  208. Bit rate                                 : 69 b/s
  209. Count of elements                        : 1282
  210. Stream size                              : 47.4 KiB (0%)
  211. Title                                    : English-SRT
  212. Language                                 : English
  213. Default                                  : Yes
  214. Forced                                   : No

  215. Text #2
  216. ID                                       : 11
  217. Format                                   : PGS
  218. Muxing mode                              : zlib
  219. Codec ID                                 : S_HDMV/PGS
  220. Codec ID/Info                            : Picture based subtitle format used on BDs/HD-DVDs
  221. Duration                                 : 1 h 34 min
  222. Bit rate                                 : 46.4 kb/s
  223. Count of elements                        : 2998
  224. Stream size                              : 31.5 MiB (0%)
  225. Language                                 : English
  226. Default                                  : No
  227. Forced                                   : No

  228. Text #3
  229. ID                                       : 12
  230. Format                                   : PGS
  231. Muxing mode                              : zlib
  232. Codec ID                                 : S_HDMV/PGS
  233. Codec ID/Info                            : Picture based subtitle format used on BDs/HD-DVDs
  234. Duration                                 : 1 h 32 min
  235. Bit rate                                 : 40.0 kb/s
  236. Count of elements                        : 2436
  237. Stream size                              : 26.4 MiB (0%)
  238. Language                                 : French
  239. Default                                  : No
  240. Forced                                   : No

  241. Text #4
  242. ID                                       : 13
  243. Format                                   : PGS
  244. Muxing mode                              : zlib
  245. Codec ID                                 : S_HDMV/PGS
  246. Codec ID/Info                            : Picture based subtitle format used on BDs/HD-DVDs
  247. Duration                                 : 1 h 32 min
  248. Bit rate                                 : 37.9 kb/s
  249. Count of elements                        : 2436
  250. Stream size                              : 25.0 MiB (0%)
  251. Language                                 : Spanish
  252. Default                                  : No
  253. Forced                                   : No

  254. Menu
  255. 00:00:00.000                             : en:Chapter 01
  256. 00:04:29.143                             : en:Chapter 02
  257. 00:07:52.638                             : en:Chapter 03
  258. 00:09:52.633                             : en:Chapter 04
  259. 00:15:19.293                             : en:Chapter 05
  260. 00:17:19.830                             : en:Chapter 06
  261. 00:18:56.426                             : en:Chapter 07
  262. 00:20:05.120                             : en:Chapter 08
  263. 00:26:08.316                             : en:Chapter 09
  264. 00:27:49.501                             : en:Chapter 10
  265. 00:31:29.804                             : en:Chapter 11
  266. 00:32:43.670                             : en:Chapter 12
  267. 00:35:57.655                             : en:Chapter 13
  268. 00:39:42.880                             : en:Chapter 14
  269. 00:41:27.276                             : en:Chapter 15
  270. 00:45:08.914                             : en:Chapter 16
  271. 00:45:49.997                             : en:Chapter 17
  272. 00:47:17.334                             : en:Chapter 18
  273. 00:49:13.992                             : en:Chapter 19
  274. 00:52:51.293                             : en:Chapter 20
  275. 00:56:36.643                             : en:Chapter 21
  276. 00:58:49.526                             : en:Chapter 22
  277. 01:02:24.615                             : en:Chapter 23
  278. 01:04:27.613                             : en:Chapter 24
  279. 01:05:30.718                             : en:Chapter 25
  280. 01:06:47.378                             : en:Chapter 26
  281. 01:10:02.281                             : en:Chapter 27
  282. 01:10:49.745                             : en:Chapter 28
  283. 01:15:15.802                             : en:Chapter 29
  284. 01:17:29.978                             : en:Chapter 30
  285. 01:20:00.754                             : en:Chapter 31
  286. 01:21:13.577                             : en:Chapter 32
  287. 01:23:05.772                             : en:Chapter 33
  288. 01:24:16.593                             : en:Chapter 34
  289. 01:28:31.014                             : en:Chapter 35
  290. 01:29:56.599                             : en:Chapter 36
复制代码

虫虫危机/虫虫特工队 A.Bugs.Life.1998.2160p.BluRay.REMUX.HEVC.DTS-HD.MA.TrueHD.7.1.Atmos-FGT 50.21GB-2.png 虫虫危机/虫虫特工队 A.Bugs.Life.1998.2160p.BluRay.REMUX.HEVC.DTS-HD.MA.TrueHD.7.1.Atmos-FGT 50.21GB-3.png 虫虫危机/虫虫特工队 A.Bugs.Life.1998.2160p.BluRay.REMUX.HEVC.DTS-HD.MA.TrueHD.7.1.Atmos-FGT 50.21GB-4.png






回复

使用道具 举报

发表于 2020-3-6 14:34:55 | 显示全部楼层

这个帖子不回对不起自己!我想我是一天也不能离开蓝光电影网
回复 支持 反对

使用道具 举报

 成长值: 2390

发表于 2020-3-7 09:07:23 | 显示全部楼层
谢谢楼主无私分享。
回复 支持 反对

使用道具 举报

发表于 2020-3-12 13:19:09 | 显示全部楼层
这个帖子不回对不起自己!我想我是一天也不能离开蓝光电影网。
回复 支持 反对

使用道具 举报

懒得打字嘛,点击右侧快捷回复 【右侧内容,后台自定义】
您需要登录后才可以回帖 登录 | 立即加入

本版积分规则

现在加入蓝光电影网,注册一个账号
上个主题 下个主题 快速回复 收藏帖子 返回列表 客服中心 搜索

手机版|小黑屋| 蓝光电影网 |网站地图 

Copyright © 2015-2019 Comsenz Inc.  Template by 蓝光电影论坛 All Rights Reserved.

Powered by 蓝光电影网 X3.4

特别声明:本站所有资源均由网上收集而来,版权归原影音公司所有,如果侵犯了你的权益,请通知我们,我们会及时删除侵权内容.

快速回复 返回顶部 返回列表