找回密码

蓝光电影网

查看: 144|回复: 2

[REMUX.HEVC] 怪兽电力公司/怪兽公司 Monsters.Inc.2001.2160p.BluRay.REMUX.HEVC.TrueHD.7.1.Atmos-FGT 39.55GB

[复制链接]

 成长值: 25285

发表于 2020-3-6 14:09:38 | 显示全部楼层 |阅读模式
怪兽电力公司/怪兽公司 Monsters.Inc.2001.2160p.BluRay.REMUX.HEVC.TrueHD.7.1.Atmos-FGT 39.55GB-1.png

译  名 怪兽电力公司 / 怪兽公司(港) / 怪物公司
片  名 Monsters, Inc.
年  代 2001
产  地 美国
类  别 喜剧 / 动画 / 儿童 / 奇幻 / 冒险
语  言 英语
上映日期 2001-11-02(美国) / 2012-12-19(美国)
IMDb评分  8.0/10 from 772879 users
IMDb链接  https://www.imdb.com/title/tt0198781
豆瓣评分 8.7/10 from 429148 users
豆瓣链接 https://movie.douban.com/subject/1291579/
片  长 92 分钟
导  演 彼特·道格特 Pete Docter / 大卫·斯沃曼 David Silverman / 李·昂克里奇 Lee Unkrich
编  剧 安德鲁·斯坦顿 Andrew Stanton / Daniel Gerson / Robert L. Baird / 略特·里斯 Rhett Reese / Jonathan Roberts / 彼特·道格特 Pete Docter / 杰夫·皮金  Jeff Pidgeon / 吉尔·卡尔顿 Jill Culton / 拉夫·埃格尔斯顿 Ralph Eggleston
主  演 约翰·古德曼 John Goodman
       比利·克里斯托 Billy Crystal
       玛丽·吉布斯 Mary Gibbs
       史蒂夫·布西密 Steve Buscemi
       詹姆斯·柯本 James Coburn
       詹妮弗·提莉 Jennifer Tilly
       鲍勃·彼德森 Bob Peterson
       约翰·拉岑贝格 John Ratzenberger
       弗兰克·奥兹 Frank Oz
       丹尼尔·吉尔森 Daniel Gerson
       邦尼·亨特 Bonnie Hunt
       杰克·安琪 Jack Angel
       Samuel Lord Black
       Steve Susskind


标  签 动画 | 迪斯尼 | 美国 | 喜剧 | pixar | 动画片 | 温情 | 美国电影

简  介  

  我们不知道,在那样的世界里住着那样一群怪物。他们长相滑稽,却必须装作狰狞。因为,在夜深的时候,他们要悄悄的出现在孩子的衣橱里,吓唬刚刚甜美睡去的宝宝。一切,只因为他们是怪物电力公司的员工,而孩子的尖叫,则是怪物王国发电的全部能量。怪物们害怕孩子,却又必须让孩子尖叫。在怪物的国度里,他们都是为全民造福的英雄。
  毛怪苏利文(约翰?古德曼)是怪物公司最出色的员工,业绩总是摇摇领先,他吓哭的小孩儿不计其数。他与搭档大眼怪麦克(比利?克里斯托)很受大家的爱戴。一次偶然,毛怪不小心把一个两岁的小女孩阿布(玛丽?吉布斯)带回了怪物世界,引起了极大的恐慌,调皮可爱的阿布把这些可怕的怪物吓的人仰马翻。警方在追捕阿布,而坏蛋亨利(詹姆斯?柯博)也计划利用阿布进行他改革工厂的邪恶计划。
  另一方面,在与阿布相处的过程中,毛怪渐渐对她产生莫名的情愫,甚至因此被放逐野外。可是一切都不能抵挡毛怪拯救女孩的信念,为了阿布,毛怪踏上了艰险的旅程……

获奖情况  

  第74届奥斯卡金像奖(2002)
  最佳动画长片(提名) 约翰·拉塞特 / 彼特·道格特
  最佳音效剪辑 嘉里·瑞德斯托姆 / 迈克尔·席维斯
  最佳原创配乐(提名) 兰迪·纽曼
  最佳原创歌曲 兰迪·纽曼

  第30届动画安妮奖(2003)
  最佳动画长片(提名)
  最佳导演(提名) 彼特·道格特 / 大卫·斯沃曼 / 李·昂克里奇
  最佳编剧(提名) 丹尼尔·吉尔森 / 安德鲁·斯坦顿
  最佳配乐(提名) 兰迪·纽曼
  最佳艺术指导(提名) 哈雷·杰斯普
  最佳动画角色(提名) Ricky Nierva
  最佳角色设计(提名) Ricky Nierva

  第27届报知映画赏(2002)
  海外作品奖 彼特·道格特
  1. Video
  2. ID                                       : 1
  3. Format                                   : HEVC
  4. Format/Info                              : High Efficiency Video Coding
  5. Format profile                           : Main High@L4@High
  6. HDR format                               : SMPTE ST 2086, HDR10 compatible
  7. Codec ID                                 : V_MPEGH/ISO/HEVC
  8. Duration                                 : 1 h 32 min
  9. Bit rate                                 : 48.9 Mb/s
  10. Width                                    : 3 840 pixels
  11. Height                                   : 2 160 pixels
  12. Display aspect ratio                     : 16:9
  13. Frame rate mode                          : Constant
  14. Frame rate                               : 23.976 (24000/1001/189150) FPS
  15. Color space                              : YUV
  16. Chroma subsampling                       : 4:2:0 (Type 2)
  17. Bit depth                                : 10 bits
  18. Bits/(Pixel*Frame)                       : 0.246
  19. Stream size                              : 31.5 GiB (80%)
  20. Title                                    : Monsters.Inc.2001.2160p.BluRay.REMUX.HEVC.TrueHD.7.1.Atmos-FGT
  21. Writing library                          : ATEME Titan File 3.9.0 (4.9.0.0)        
  22. Language                                 : English
  23. Default                                  : No
  24. Forced                                   : No
  25. Color range                              : Limited
  26. Color primaries                          : BT.2020
  27. Transfer characteristics                 : PQ
  28. Matrix coefficients                      : BT.2020 non-constant
  29. Mastering display color primaries        : Display P3
  30. Mastering display luminance              : min: 0.0000 cd/m2, max: 1000 cd/m2

  31. Audio #1
  32. ID                                       : 2
  33. Format                                   : MLP FBA 16-ch
  34. Format/Info                              : Meridian Lossless Packing FBA with 16-channel presentation
  35. Commercial name                          : Dolby TrueHD with Dolby Atmos
  36. Codec ID                                 : A_TRUEHD
  37. Duration                                 : 1 h 32 min
  38. Bit rate mode                            : Variable
  39. Bit rate                                 : 6 905 kb/s
  40. Maximum bit rate                         : 8 211 kb/s
  41. Channel(s)                               : 8 channels
  42. Channel layout                           : L R C LFE Ls Rs Lb Rb
  43. Sampling rate                            : 48.0 kHz
  44. Frame rate                               : 1 200.000 FPS (40 SPF)
  45. Compression mode                         : Lossless
  46. Stream size                              : 4.45 GiB (11%)
  47. Title                                    : Monsters.Inc.2001.2160p.BluRay.REMUX.HEVC.TrueHD.7.1.Atmos-FGT
  48. Language                                 : English
  49. Default                                  : Yes
  50. Forced                                   : No
  51. Number of dynamic objects                : 13
  52. Bed channel count                        : 1 channel
  53. Bed channel configuration                : LFE

  54. Audio #2
  55. ID                                       : 3
  56. Format                                   : AC-3
  57. Format/Info                              : Audio Coding 3
  58. Commercial name                          : Dolby Digital
  59. Codec ID                                 : A_AC3
  60. Duration                                 : 1 h 32 min
  61. Bit rate mode                            : Constant
  62. Bit rate                                 : 640 kb/s
  63. Channel(s)                               : 6 channels
  64. Channel layout                           : L R C LFE Ls Rs
  65. Sampling rate                            : 48.0 kHz
  66. Frame rate                               : 31.250 FPS (1536 SPF)
  67. Bit depth                                : 16 bits
  68. Compression mode                         : Lossy
  69. Stream size                              : 422 MiB (1%)
  70. Title                                    : Monsters.Inc.2001.2160p.BluRay.REMUX.HEVC.TrueHD.7.1.Atmos-FGT
  71. Language                                 : English
  72. Service kind                             : Complete Main
  73. Default                                  : No
  74. Forced                                   : No

  75. Audio #3
  76. ID                                       : 4
  77. Format                                   : E-AC-3
  78. Format/Info                              : Enhanced AC-3
  79. Commercial name                          : Dolby Digital Plus
  80. Format profile                           : Blu-ray Disc
  81. Codec ID                                 : A_EAC3
  82. Duration                                 : 1 h 32 min
  83. Bit rate mode                            : Constant
  84. Bit rate                                 : 1 024 kb/s
  85. Channel(s)                               : 8 channels
  86. Channel layout                           : L R C LFE Ls Rs Lb Rb
  87. Sampling rate                            : 48.0 kHz
  88. Frame rate                               : 31.250 FPS (1536 SPF)
  89. Compression mode                         : Lossy
  90. Stream size                              : 675 MiB (2%)
  91. Title                                    : Monsters.Inc.2001.2160p.BluRay.REMUX.HEVC.TrueHD.7.1.Atmos-FGT
  92. Language                                 : English
  93. Service kind                             : Complete Main
  94. Default                                  : No
  95. Forced                                   : No

  96. Audio #4
  97. ID                                       : 5
  98. Format                                   : AC-3
  99. Format/Info                              : Audio Coding 3
  100. Commercial name                          : Dolby Digital
  101. Codec ID                                 : A_AC3
  102. Duration                                 : 1 h 32 min
  103. Bit rate mode                            : Constant
  104. Bit rate                                 : 576 kb/s
  105. Channel(s)                               : 6 channels
  106. Channel layout                           : L R C LFE Ls Rs
  107. Sampling rate                            : 48.0 kHz
  108. Frame rate                               : 31.250 FPS (1536 SPF)
  109. Bit depth                                : 16 bits
  110. Compression mode                         : Lossy
  111. Stream size                              : 380 MiB (1%)
  112. Title                                    : Monsters.Inc.2001.2160p.BluRay.REMUX.HEVC.TrueHD.7.1.Atmos-FGT
  113. Language                                 : English
  114. Service kind                             : Complete Main
  115. Default                                  : No
  116. Forced                                   : No

  117. Audio #5
  118. ID                                       : 6
  119. Format                                   : AC-3
  120. Format/Info                              : Audio Coding 3
  121. Commercial name                          : Dolby Digital
  122. Codec ID                                 : A_AC3
  123. Duration                                 : 1 h 32 min
  124. Bit rate mode                            : Constant
  125. Bit rate                                 : 640 kb/s
  126. Channel(s)                               : 6 channels
  127. Channel layout                           : L R C LFE Ls Rs
  128. Sampling rate                            : 48.0 kHz
  129. Frame rate                               : 31.250 FPS (1536 SPF)
  130. Bit depth                                : 16 bits
  131. Compression mode                         : Lossy
  132. Stream size                              : 422 MiB (1%)
  133. Title                                    : Monsters.Inc.2001.2160p.BluRay.REMUX.HEVC.TrueHD.7.1.Atmos-FGT
  134. Language                                 : English
  135. Service kind                             : Complete Main
  136. Default                                  : No
  137. Forced                                   : No

  138. Audio #6
  139. ID                                       : 7
  140. Format                                   : AC-3
  141. Format/Info                              : Audio Coding 3
  142. Commercial name                          : Dolby Digital
  143. Codec ID                                 : A_AC3
  144. Duration                                 : 1 h 32 min
  145. Bit rate mode                            : Constant
  146. Bit rate                                 : 320 kb/s
  147. Channel(s)                               : 2 channels
  148. Channel layout                           : L R
  149. Sampling rate                            : 48.0 kHz
  150. Frame rate                               : 31.250 FPS (1536 SPF)
  151. Bit depth                                : 16 bits
  152. Compression mode                         : Lossy
  153. Stream size                              : 211 MiB (1%)
  154. Title                                    : Monsters.Inc.2001.2160p.BluRay.REMUX.HEVC.TrueHD.7.1.Atmos-FGT
  155. Language                                 : English
  156. Service kind                             : Complete Main
  157. Default                                  : No
  158. Forced                                   : No

  159. Audio #7
  160. ID                                       : 8
  161. Format                                   : AC-3
  162. Format/Info                              : Audio Coding 3
  163. Commercial name                          : Dolby Digital
  164. Codec ID                                 : A_AC3
  165. Duration                                 : 1 h 32 min
  166. Bit rate mode                            : Constant
  167. Bit rate                                 : 320 kb/s
  168. Channel(s)                               : 2 channels
  169. Channel layout                           : L R
  170. Sampling rate                            : 48.0 kHz
  171. Frame rate                               : 31.250 FPS (1536 SPF)
  172. Bit depth                                : 16 bits
  173. Compression mode                         : Lossy
  174. Stream size                              : 211 MiB (1%)
  175. Title                                    : Monsters.Inc.2001.2160p.BluRay.REMUX.HEVC.TrueHD.7.1.Atmos-FGT
  176. Language                                 : English
  177. Service kind                             : Complete Main
  178. Default                                  : No
  179. Forced                                   : No

  180. Audio #8
  181. ID                                       : 9
  182. Format                                   : E-AC-3
  183. Format/Info                              : Enhanced AC-3
  184. Commercial name                          : Dolby Digital Plus
  185. Format profile                           : Blu-ray Disc
  186. Codec ID                                 : A_EAC3
  187. Duration                                 : 1 h 32 min
  188. Bit rate mode                            : Constant
  189. Bit rate                                 : 896 kb/s
  190. Channel(s)                               : 8 channels
  191. Channel layout                           : L R C LFE Ls Rs Lb Rb
  192. Sampling rate                            : 48.0 kHz
  193. Frame rate                               : 31.250 FPS (1536 SPF)
  194. Compression mode                         : Lossy
  195. Stream size                              : 591 MiB (1%)
  196. Title                                    : Monsters.Inc.2001.2160p.BluRay.REMUX.HEVC.TrueHD.7.1.Atmos-FGT
  197. Language                                 : French
  198. Service kind                             : Complete Main
  199. Default                                  : No
  200. Forced                                   : No

  201. Audio #9
  202. ID                                       : 10
  203. Format                                   : AC-3
  204. Format/Info                              : Audio Coding 3
  205. Commercial name                          : Dolby Digital
  206. Codec ID                                 : A_AC3
  207. Duration                                 : 1 h 32 min
  208. Bit rate mode                            : Constant
  209. Bit rate                                 : 512 kb/s
  210. Channel(s)                               : 6 channels
  211. Channel layout                           : L R C LFE Ls Rs
  212. Sampling rate                            : 48.0 kHz
  213. Frame rate                               : 31.250 FPS (1536 SPF)
  214. Bit depth                                : 16 bits
  215. Compression mode                         : Lossy
  216. Stream size                              : 338 MiB (1%)
  217. Title                                    : Monsters.Inc.2001.2160p.BluRay.REMUX.HEVC.TrueHD.7.1.Atmos-FGT
  218. Language                                 : French
  219. Service kind                             : Complete Main
  220. Default                                  : No
  221. Forced                                   : No

  222. Audio #10
  223. ID                                       : 11
  224. Format                                   : AC-3
  225. Format/Info                              : Audio Coding 3
  226. Commercial name                          : Dolby Digital
  227. Codec ID                                 : A_AC3
  228. Duration                                 : 1 h 32 min
  229. Bit rate mode                            : Constant
  230. Bit rate                                 : 640 kb/s
  231. Channel(s)                               : 6 channels
  232. Channel layout                           : L R C LFE Ls Rs
  233. Sampling rate                            : 48.0 kHz
  234. Frame rate                               : 31.250 FPS (1536 SPF)
  235. Bit depth                                : 16 bits
  236. Compression mode                         : Lossy
  237. Stream size                              : 422 MiB (1%)
  238. Title                                    : Monsters.Inc.2001.2160p.BluRay.REMUX.HEVC.TrueHD.7.1.Atmos-FGT
  239. Language                                 : Spanish
  240. Service kind                             : Complete Main
  241. Default                                  : No
  242. Forced                                   : No

  243. Text #1
  244. ID                                       : 12
  245. Format                                   : UTF-8
  246. Codec ID                                 : S_TEXT/UTF8
  247. Codec ID/Info                            : UTF-8 Plain Text
  248. Duration                                 : 1 h 23 min
  249. Bit rate                                 : 62 b/s
  250. Count of elements                        : 1110
  251. Stream size                              : 38.4 KiB (0%)
  252. Title                                    : English-SRT
  253. Language                                 : English
  254. Default                                  : Yes
  255. Forced                                   : No

  256. Text #2
  257. ID                                       : 13
  258. Format                                   : PGS
  259. Muxing mode                              : zlib
  260. Codec ID                                 : S_HDMV/PGS
  261. Codec ID/Info                            : Picture based subtitle format used on BDs/HD-DVDs
  262. Duration                                 : 1 h 28 min
  263. Bit rate                                 : 41.6 kb/s
  264. Count of elements                        : 2650
  265. Stream size                              : 26.2 MiB (0%)
  266. Title                                    : English-PGS
  267. Language                                 : English
  268. Default                                  : No
  269. Forced                                   : No

  270. Text #3
  271. ID                                       : 14
  272. Format                                   : PGS
  273. Muxing mode                              : zlib
  274. Codec ID                                 : S_HDMV/PGS
  275. Codec ID/Info                            : Picture based subtitle format used on BDs/HD-DVDs
  276. Duration                                 : 1 h 28 min
  277. Bit rate                                 : 35.9 kb/s
  278. Count of elements                        : 2182
  279. Stream size                              : 22.7 MiB (0%)
  280. Title                                    : French-PGS
  281. Language                                 : French
  282. Default                                  : No
  283. Forced                                   : No

  284. Text #4
  285. ID                                       : 15
  286. Format                                   : PGS
  287. Muxing mode                              : zlib
  288. Codec ID                                 : S_HDMV/PGS
  289. Codec ID/Info                            : Picture based subtitle format used on BDs/HD-DVDs
  290. Duration                                 : 1 h 28 min
  291. Bit rate                                 : 34.5 kb/s
  292. Count of elements                        : 2182
  293. Stream size                              : 21.8 MiB (0%)
  294. Title                                    : Spanish-PGS
  295. Language                                 : Spanish
  296. Default                                  : No
  297. Forced                                   : No

  298. Menu
  299. 00:00:00.000                             : en:Chapter 01
  300. 00:01:33.468                             : en:Chapter 02
  301. 00:03:08.271                             : en:Chapter 03
  302. 00:04:51.791                             : en:Chapter 04
  303. 00:07:17.603                             : en:Chapter 05
  304. 00:09:12.176                             : en:Chapter 06
  305. 00:10:44.268                             : en:Chapter 07
  306. 00:11:54.296                             : en:Chapter 08
  307. 00:17:26.420                             : en:Chapter 09
  308. 00:20:06.747                             : en:Chapter 10
  309. 00:22:04.281                             : en:Chapter 11
  310. 00:25:49.089                             : en:Chapter 12
  311. 00:28:35.630                             : en:Chapter 13
  312. 00:31:07.156                             : en:Chapter 14
  313. 00:34:50.379                             : en:Chapter 15
  314. 00:36:56.297                             : en:Chapter 16
  315. 00:38:50.953                             : en:Chapter 17
  316. 00:40:28.551                             : en:Chapter 18
  317. 00:43:34.903                             : en:Chapter 19
  318. 00:45:30.394                             : en:Chapter 20
  319. 00:48:08.093                             : en:Chapter 21
  320. 00:50:37.743                             : en:Chapter 22
  321. 00:54:41.945                             : en:Chapter 23
  322. 00:57:30.113                             : en:Chapter 24
  323. 01:03:42.401                             : en:Chapter 25
  324. 01:06:25.690                             : en:Chapter 26
  325. 01:07:27.043                             : en:Chapter 27
  326. 01:13:52.428                             : en:Chapter 28
  327. 01:17:50.248                             : en:Chapter 29
  328. 01:21:25.589                             : en:Chapter 30
  329. 01:24:08.543                             : en:Chapter 31
  330. 01:25:06.893                             : en:Chapter 32
复制代码

怪兽电力公司/怪兽公司 Monsters.Inc.2001.2160p.BluRay.REMUX.HEVC.TrueHD.7.1.Atmos-FGT 39.55GB-2.png 怪兽电力公司/怪兽公司 Monsters.Inc.2001.2160p.BluRay.REMUX.HEVC.TrueHD.7.1.Atmos-FGT 39.55GB-3.png 怪兽电力公司/怪兽公司 Monsters.Inc.2001.2160p.BluRay.REMUX.HEVC.TrueHD.7.1.Atmos-FGT 39.55GB-4.png






回复

使用道具 举报

发表于 2020-3-6 19:21:05 | 显示全部楼层

这个帖子不回对不起自己!我想我是一天也不能离开蓝光电影网
回复 支持 反对

使用道具 举报

发表于 2020-3-6 20:29:16 | 显示全部楼层
想象力丰富的电影
回复 支持 反对

使用道具 举报

懒得打字嘛,点击右侧快捷回复 【右侧内容,后台自定义】
您需要登录后才可以回帖 登录 | 立即加入

本版积分规则

现在加入蓝光电影网,注册一个账号
上个主题 下个主题 快速回复 收藏帖子 返回列表 客服中心 搜索

手机版|小黑屋| 蓝光电影网 |网站地图 

Copyright © 2015-2019 Comsenz Inc.  Template by 蓝光电影论坛 All Rights Reserved.

Powered by 蓝光电影网 X3.4

特别声明:本站所有资源均由网上收集而来,版权归原影音公司所有,如果侵犯了你的权益,请通知我们,我们会及时删除侵权内容.

快速回复 返回顶部 返回列表