找回密码

蓝光电影网

查看: 803|回复: 41

[8bit.SDR] 怪兽大学 Monsters.University.2013.2160p.BluRay.x264.8bit.SDR.TrueHD.7.1.Atmos-SWTYBLZ 19.63GB

[复制链接]

 成长值: 25360

发表于 2020-3-4 17:34:50 | 显示全部楼层 |阅读模式
怪兽大学 Monsters.University.2013.2160p.BluRay.x264.8bit.SDR.TrueHD.7.1.Atmos-SWTYBLZ 19.63GB-1.png

译  名 怪兽大学 / Monsters Inc. 2 / 怪兽公司2 / 怪兽电力公司2:怪兽大学 / 怪物公司2 / 怪物公司2:怪物大学
片  名 Monsters University
年  代 2013
产  地 美国
类  别 喜剧 / 动画 / 冒险
语  言 英语
上映日期 2013-06-21(美国) / 2013-08-23(中国大陆)
IMDb评分  7.3/10 from 304967 users
IMDb链接  https://www.imdb.com/title/tt1453405
豆瓣评分 8.2/10 from 269808 users
豆瓣链接 https://movie.douban.com/subject/3789848/
片  长 104分钟
导  演 丹·斯坎伦 Dan Scanlon
编  剧 罗伯特·L·贝尔德 Robert L. Baird / 丹尼尔·吉尔森 Daniel Gerson / 丹·斯坎伦 Dan Scanlon
主  演 比利·克里斯托 Billy Crystal
       约翰·古德曼 John Goodman
       史蒂夫·布西密 Steve Buscemi
       海伦·米伦 Helen Mirren
       彼得·索恩 Peter Sohn
       乔尔·默里 Joel Murray
       西恩·海耶斯 Sean Hayes
       大卫·弗利 Dave Foley
       查理·戴 Charlie Day
       阿尔弗雷德·莫里纳 Alfred Molina
       泰勒·莱伯恩 Tyler Labine
       内森·菲利安 Nathan Fillion
       奥布瑞·普拉扎 Aubrey Plaza
       贝丝·比厄 Beth Behrs
       鲍比·莫伊尼汉 Bobby Moynihan
       朱丽亚·斯维尼 Julia Sweeney


标  签 动画 | 美国 | 皮克斯 | 喜剧 | 搞笑 | 2013 | 励志 | 温情

简  介  

  自幼憧憬惊吓专员职业的大眼仔麦克·华斯基(比利·克里斯托 Billy Crystal 配音),终于如愿考入曾走出过无数传奇人物的怪兽大学惊吓学院。对于这个相貌讨喜、丝毫没有任何恐怖气场的小怪物来说,死啃书本似乎是实现梦想的唯一途径。与之相对,系出惊吓名门的同学毛怪詹姆士·苏利文(约翰·古德曼 John Goodman 配音)天生是周围同学关注的焦点,完全一副什么都无所谓的浪荡公子哥做派。倒霉的是这两个脾气完全不合的家伙惹到了极其严格的院长迪安·哈德斯克莱博(海伦·米伦 Helen Mirren 配音),结果在期中考试时被三振出局,驱逐出惊吓学院。不甘失败的大眼仔抓住一线机会,集结团队报名参加兄弟会举办的惊吓游戏,只要获胜的话便有机会重返惊吓学院。而在高手云集的赛场上,大眼仔与毛怪即将迎接前所未有的挑战……
  本片为皮克斯动画片《怪兽电力公司》的前传。

获奖情况  

  第41届动画安妮奖(2014)
  最佳动画长片(提名)
  最佳编剧(提名) 丹尼尔·吉尔森 / 丹·斯坎隆 / 罗伯特·L·贝尔德
  最佳配音(提名) 比利·克里斯托
  最佳配乐(提名) 兰迪·纽曼
  最佳剪辑
  最佳分镜
  最佳艺术指导(提名)
  最佳动画角色(提名)
  最佳角色设计(提名)
  最佳动画效果(提名)

  第25届美国制片人工会奖(2014)
  最佳动画片制片人奖(提名) Kori Rae

  第64届美国剪辑工会奖(2014)
  动画片最佳剪辑(提名) 格雷戈·斯奈德

  第61届美国音效剪辑协会奖(2014)
  金卷轴奖 最佳动画片音效剪辑(提名) Pascal Garneau / Teresa Eckton / 迈克尔·席维斯 / Luke Dunn Gielmuda / Brian Chumney / Dustin Cawood / Bruno Coon / Tom Myers / Dennie Thorpe / Jana Vance

  第12届美国视觉效果协会奖(2014)
  最佳动画电影视觉效果(提名) Kori Rae / Jon Reisch
  最佳动画电影CG背景(提名)

  第50届美国声音效果协会奖(2014)
  动画电影最佳音效(提名) Doc Kane / 加里·萨默斯 / 迈克尔·斯曼内科

  第19届美国评论家选择电影奖(2014)
  最佳动画片(提名)

  第18届金卫星奖(2014)
  电影部门 最佳动画片(提名)

  第17届好莱坞电影奖(2013)
  年度电影(提名) 丹·斯坎隆
  年度动画 Kori Rae / 丹·斯坎隆

  第12届华盛顿影评人协会奖(2013)
  最佳动画片(提名)

  第13届凤凰城影评人协会奖(2013)
  最佳动画片(提名)

  第17届美国在线影评人协会奖(2013)
  最佳动画片(提名)

  第15届美国青少年选择奖(2013)
  最佳暑期喜剧片(提名)

  第4届豆瓣电影鑫像奖(2014)
  鑫豆单元 最佳动画长片(提名)
  1. Video
  2. ID                                       : 1
  3. Format                                   : AVC
  4. Format/Info                              : Advanced Video Codec
  5. Format profile                           : High@L4
  6. Format settings                          : CABAC / 5 Ref Frames
  7. Format settings, CABAC                   : Yes
  8. Format settings, Reference frames        : 5 frames
  9. Codec ID                                 : V_MPEG4/ISO/AVC
  10. Duration                                 : 1 h 43 min
  11. Bit rate                                 : 18.8 Mb/s
  12. Width                                    : 3 840 pixels
  13. Height                                   : 2 160 pixels
  14. Display aspect ratio                     : 16:9
  15. Frame rate mode                          : Constant
  16. Frame rate                               : 23.976 (24000/1001/189150) FPS
  17. Color space                              : YUV
  18. Chroma subsampling                       : 4:2:0
  19. Bit depth                                : 8 bits
  20. Scan type                                : Progressive
  21. Bits/(Pixel*Frame)                       : 0.094
  22. Stream size                              : 13.6 GiB (70%)
  23. Title                                    : Monsters.University.2013.2160p.BluRay.x264.8bit.SDR.TrueHD.7.1.Atmos-SWTYBLZ
  24. Writing library                          : x264 core 157 r2935 545de2f
  25. Encoding settings                        : cabac=1 / ref=5 / deblock=1:1:1 / analyse=0x3:0x113 / me=umh / subme=10 / psy=1 / psy_rd=0.40:0.00 / mixed_ref=1 / me_range=48 / chroma_me=1 / trellis=2 / 8x8dct=1 / cqm=0 / deadzone=21,11 / fast_pskip=1 / chroma_qp_offset=-2 / threads=36 / lookahead_threads=4 / sliced_threads=0 / nr=0 / decimate=0 / interlaced=0 / bluray_compat=0 / constrained_intra=0 / bframes=5 / b_pyramid=2 / b_adapt=2 / b_bias=0 / direct=3 / weightb=1 / open_gop=0 / weightp=2 / keyint=250 / keyint_min=23 / scenecut=40 / intra_refresh=0 / rc_lookahead=50 / rc=crf / mbtree=1 / crf=16.0 / qcomp=0.60 / qpmin=0 / qpmax=69 / qpstep=4 / ip_ratio=1.40 / aq=1:0.60
  26. Default                                  : Yes
  27. Forced                                   : No

  28. Audio #1
  29. ID                                       : 2
  30. Format                                   : MLP FBA 16-ch
  31. Format/Info                              : Meridian Lossless Packing FBA with 16-channel presentation
  32. Commercial name                          : Dolby TrueHD with Dolby Atmos
  33. Codec ID                                 : A_TRUEHD
  34. Duration                                 : 1 h 43 min
  35. Bit rate mode                            : Variable
  36. Bit rate                                 : 7 415 kb/s
  37. Maximum bit rate                         : 9 756 kb/s
  38. Channel(s)                               : 8 channels
  39. Channel layout                           : L R C LFE Ls Rs Lb Rb
  40. Sampling rate                            : 48.0 kHz
  41. Frame rate                               : 1 200.000 FPS (40 SPF)
  42. Compression mode                         : Lossless
  43. Stream size                              : 5.38 GiB (28%)
  44. Title                                    : Monsters.University.2013.2160p.BluRay.x264.8bit.SDR.TrueHD.7.1.Atmos-SWTYBLZ
  45. Language                                 : English
  46. Default                                  : Yes
  47. Forced                                   : No
  48. Number of dynamic objects                : 13
  49. Bed channel count                        : 1 channel
  50. Bed channel configuration                : LFE

  51. Audio #2
  52. ID                                       : 3
  53. Format                                   : AC-3
  54. Format/Info                              : Audio Coding 3
  55. Commercial name                          : Dolby Digital
  56. Codec ID                                 : A_AC3
  57. Duration                                 : 1 h 43 min
  58. Bit rate mode                            : Constant
  59. Bit rate                                 : 640 kb/s
  60. Channel(s)                               : 6 channels
  61. Channel layout                           : L R C LFE Ls Rs
  62. Sampling rate                            : 48.0 kHz
  63. Frame rate                               : 31.250 FPS (1536 SPF)
  64. Compression mode                         : Lossy
  65. Stream size                              : 475 MiB (2%)
  66. Title                                    : Monsters.University.2013.2160p.BluRay.x264.8bit.SDR.TrueHD.7.1.Atmos-SWTYBLZ
  67. Language                                 : English
  68. Service kind                             : Complete Main
  69. Default                                  : No
  70. Forced                                   : No

  71. Text #1
  72. ID                                       : 4
  73. Format                                   : UTF-8
  74. Codec ID                                 : S_TEXT/UTF8
  75. Codec ID/Info                            : UTF-8 Plain Text
  76. Duration                                 : 1 h 42 min
  77. Bit rate                                 : 59 b/s
  78. Count of elements                        : 1444
  79. Stream size                              : 44.2 KiB (0%)
  80. Title                                    : English-SRT
  81. Language                                 : English
  82. Default                                  : Yes
  83. Forced                                   : No

  84. Text #2
  85. ID                                       : 5
  86. Format                                   : PGS
  87. Muxing mode                              : zlib
  88. Codec ID                                 : S_HDMV/PGS
  89. Codec ID/Info                            : Picture based subtitle format used on BDs/HD-DVDs
  90. Duration                                 : 1 h 42 min
  91. Bit rate                                 : 47.6 kb/s
  92. Count of elements                        : 3714
  93. Stream size                              : 34.9 MiB (0%)
  94. Title                                    : English-PGS
  95. Language                                 : English
  96. Default                                  : No
  97. Forced                                   : No

  98. Text #3
  99. ID                                       : 6
  100. Format                                   : PGS
  101. Muxing mode                              : zlib
  102. Codec ID                                 : S_HDMV/PGS
  103. Codec ID/Info                            : Picture based subtitle format used on BDs/HD-DVDs
  104. Duration                                 : 1 h 42 min
  105. Bit rate                                 : 36.3 kb/s
  106. Count of elements                        : 2454
  107. Stream size                              : 26.6 MiB (0%)
  108. Title                                    : Spanish-PGS
  109. Language                                 : Spanish
  110. Default                                  : No
  111. Forced                                   : No

  112. Menu
  113. 00:00:00.000                             : en:Chapter 01
  114. 00:06:27.053                             : en:Chapter 02
  115. 00:07:07.552                             : en:Chapter 03
  116. 00:10:54.779                             : en:Chapter 04
  117. 00:12:20.614                             : en:Chapter 05
  118. 00:16:10.636                             : en:Chapter 06
  119. 00:18:15.928                             : en:Chapter 07
  120. 00:19:38.260                             : en:Chapter 08
  121. 00:21:07.391                             : en:Chapter 09
  122. 00:23:43.964                             : en:Chapter 10
  123. 00:29:23.219                             : en:Chapter 11
  124. 00:30:40.129                             : en:Chapter 12
  125. 00:33:38.766                             : en:Chapter 13
  126. 00:36:31.647                             : en:Chapter 14
  127. 00:38:20.089                             : en:Chapter 15
  128. 00:39:23.235                             : en:Chapter 16
  129. 00:45:14.461                             : en:Chapter 17
  130. 00:47:15.499                             : en:Chapter 18
  131. 00:51:08.565                             : en:Chapter 19
  132. 00:55:21.609                             : en:Chapter 20
  133. 00:57:30.989                             : en:Chapter 21
  134. 01:01:42.907                             : en:Chapter 22
  135. 01:04:38.249                             : en:Chapter 23
  136. 01:07:33.674                             : en:Chapter 24
  137. 01:14:11.989                             : en:Chapter 25
  138. 01:18:08.517                             : en:Chapter 26
  139. 01:19:26.386                             : en:Chapter 27
  140. 01:23:53.820                             : en:Chapter 28
  141. 01:24:39.199                             : en:Chapter 29
  142. 01:28:00.900                             : en:Chapter 30
  143. 01:32:52.024                             : en:Chapter 31
  144. 01:34:24.575                             : en:Chapter 32
复制代码

怪兽大学 Monsters.University.2013.2160p.BluRay.x264.8bit.SDR.TrueHD.7.1.Atmos-SWTYBLZ 19.63GB-2.png 怪兽大学 Monsters.University.2013.2160p.BluRay.x264.8bit.SDR.TrueHD.7.1.Atmos-SWTYBLZ 19.63GB-3.png 怪兽大学 Monsters.University.2013.2160p.BluRay.x264.8bit.SDR.TrueHD.7.1.Atmos-SWTYBLZ 19.63GB-4.png 怪兽大学 Monsters.University.2013.2160p.BluRay.x264.8bit.SDR.TrueHD.7.1.Atmos-SWTYBLZ 19.63GB-5.png 怪兽大学 Monsters.University.2013.2160p.BluRay.x264.8bit.SDR.TrueHD.7.1.Atmos-SWTYBLZ 19.63GB-6.png 怪兽大学 Monsters.University.2013.2160p.BluRay.x264.8bit.SDR.TrueHD.7.1.Atmos-SWTYBLZ 19.63GB-7.png 怪兽大学 Monsters.University.2013.2160p.BluRay.x264.8bit.SDR.TrueHD.7.1.Atmos-SWTYBLZ 19.63GB-8.png 怪兽大学 Monsters.University.2013.2160p.BluRay.x264.8bit.SDR.TrueHD.7.1.Atmos-SWTYBLZ 19.63GB-9.png






回复

使用道具 举报

发表于 2020-3-4 17:49:45 | 显示全部楼层

这个帖子不回对不起自己!我想我是一天也不能离开蓝光电影网
回复 支持 反对

使用道具 举报

发表于 2020-3-4 18:18:51 | 显示全部楼层

这东西我收了!谢谢楼主!
回复 支持 反对

使用道具 举报

发表于 2020-3-4 18:58:59 来自手机 | 显示全部楼层
好东西,收了,,,,
回复 支持 反对

使用道具 举报

发表于 2020-3-4 19:18:59 | 显示全部楼层

我看不错噢 谢谢楼主!蓝光电影网越来越好!
回复 支持 反对

使用道具 举报

发表于 2020-3-4 19:23:27 | 显示全部楼层
好东西,感谢楼主无私奉献。
回复 支持 反对

使用道具 举报

发表于 2020-3-4 20:00:27 | 显示全部楼层
支持一下楼主,顶起来
回复 支持 反对

使用道具 举报

发表于 2020-3-4 20:34:18 来自手机 | 显示全部楼层
这个帖子不回对不起自己!我想我是一天也不能离开蓝光电影网
回复 支持 反对

使用道具 举报

发表于 2020-3-4 21:22:25 | 显示全部楼层
楼主发贴辛苦了,谢谢楼主分享!我觉得蓝光电影网是注册对了!
回复 支持 反对

使用道具 举报

发表于 2020-3-4 21:45:09 | 显示全部楼层
楼主辛苦了
回复 支持 反对

使用道具 举报

懒得打字嘛,点击右侧快捷回复 【右侧内容,后台自定义】
您需要登录后才可以回帖 登录 | 立即加入

本版积分规则

现在加入蓝光电影网,注册一个账号
上个主题 下个主题 快速回复 收藏帖子 返回列表 客服中心 搜索

手机版|小黑屋| 蓝光电影网 |网站地图 

Copyright © 2015-2019 Comsenz Inc.  Template by 蓝光电影论坛 All Rights Reserved.

Powered by 蓝光电影网 X3.4

特别声明:本站所有资源均由网上收集而来,版权归原影音公司所有,如果侵犯了你的权益,请通知我们,我们会及时删除侵权内容.

快速回复 返回顶部 返回列表