找回密码

蓝光电影网

查看: 265|回复: 6

[10bit.SDR] 怪兽大学 Monsters.University.2013.2160p.BluRay.x265.10bit.SDR.TrueHD.7.1.Atmos-SWTYBLZ 19.36GB

[复制链接]

 成长值: 25285

发表于 2020-3-4 17:33:11 | 显示全部楼层 |阅读模式
怪兽大学 Monsters.University.2013.2160p.BluRay.x265.10bit.SDR.TrueHD.7.1.Atmos-SWTYBLZ 19.36GB-1.png

译  名 怪兽大学 / Monsters Inc. 2 / 怪兽公司2 / 怪兽电力公司2:怪兽大学 / 怪物公司2 / 怪物公司2:怪物大学
片  名 Monsters University
年  代 2013
产  地 美国
类  别 喜剧 / 动画 / 冒险
语  言 英语
上映日期 2013-06-21(美国) / 2013-08-23(中国大陆)
IMDb评分  7.3/10 from 304967 users
IMDb链接  https://www.imdb.com/title/tt1453405
豆瓣评分 8.2/10 from 269808 users
豆瓣链接 https://movie.douban.com/subject/3789848/
片  长 104分钟
导  演 丹·斯坎伦 Dan Scanlon
编  剧 罗伯特·L·贝尔德 Robert L. Baird / 丹尼尔·吉尔森 Daniel Gerson / 丹·斯坎伦 Dan Scanlon
主  演 比利·克里斯托 Billy Crystal
       约翰·古德曼 John Goodman
       史蒂夫·布西密 Steve Buscemi
       海伦·米伦 Helen Mirren
       彼得·索恩 Peter Sohn
       乔尔·默里 Joel Murray
       西恩·海耶斯 Sean Hayes
       大卫·弗利 Dave Foley
       查理·戴 Charlie Day
       阿尔弗雷德·莫里纳 Alfred Molina
       泰勒·莱伯恩 Tyler Labine
       内森·菲利安 Nathan Fillion
       奥布瑞·普拉扎 Aubrey Plaza
       贝丝·比厄 Beth Behrs
       鲍比·莫伊尼汉 Bobby Moynihan
       朱丽亚·斯维尼 Julia Sweeney


标  签 动画 | 美国 | 皮克斯 | 喜剧 | 搞笑 | 2013 | 励志 | 温情

简  介  

  自幼憧憬惊吓专员职业的大眼仔麦克·华斯基(比利·克里斯托 Billy Crystal 配音),终于如愿考入曾走出过无数传奇人物的怪兽大学惊吓学院。对于这个相貌讨喜、丝毫没有任何恐怖气场的小怪物来说,死啃书本似乎是实现梦想的唯一途径。与之相对,系出惊吓名门的同学毛怪詹姆士·苏利文(约翰·古德曼 John Goodman 配音)天生是周围同学关注的焦点,完全一副什么都无所谓的浪荡公子哥做派。倒霉的是这两个脾气完全不合的家伙惹到了极其严格的院长迪安·哈德斯克莱博(海伦·米伦 Helen Mirren 配音),结果在期中考试时被三振出局,驱逐出惊吓学院。不甘失败的大眼仔抓住一线机会,集结团队报名参加兄弟会举办的惊吓游戏,只要获胜的话便有机会重返惊吓学院。而在高手云集的赛场上,大眼仔与毛怪即将迎接前所未有的挑战……
  本片为皮克斯动画片《怪兽电力公司》的前传。

获奖情况  

  第41届动画安妮奖(2014)
  最佳动画长片(提名)
  最佳编剧(提名) 丹尼尔·吉尔森 / 丹·斯坎隆 / 罗伯特·L·贝尔德
  最佳配音(提名) 比利·克里斯托
  最佳配乐(提名) 兰迪·纽曼
  最佳剪辑
  最佳分镜
  最佳艺术指导(提名)
  最佳动画角色(提名)
  最佳角色设计(提名)
  最佳动画效果(提名)

  第25届美国制片人工会奖(2014)
  最佳动画片制片人奖(提名) Kori Rae

  第64届美国剪辑工会奖(2014)
  动画片最佳剪辑(提名) 格雷戈·斯奈德

  第61届美国音效剪辑协会奖(2014)
  金卷轴奖 最佳动画片音效剪辑(提名) Pascal Garneau / Teresa Eckton / 迈克尔·席维斯 / Luke Dunn Gielmuda / Brian Chumney / Dustin Cawood / Bruno Coon / Tom Myers / Dennie Thorpe / Jana Vance

  第12届美国视觉效果协会奖(2014)
  最佳动画电影视觉效果(提名) Kori Rae / Jon Reisch
  最佳动画电影CG背景(提名)

  第50届美国声音效果协会奖(2014)
  动画电影最佳音效(提名) Doc Kane / 加里·萨默斯 / 迈克尔·斯曼内科

  第19届美国评论家选择电影奖(2014)
  最佳动画片(提名)

  第18届金卫星奖(2014)
  电影部门 最佳动画片(提名)

  第17届好莱坞电影奖(2013)
  年度电影(提名) 丹·斯坎隆
  年度动画 Kori Rae / 丹·斯坎隆

  第12届华盛顿影评人协会奖(2013)
  最佳动画片(提名)

  第13届凤凰城影评人协会奖(2013)
  最佳动画片(提名)

  第17届美国在线影评人协会奖(2013)
  最佳动画片(提名)

  第15届美国青少年选择奖(2013)
  最佳暑期喜剧片(提名)

  第4届豆瓣电影鑫像奖(2014)
  鑫豆单元 最佳动画长片(提名)
  1. Video
  2. ID                                       : 1
  3. Format                                   : HEVC
  4. Format/Info                              : High Efficiency Video Coding
  5. Format profile                           : Main High@L4@High
  6. Codec ID                                 : V_MPEGH/ISO/HEVC
  7. Duration                                 : 1 h 43 min
  8. Bit rate                                 : 18.4 Mb/s
  9. Width                                    : 3 840 pixels
  10. Height                                   : 2 160 pixels
  11. Display aspect ratio                     : 16:9
  12. Frame rate mode                          : Constant
  13. Frame rate                               : 23.976 (24000/1001/189150) FPS
  14. Color space                              : YUV
  15. Chroma subsampling                       : 4:2:0
  16. Bit depth                                : 10 bits
  17. Bits/(Pixel*Frame)                       : 0.092
  18. Stream size                              : 13.3 GiB (69%)
  19. Title                                    : Monsters.University.2013.2160p.BluRay.x265.10bit.SDR.TrueHD.7.1.Atmos-SWTYBLZ
  20. Writing library                          : x265 3.0ed72af837053:[Windows][GCC 8.2.0][64 bit] 10bit
  21. Encoding settings                        : cpuid=1111039 / frame-threads=6 / numa-pools=40 / wpp / no-pmode / no-pme / no-psnr / no-ssim / log-level=2 / input-csp=1 / input-res=3840x2160 / interlace=0 / total-frames=149332 / level-idc=51 / high-tier=1 / uhd-bd=0 / ref=3 / no-allow-non-conformance / repeat-headers / annexb / aud / hrd / info / hash=0 / no-temporal-layers / no-open-gop / min-keyint=1 / keyint=24 / gop-lookahead=0 / bframes=6 / b-adapt=2 / b-pyramid / bframe-bias=0 / rc-lookahead=25 / lookahead-slices=4 / scenecut=40 / radl=0 / no-splice / no-intra-refresh / ctu=64 / min-cu-size=8 / no-rect / no-amp / max-tu-size=32 / tu-inter-depth=1 / tu-intra-depth=1 / limit-tu=0 / rdoq-level=0 / dynamic-rd=0.00 / no-ssim-rd / signhide / no-tskip / nr-intra=0 / nr-inter=0 / no-constrained-intra / strong-intra-smoothing / max-merge=2 / limit-refs=3 / no-limit-modes / me=1 / subme=2 / merange=57 / temporal-mvp / weightp / no-weightb / no-analyze-src-pics / deblock=1:1 / no-sao / no-sao-non-deblock / rd=3 / no-early-skip / rskip / no-fast-intra / no-tskip-fast / no-cu-lossless / no-b-intra / no-splitrd-skip / rdpenalty=0 / psy-rd=0.40 / psy-rdoq=0.00 / no-rd-refine / no-lossless / cbqpoffs=0 / crqpoffs=0 / rc=crf / crf=14.0 / qcomp=0.60 / qpstep=4 / stats-write=0 / stats-read=0 / vbv-maxrate=160000 / vbv-bufsize=160000 / vbv-init=0.9 / crf-max=0.0 / crf-min=0.0 / ipratio=1.40 / pbratio=1.30 / aq-mode=1 / aq-strength=0.40 / cutree / zone-count=0 / no-strict-cbr / qg-size=32 / no-rc-grain / qpmax=69 / qpmin=0 / no-const-vbv / sar=1 / overscan=0 / videoformat=5 / range=0 / colorprim=2 / transfer=2 / colormatrix=2 / chromaloc=0 / display-window=0 / max-cll=0,0 / min-luma=0 / max-luma=1023 / log2-max-poc-lsb=8 / vui-timing-info / vui-hrd-info / slices=1 / opt-qp-pps / opt-ref-list-length-pps / no-multi-pass-opt-rps / scenecut-bias=0.05 / no-opt-cu-delta-qp / no-aq-motion / no-hdr / no-hdr-opt / no-dhdr10-opt / no-idr-recovery-sei / analysis-reuse-level=5 / scale-factor=0 / refine-intra=0 / refine-inter=0 / refine-mv=0 / refine-ctu-distortion=0 / no-limit-sao / ctu-info=0 / no-lowpass-dct / refine-analysis-type=0 / copy-pic=1 / max-ausize-factor=1.0 / no-dynamic-refine / no-single-sei / no-hevc-aq / qp-adaptation-range=1.00
  22. Default                                  : Yes
  23. Forced                                   : No

  24. Audio #1
  25. ID                                       : 2
  26. Format                                   : MLP FBA 16-ch
  27. Format/Info                              : Meridian Lossless Packing FBA with 16-channel presentation
  28. Commercial name                          : Dolby TrueHD with Dolby Atmos
  29. Codec ID                                 : A_TRUEHD
  30. Duration                                 : 1 h 43 min
  31. Bit rate mode                            : Variable
  32. Bit rate                                 : 7 415 kb/s
  33. Maximum bit rate                         : 9 756 kb/s
  34. Channel(s)                               : 8 channels
  35. Channel layout                           : L R C LFE Ls Rs Lb Rb
  36. Sampling rate                            : 48.0 kHz
  37. Frame rate                               : 1 200.000 FPS (40 SPF)
  38. Compression mode                         : Lossless
  39. Stream size                              : 5.38 GiB (28%)
  40. Title                                    : Monsters.University.2013.2160p.BluRay.x265.10bit.SDR.TrueHD.7.1.Atmos-SWTYBLZ
  41. Language                                 : English
  42. Default                                  : Yes
  43. Forced                                   : No
  44. Number of dynamic objects                : 13
  45. Bed channel count                        : 1 channel
  46. Bed channel configuration                : LFE

  47. Audio #2
  48. ID                                       : 3
  49. Format                                   : AC-3
  50. Format/Info                              : Audio Coding 3
  51. Commercial name                          : Dolby Digital
  52. Codec ID                                 : A_AC3
  53. Duration                                 : 1 h 43 min
  54. Bit rate mode                            : Constant
  55. Bit rate                                 : 640 kb/s
  56. Channel(s)                               : 6 channels
  57. Channel layout                           : L R C LFE Ls Rs
  58. Sampling rate                            : 48.0 kHz
  59. Frame rate                               : 31.250 FPS (1536 SPF)
  60. Compression mode                         : Lossy
  61. Stream size                              : 475 MiB (2%)
  62. Title                                    : Monsters.University.2013.2160p.BluRay.x265.10bit.SDR.TrueHD.7.1.Atmos-SWTYBLZ
  63. Language                                 : English
  64. Service kind                             : Complete Main
  65. Default                                  : No
  66. Forced                                   : No

  67. Text #1
  68. ID                                       : 4
  69. Format                                   : UTF-8
  70. Codec ID                                 : S_TEXT/UTF8
  71. Codec ID/Info                            : UTF-8 Plain Text
  72. Duration                                 : 1 h 42 min
  73. Bit rate                                 : 59 b/s
  74. Count of elements                        : 1444
  75. Stream size                              : 44.2 KiB (0%)
  76. Title                                    : English-SRT
  77. Language                                 : English
  78. Default                                  : Yes
  79. Forced                                   : No

  80. Text #2
  81. ID                                       : 5
  82. Format                                   : PGS
  83. Muxing mode                              : zlib
  84. Codec ID                                 : S_HDMV/PGS
  85. Codec ID/Info                            : Picture based subtitle format used on BDs/HD-DVDs
  86. Duration                                 : 1 h 42 min
  87. Bit rate                                 : 47.6 kb/s
  88. Count of elements                        : 3714
  89. Stream size                              : 34.9 MiB (0%)
  90. Title                                    : English-PGS
  91. Language                                 : English
  92. Default                                  : No
  93. Forced                                   : No

  94. Text #3
  95. ID                                       : 6
  96. Format                                   : PGS
  97. Muxing mode                              : zlib
  98. Codec ID                                 : S_HDMV/PGS
  99. Codec ID/Info                            : Picture based subtitle format used on BDs/HD-DVDs
  100. Duration                                 : 1 h 42 min
  101. Bit rate                                 : 36.3 kb/s
  102. Count of elements                        : 2454
  103. Stream size                              : 26.6 MiB (0%)
  104. Title                                    : Spanish-PGS
  105. Language                                 : Spanish
  106. Default                                  : No
  107. Forced                                   : No

  108. Menu
  109. 00:00:00.000                             : en:Chapter 01
  110. 00:06:27.053                             : en:Chapter 02
  111. 00:07:07.552                             : en:Chapter 03
  112. 00:10:54.779                             : en:Chapter 04
  113. 00:12:20.614                             : en:Chapter 05
  114. 00:16:10.636                             : en:Chapter 06
  115. 00:18:15.928                             : en:Chapter 07
  116. 00:19:38.260                             : en:Chapter 08
  117. 00:21:07.391                             : en:Chapter 09
  118. 00:23:43.964                             : en:Chapter 10
  119. 00:29:23.219                             : en:Chapter 11
  120. 00:30:40.129                             : en:Chapter 12
  121. 00:33:38.766                             : en:Chapter 13
  122. 00:36:31.647                             : en:Chapter 14
  123. 00:38:20.089                             : en:Chapter 15
  124. 00:39:23.235                             : en:Chapter 16
  125. 00:45:14.461                             : en:Chapter 17
  126. 00:47:15.499                             : en:Chapter 18
  127. 00:51:08.565                             : en:Chapter 19
  128. 00:55:21.609                             : en:Chapter 20
  129. 00:57:30.989                             : en:Chapter 21
  130. 01:01:42.907                             : en:Chapter 22
  131. 01:04:38.249                             : en:Chapter 23
  132. 01:07:33.674                             : en:Chapter 24
  133. 01:14:11.989                             : en:Chapter 25
  134. 01:18:08.517                             : en:Chapter 26
  135. 01:19:26.386                             : en:Chapter 27
  136. 01:23:53.820                             : en:Chapter 28
  137. 01:24:39.199                             : en:Chapter 29
  138. 01:28:00.900                             : en:Chapter 30
  139. 01:32:52.024                             : en:Chapter 31
  140. 01:34:24.575                             : en:Chapter 32
复制代码

怪兽大学 Monsters.University.2013.2160p.BluRay.x265.10bit.SDR.TrueHD.7.1.Atmos-SWTYBLZ 19.36GB-2.png 怪兽大学 Monsters.University.2013.2160p.BluRay.x265.10bit.SDR.TrueHD.7.1.Atmos-SWTYBLZ 19.36GB-3.png 怪兽大学 Monsters.University.2013.2160p.BluRay.x265.10bit.SDR.TrueHD.7.1.Atmos-SWTYBLZ 19.36GB-4.png 怪兽大学 Monsters.University.2013.2160p.BluRay.x265.10bit.SDR.TrueHD.7.1.Atmos-SWTYBLZ 19.36GB-5.png 怪兽大学 Monsters.University.2013.2160p.BluRay.x265.10bit.SDR.TrueHD.7.1.Atmos-SWTYBLZ 19.36GB-6.png 怪兽大学 Monsters.University.2013.2160p.BluRay.x265.10bit.SDR.TrueHD.7.1.Atmos-SWTYBLZ 19.36GB-7.png 怪兽大学 Monsters.University.2013.2160p.BluRay.x265.10bit.SDR.TrueHD.7.1.Atmos-SWTYBLZ 19.36GB-8.png 怪兽大学 Monsters.University.2013.2160p.BluRay.x265.10bit.SDR.TrueHD.7.1.Atmos-SWTYBLZ 19.36GB-9.png






回复

使用道具 举报

发表于 2020-3-4 17:50:03 | 显示全部楼层

楼主太厉害了!楼主,电影应该很好看我觉得蓝光电影网真是个好地方!
回复 支持 反对

使用道具 举报

发表于 2020-3-4 19:59:37 | 显示全部楼层

这个帖子不回对不起自己!我想我是一天也不能离开蓝光电影网
回复 支持 反对

使用道具 举报

发表于 2020-3-4 21:06:05 | 显示全部楼层

我看不错噢 谢谢楼主!蓝光电影网越来越好!
回复 支持 反对

使用道具 举报

发表于 2020-3-4 22:20:05 | 显示全部楼层

我看不错噢 谢谢楼主!蓝光电影网越来越好!
回复 支持 反对

使用道具 举报

 成长值: 550

发表于 2020-3-5 16:29:18 | 显示全部楼层

其实我一直觉得楼主的品味不错!呵呵!蓝光电影网太棒了!
回复 支持 反对

使用道具 举报

发表于 2020-3-6 08:18:53 | 显示全部楼层

这东西我收了!谢谢楼主!蓝光电影网真好!
回复 支持 反对

使用道具 举报

懒得打字嘛,点击右侧快捷回复 【右侧内容,后台自定义】
您需要登录后才可以回帖 登录 | 立即加入

本版积分规则

现在加入蓝光电影网,注册一个账号
上个主题 下个主题 快速回复 收藏帖子 返回列表 客服中心 搜索

手机版|小黑屋| 蓝光电影网 |网站地图 

Copyright © 2015-2019 Comsenz Inc.  Template by 蓝光电影论坛 All Rights Reserved.

Powered by 蓝光电影网 X3.4

特别声明:本站所有资源均由网上收集而来,版权归原影音公司所有,如果侵犯了你的权益,请通知我们,我们会及时删除侵权内容.

快速回复 返回顶部 返回列表