找回密码

蓝光电影网

查看: 244|回复: 5

[REMUX.HEVC] 怪兽大学 Monsters.University.2013.2160p.BluRay.REMUX.HEVC.TrueHD.7.1.Atmos-FGT 38.15GB

[复制链接]

 成长值: 25360

发表于 2020-3-4 16:59:38 | 显示全部楼层 |阅读模式
怪兽大学 Monsters.University.2013.2160p.BluRay.REMUX.HEVC.TrueHD.7.1.Atmos-FGT 38.15GB-1.png

译  名 怪兽大学 / Monsters Inc. 2 / 怪兽公司2 / 怪兽电力公司2:怪兽大学 / 怪物公司2 / 怪物公司2:怪物大学
片  名 Monsters University
年  代 2013
产  地 美国
类  别 喜剧 / 动画 / 冒险
语  言 英语
上映日期 2013-06-21(美国) / 2013-08-23(中国大陆)
IMDb评分  7.3/10 from 304967 users
IMDb链接  https://www.imdb.com/title/tt1453405
豆瓣评分 8.2/10 from 269782 users
豆瓣链接 https://movie.douban.com/subject/3789848/
片  长 104分钟
导  演 丹·斯坎伦 Dan Scanlon
编  剧 罗伯特·L·贝尔德 Robert L. Baird / 丹尼尔·吉尔森 Daniel Gerson / 丹·斯坎伦 Dan Scanlon
主  演 比利·克里斯托 Billy Crystal
       约翰·古德曼 John Goodman
       史蒂夫·布西密 Steve Buscemi
       海伦·米伦 Helen Mirren
       彼得·索恩 Peter Sohn
       乔尔·默里 Joel Murray
       西恩·海耶斯 Sean Hayes
       大卫·弗利 Dave Foley
       查理·戴 Charlie Day
       阿尔弗雷德·莫里纳 Alfred Molina
       泰勒·莱伯恩 Tyler Labine
       内森·菲利安 Nathan Fillion
       奥布瑞·普拉扎 Aubrey Plaza
       贝丝·比厄 Beth Behrs
       鲍比·莫伊尼汉 Bobby Moynihan
       朱丽亚·斯维尼 Julia Sweeney


标  签 动画 | 美国 | 皮克斯 | 喜剧 | 搞笑 | 2013 | 励志 | 温情

简  介  

  自幼憧憬惊吓专员职业的大眼仔麦克·华斯基(比利·克里斯托 Billy Crystal 配音),终于如愿考入曾走出过无数传奇人物的怪兽大学惊吓学院。对于这个相貌讨喜、丝毫没有任何恐怖气场的小怪物来说,死啃书本似乎是实现梦想的唯一途径。与之相对,系出惊吓名门的同学毛怪詹姆士·苏利文(约翰·古德曼 John Goodman 配音)天生是周围同学关注的焦点,完全一副什么都无所谓的浪荡公子哥做派。倒霉的是这两个脾气完全不合的家伙惹到了极其严格的院长迪安·哈德斯克莱博(海伦·米伦 Helen Mirren 配音),结果在期中考试时被三振出局,驱逐出惊吓学院。不甘失败的大眼仔抓住一线机会,集结团队报名参加兄弟会举办的惊吓游戏,只要获胜的话便有机会重返惊吓学院。而在高手云集的赛场上,大眼仔与毛怪即将迎接前所未有的挑战……
  本片为皮克斯动画片《怪兽电力公司》的前传。

获奖情况  

  第41届动画安妮奖(2014)
  最佳动画长片(提名)
  最佳编剧(提名) 丹尼尔·吉尔森 / 丹·斯坎隆 / 罗伯特·L·贝尔德
  最佳配音(提名) 比利·克里斯托
  最佳配乐(提名) 兰迪·纽曼
  最佳剪辑
  最佳分镜
  最佳艺术指导(提名)
  最佳动画角色(提名)
  最佳角色设计(提名)
  最佳动画效果(提名)

  第25届美国制片人工会奖(2014)
  最佳动画片制片人奖(提名) Kori Rae

  第64届美国剪辑工会奖(2014)
  动画片最佳剪辑(提名) 格雷戈·斯奈德

  第61届美国音效剪辑协会奖(2014)
  金卷轴奖 最佳动画片音效剪辑(提名) Pascal Garneau / Teresa Eckton / 迈克尔·席维斯 / Luke Dunn Gielmuda / Brian Chumney / Dustin Cawood / Bruno Coon / Tom Myers / Dennie Thorpe / Jana Vance

  第12届美国视觉效果协会奖(2014)
  最佳动画电影视觉效果(提名) Kori Rae / Jon Reisch
  最佳动画电影CG背景(提名)

  第50届美国声音效果协会奖(2014)
  动画电影最佳音效(提名) Doc Kane / 加里·萨默斯 / 迈克尔·斯曼内科

  第19届美国评论家选择电影奖(2014)
  最佳动画片(提名)

  第18届金卫星奖(2014)
  电影部门 最佳动画片(提名)

  第17届好莱坞电影奖(2013)
  年度电影(提名) 丹·斯坎隆
  年度动画 Kori Rae / 丹·斯坎隆

  第12届华盛顿影评人协会奖(2013)
  最佳动画片(提名)

  第13届凤凰城影评人协会奖(2013)
  最佳动画片(提名)

  第17届美国在线影评人协会奖(2013)
  最佳动画片(提名)

  第15届美国青少年选择奖(2013)
  最佳暑期喜剧片(提名)

  第4届豆瓣电影鑫像奖(2014)
  鑫豆单元 最佳动画长片(提名)
  1. Video
  2. ID                                       : 1
  3. Format                                   : HEVC
  4. Format/Info                              : High Efficiency Video Coding
  5. Format profile                           : Main High@L4@High
  6. HDR format                               : SMPTE ST 2086, HDR10 compatible
  7. Codec ID                                 : V_MPEGH/ISO/HEVC
  8. Duration                                 : 1 h 43 min
  9. Bit rate                                 : 40.9 Mb/s
  10. Width                                    : 3 840 pixels
  11. Height                                   : 2 160 pixels
  12. Display aspect ratio                     : 16:9
  13. Frame rate mode                          : Constant
  14. Frame rate                               : 23.976 (24000/1001/189150) FPS
  15. Color space                              : YUV
  16. Chroma subsampling                       : 4:2:0 (Type 2)
  17. Bit depth                                : 10 bits
  18. Bits/(Pixel*Frame)                       : 0.206
  19. Stream size                              : 29.7 GiB (78%)
  20. Title                                    : Monsters.University.2013.2160p.BluRay.REMUX.HEVC.TrueHD.7.1.Atmos-FGT
  21. Writing library                          : ATEME Titan File 3.9.0 (4.9.0.0)        
  22. Language                                 : English
  23. Default                                  : No
  24. Forced                                   : No
  25. Color range                              : Limited
  26. Color primaries                          : BT.2020
  27. Transfer characteristics                 : PQ
  28. Matrix coefficients                      : BT.2020 non-constant
  29. Mastering display color primaries        : Display P3
  30. Mastering display luminance              : min: 0.0000 cd/m2, max: 1000 cd/m2

  31. Audio #1
  32. ID                                       : 2
  33. Format                                   : MLP FBA 16-ch
  34. Format/Info                              : Meridian Lossless Packing FBA with 16-channel presentation
  35. Commercial name                          : Dolby TrueHD with Dolby Atmos
  36. Codec ID                                 : A_TRUEHD
  37. Duration                                 : 1 h 43 min
  38. Bit rate mode                            : Variable
  39. Bit rate                                 : 7 415 kb/s
  40. Maximum bit rate                         : 9 756 kb/s
  41. Channel(s)                               : 8 channels
  42. Channel layout                           : L R C LFE Ls Rs Lb Rb
  43. Sampling rate                            : 48.0 kHz
  44. Frame rate                               : 1 200.000 FPS (40 SPF)
  45. Compression mode                         : Lossless
  46. Stream size                              : 5.38 GiB (14%)
  47. Title                                    : Monsters.University.2013.2160p.BluRay.REMUX.HEVC.TrueHD.7.1.Atmos-FGT
  48. Language                                 : English
  49. Default                                  : Yes
  50. Forced                                   : No
  51. Number of dynamic objects                : 13
  52. Bed channel count                        : 1 channel
  53. Bed channel configuration                : LFE

  54. Audio #2
  55. ID                                       : 3
  56. Format                                   : AC-3
  57. Format/Info                              : Audio Coding 3
  58. Commercial name                          : Dolby Digital
  59. Codec ID                                 : A_AC3
  60. Duration                                 : 1 h 43 min
  61. Bit rate mode                            : Constant
  62. Bit rate                                 : 640 kb/s
  63. Channel(s)                               : 6 channels
  64. Channel layout                           : L R C LFE Ls Rs
  65. Sampling rate                            : 48.0 kHz
  66. Frame rate                               : 31.250 FPS (1536 SPF)
  67. Bit depth                                : 16 bits
  68. Compression mode                         : Lossy
  69. Stream size                              : 475 MiB (1%)
  70. Title                                    : Monsters.University.2013.2160p.BluRay.REMUX.HEVC.TrueHD.7.1.Atmos-FGT
  71. Language                                 : English
  72. Service kind                             : Complete Main
  73. Default                                  : No
  74. Forced                                   : No

  75. Audio #3
  76. ID                                       : 4
  77. Format                                   : E-AC-3
  78. Format/Info                              : Enhanced AC-3
  79. Commercial name                          : Dolby Digital Plus
  80. Format profile                           : Blu-ray Disc
  81. Codec ID                                 : A_EAC3
  82. Duration                                 : 1 h 43 min
  83. Bit rate mode                            : Constant
  84. Bit rate                                 : 1 024 kb/s
  85. Channel(s)                               : 8 channels
  86. Channel layout                           : L R C LFE Ls Rs Lb Rb
  87. Sampling rate                            : 48.0 kHz
  88. Frame rate                               : 31.250 FPS (1536 SPF)
  89. Compression mode                         : Lossy
  90. Stream size                              : 760 MiB (2%)
  91. Title                                    : Monsters.University.2013.2160p.BluRay.REMUX.HEVC.TrueHD.7.1.Atmos-FGT
  92. Language                                 : English
  93. Service kind                             : Complete Main
  94. Default                                  : No
  95. Forced                                   : No

  96. Audio #4
  97. ID                                       : 5
  98. Format                                   : AC-3
  99. Format/Info                              : Audio Coding 3
  100. Commercial name                          : Dolby Digital
  101. Codec ID                                 : A_AC3
  102. Duration                                 : 1 h 43 min
  103. Bit rate mode                            : Constant
  104. Bit rate                                 : 576 kb/s
  105. Channel(s)                               : 6 channels
  106. Channel layout                           : L R C LFE Ls Rs
  107. Sampling rate                            : 48.0 kHz
  108. Frame rate                               : 31.250 FPS (1536 SPF)
  109. Bit depth                                : 16 bits
  110. Compression mode                         : Lossy
  111. Stream size                              : 428 MiB (1%)
  112. Title                                    : Monsters.University.2013.2160p.BluRay.REMUX.HEVC.TrueHD.7.1.Atmos-FGT
  113. Language                                 : English
  114. Service kind                             : Complete Main
  115. Default                                  : No
  116. Forced                                   : No

  117. Audio #5
  118. ID                                       : 6
  119. Format                                   : AC-3
  120. Format/Info                              : Audio Coding 3
  121. Commercial name                          : Dolby Digital
  122. Codec ID                                 : A_AC3
  123. Duration                                 : 1 h 43 min
  124. Bit rate mode                            : Constant
  125. Bit rate                                 : 640 kb/s
  126. Channel(s)                               : 6 channels
  127. Channel layout                           : L R C LFE Ls Rs
  128. Sampling rate                            : 48.0 kHz
  129. Frame rate                               : 31.250 FPS (1536 SPF)
  130. Bit depth                                : 16 bits
  131. Compression mode                         : Lossy
  132. Stream size                              : 475 MiB (1%)
  133. Title                                    : Monsters.University.2013.2160p.BluRay.REMUX.HEVC.TrueHD.7.1.Atmos-FGT
  134. Language                                 : English
  135. Service kind                             : Complete Main
  136. Default                                  : No
  137. Forced                                   : No

  138. Audio #6
  139. ID                                       : 7
  140. Format                                   : AC-3
  141. Format/Info                              : Audio Coding 3
  142. Commercial name                          : Dolby Digital
  143. Codec ID                                 : A_AC3
  144. Duration                                 : 1 h 43 min
  145. Bit rate mode                            : Constant
  146. Bit rate                                 : 320 kb/s
  147. Channel(s)                               : 2 channels
  148. Channel layout                           : L R
  149. Sampling rate                            : 48.0 kHz
  150. Frame rate                               : 31.250 FPS (1536 SPF)
  151. Bit depth                                : 16 bits
  152. Compression mode                         : Lossy
  153. Stream size                              : 238 MiB (1%)
  154. Title                                    : Monsters.University.2013.2160p.BluRay.REMUX.HEVC.TrueHD.7.1.Atmos-FGT
  155. Language                                 : English
  156. Service kind                             : Complete Main
  157. Default                                  : No
  158. Forced                                   : No

  159. Audio #7
  160. ID                                       : 8
  161. Format                                   : AC-3
  162. Format/Info                              : Audio Coding 3
  163. Commercial name                          : Dolby Digital
  164. Codec ID                                 : A_AC3
  165. Duration                                 : 1 h 43 min
  166. Bit rate mode                            : Constant
  167. Bit rate                                 : 320 kb/s
  168. Channel(s)                               : 2 channels
  169. Channel layout                           : L R
  170. Sampling rate                            : 48.0 kHz
  171. Frame rate                               : 31.250 FPS (1536 SPF)
  172. Bit depth                                : 16 bits
  173. Compression mode                         : Lossy
  174. Stream size                              : 238 MiB (1%)
  175. Title                                    : Monsters.University.2013.2160p.BluRay.REMUX.HEVC.TrueHD.7.1.Atmos-FGT
  176. Language                                 : English
  177. Service kind                             : Complete Main
  178. Default                                  : No
  179. Forced                                   : No

  180. Audio #8
  181. ID                                       : 9
  182. Format                                   : AC-3
  183. Format/Info                              : Audio Coding 3
  184. Commercial name                          : Dolby Digital
  185. Codec ID                                 : A_AC3
  186. Duration                                 : 1 h 43 min
  187. Bit rate mode                            : Constant
  188. Bit rate                                 : 640 kb/s
  189. Channel(s)                               : 6 channels
  190. Channel layout                           : L R C LFE Ls Rs
  191. Sampling rate                            : 48.0 kHz
  192. Frame rate                               : 31.250 FPS (1536 SPF)
  193. Bit depth                                : 16 bits
  194. Compression mode                         : Lossy
  195. Stream size                              : 475 MiB (1%)
  196. Title                                    : Monsters.University.2013.2160p.BluRay.REMUX.HEVC.TrueHD.7.1.Atmos-FGT
  197. Language                                 : Spanish
  198. Service kind                             : Complete Main
  199. Default                                  : No
  200. Forced                                   : No

  201. Text #1
  202. ID                                       : 10
  203. Format                                   : UTF-8
  204. Codec ID                                 : S_TEXT/UTF8
  205. Codec ID/Info                            : UTF-8 Plain Text
  206. Duration                                 : 1 h 42 min
  207. Bit rate                                 : 59 b/s
  208. Count of elements                        : 1444
  209. Stream size                              : 44.2 KiB (0%)
  210. Title                                    : English-SRT
  211. Language                                 : English
  212. Default                                  : Yes
  213. Forced                                   : No

  214. Text #2
  215. ID                                       : 11
  216. Format                                   : PGS
  217. Muxing mode                              : zlib
  218. Codec ID                                 : S_HDMV/PGS
  219. Codec ID/Info                            : Picture based subtitle format used on BDs/HD-DVDs
  220. Duration                                 : 1 h 42 min
  221. Bit rate                                 : 47.6 kb/s
  222. Count of elements                        : 3714
  223. Stream size                              : 34.9 MiB (0%)
  224. Title                                    : English-PGS
  225. Language                                 : English
  226. Default                                  : No
  227. Forced                                   : No

  228. Text #3
  229. ID                                       : 12
  230. Format                                   : PGS
  231. Muxing mode                              : zlib
  232. Codec ID                                 : S_HDMV/PGS
  233. Codec ID/Info                            : Picture based subtitle format used on BDs/HD-DVDs
  234. Duration                                 : 1 h 42 min
  235. Bit rate                                 : 36.3 kb/s
  236. Count of elements                        : 2454
  237. Stream size                              : 26.6 MiB (0%)
  238. Title                                    : Spanish-PGS
  239. Language                                 : Spanish
  240. Default                                  : No
  241. Forced                                   : No

  242. Menu
  243. 00:00:00.000                             : en:Chapter 01
  244. 00:06:27.053                             : en:Chapter 02
  245. 00:07:07.552                             : en:Chapter 03
  246. 00:10:54.779                             : en:Chapter 04
  247. 00:12:20.614                             : en:Chapter 05
  248. 00:16:10.636                             : en:Chapter 06
  249. 00:18:15.928                             : en:Chapter 07
  250. 00:19:38.260                             : en:Chapter 08
  251. 00:21:07.391                             : en:Chapter 09
  252. 00:23:43.964                             : en:Chapter 10
  253. 00:29:23.219                             : en:Chapter 11
  254. 00:30:40.129                             : en:Chapter 12
  255. 00:33:38.766                             : en:Chapter 13
  256. 00:36:31.647                             : en:Chapter 14
  257. 00:38:20.089                             : en:Chapter 15
  258. 00:39:23.235                             : en:Chapter 16
  259. 00:45:14.461                             : en:Chapter 17
  260. 00:47:15.499                             : en:Chapter 18
  261. 00:51:08.565                             : en:Chapter 19
  262. 00:55:21.609                             : en:Chapter 20
  263. 00:57:30.989                             : en:Chapter 21
  264. 01:01:42.907                             : en:Chapter 22
  265. 01:04:38.249                             : en:Chapter 23
  266. 01:07:33.674                             : en:Chapter 24
  267. 01:14:11.989                             : en:Chapter 25
  268. 01:18:08.517                             : en:Chapter 26
  269. 01:19:26.386                             : en:Chapter 27
  270. 01:23:53.820                             : en:Chapter 28
  271. 01:24:39.199                             : en:Chapter 29
  272. 01:28:00.900                             : en:Chapter 30
  273. 01:32:52.024                             : en:Chapter 31
  274. 01:34:24.575                             : en:Chapter 32
复制代码

怪兽大学 Monsters.University.2013.2160p.BluRay.REMUX.HEVC.TrueHD.7.1.Atmos-FGT 38.15GB-1.png 怪兽大学 Monsters.University.2013.2160p.BluRay.REMUX.HEVC.TrueHD.7.1.Atmos-FGT 38.15GB-3.png 怪兽大学 Monsters.University.2013.2160p.BluRay.REMUX.HEVC.TrueHD.7.1.Atmos-FGT 38.15GB-2.png






回复

使用道具 举报

已抛锚 成长值: 3450

发表于 2020-3-4 17:18:58 | 显示全部楼层
谢谢分享!
回复

使用道具 举报

发表于 2020-3-5 09:23:14 | 显示全部楼层

楼主太厉害了!楼主,电影应该很好看我觉得蓝光电影网真是个好地方!
回复 支持 反对

使用道具 举报

发表于 2020-3-5 13:46:52 来自手机 | 显示全部楼层
支持你,,,,,,,
回复

使用道具 举报

发表于 2020-3-5 14:54:15 来自手机 | 显示全部楼层
谢谢分享!
回复

使用道具 举报

发表于 2020-3-6 12:59:21 | 显示全部楼层
楼主发贴辛苦了,谢谢楼主分享!我觉得蓝光电影网是注册对了!
回复 支持 反对

使用道具 举报

懒得打字嘛,点击右侧快捷回复 【右侧内容,后台自定义】
您需要登录后才可以回帖 登录 | 立即加入

本版积分规则

现在加入蓝光电影网,注册一个账号
上个主题 下个主题 快速回复 收藏帖子 返回列表 客服中心 搜索

手机版|小黑屋| 蓝光电影网 |网站地图 

Copyright © 2015-2019 Comsenz Inc.  Template by 蓝光电影论坛 All Rights Reserved.

Powered by 蓝光电影网 X3.4

特别声明:本站所有资源均由网上收集而来,版权归原影音公司所有,如果侵犯了你的权益,请通知我们,我们会及时删除侵权内容.

快速回复 返回顶部 返回列表