找回密码

蓝光电影网

查看: 955|回复: 34

[2160p-WEB] 爱尔兰人 The.Irishman.2019.2160p.NF.WEBRip.DDP5.1.Atmos.x264-NTb 68.61GB

[复制链接]

 成长值: 25285

发表于 2020-3-4 00:34:14 | 显示全部楼层 |阅读模式
爱尔兰人 The.Irishman.2019.2160p.NF.WEBRip.DDP5.1.Atmos.x264-NTb 68.61GB-1.png

译  名 爱尔兰人 / I Heard You Paint Houses / 听说你刷房子了 / 爱尔兰杀手(港)
片  名 The Irishman
年  代 2019
产  地 美国
类  别 剧情 / 传记 / 犯罪
语  言 英语 / 意大利语 / 拉丁语 / 西班牙语
上映日期 2019-09-27(纽约电影节) / 2019-11-01(美国点映) / 2019-11-27(美国网络)
IMDb评分  8.0/10 from 251883 users
IMDb链接  https://www.imdb.com/title/tt1302006
豆瓣评分 8.9/10 from 158364 users
豆瓣链接 https://movie.douban.com/subject/6981153/
片  长 209分钟
导  演 马丁·斯科塞斯 Martin Scorsese
编  剧 查尔斯·布兰特 Charles Brandt / 斯蒂文·泽里安 Steven Zaillian
主  演 罗伯特·德尼罗 Robert De Niro
       阿尔·帕西诺 Al Pacino
       乔·佩西 Joe Pesci
       安娜·帕奎因 Anna Paquin
       杰西·普莱蒙 Jesse Plemons
       哈威·凯特尔 Harvey Keitel
       斯蒂芬·格拉汉姆 Stephen Graham
       鲍比·坎纳瓦尔 Bobby Cannavale
       杰克·休斯顿 Jack Huston
       阿莱卡萨·帕拉迪诺 Aleksa Palladino
       凯瑟琳·纳杜奇 Kathrine Narducci
       多米尼克·隆巴多兹 Domenick Lombardozzi
       雷·罗马诺 Ray Romano
       塞巴斯蒂安·马尼斯科 Sebastian Maniscalco
       杰克·霍夫曼 Jake Hoffman
       保罗·本-维克托 Paul Ben-Victor
       斯蒂芬妮·库尔特祖巴 Stephanie Kurtzuba
       莎伦·菲弗 Sharon Pfeiffer
       路易斯·坎瑟米 Louis Cancelmi
       茵迪亚·恩能加 India Ennenga
       J.C.麦肯泽 J.C. MacKenzie
       巴里·普赖默斯 Barry Primus
       吉姆·诺顿 Jim Norton
       盖里·巴萨拉巴 Gary Basaraba
       玛格丽特·安妮·佛罗伦斯 Margaret Anne Florence
       约翰·斯库蒂 John Scurti
       约翰·塞纳迭姆博 John Cenatiempo
       大卫·阿隆·贝克 David Aaron Baker
       桃乐丝·麦卡锡 Doris McCarthy
       凯文·凯恩 Kevin Kane
       加里·帕斯托雷 Garry Pastore
       约瑟夫·罗素 Joseph Russo
       凯文·奥罗克 Kevin O'Rourke
       娜塔莎·罗曼诺娃 Natasha Romanova
       杰里米·卢克 Jeremy Luc
       凯莉·P·威廉姆斯 Kelly P. Williams
       詹妮弗·马奇 Jennifer Mudge
       保罗·鲍格才 Paul Borghese
       蒂姆·内夫 Tim Neff
       斯蒂芬·梅尔勒 Stephen Mailer
       克雷格·文森特 Craig Vincent
       比利·史密斯 Billy Smith
       布莱斯·科里根 Blaise Corrigan
       斯泰西·爱丽丝·科恩 Stacey Alyse Cohen
       吉诺·卡法雷利 Gino Cafarelli
       Larry Romano
       Robert Funaro
       Veronica Alicino
       Claudette Lali
       James Lorinz
       Ashley North
       Ken Sladyk
       Patrick Gallo


标  签 黑帮 | 犯罪 | 美国 | 传记 | 剧情 | 2019 | 人性 | Netflix

简  介  

  《爱尔兰人》为马丁·斯科塞斯执导的传奇巨制,罗伯特·德尼罗、阿尔·帕西诺和乔·佩西主演。通过二战老兵弗兰克·希兰的视角,讲述了战后美国有组织犯罪的故事。弗兰克·希兰是一名骗子和杀手,曾经在 20 世纪最恶名昭彰的人物身边工作。该电影跨越数十年,记录了美国历史上最大的悬案之一,即传奇工会领袖吉米·霍法失踪案,以宏大的故事之旅,展现有组织犯罪的隐秘通道:其内部运作、仇敌以及与主流政治的瓜葛。

获奖情况  

  第92届奥斯卡金像奖(2020)
  最佳影片(提名) 马丁·斯科塞斯 / 简·罗森塔尔 / 罗伯特·德尼罗 / 艾玛·特林格·科斯考夫
  最佳导演(提名) 马丁·斯科塞斯
  最佳男配角(提名) 阿尔·帕西诺 / 乔·佩西
  最佳改编剧本(提名) 斯蒂文·泽里安
  最佳摄影(提名) 罗德里戈·普列托
  最佳剪辑(提名) 塞尔玛·斯昆梅克
  最佳视觉效果(提名) 莱安德罗·埃斯特贝比科纳 / 斯蒂芬·雷克 / 巴勃罗·赫尔曼 / 内尔森·塞普维达
  最佳艺术指导(提名)
  最佳服装设计(提名) 桑迪·鲍威尔 / 克里斯托弗·彼得森

  第77届金球奖(2020)
  电影类 最佳剧情片(提名)
  电影类 最佳导演(提名) 马丁·斯科塞斯
  电影类 最佳男配角(提名) 阿尔·帕西诺 / 乔·佩西
  电影类 最佳编剧(提名) 斯蒂文·泽里安

  第73届英国电影学院奖(2020)
  电影奖 最佳影片(提名)
  电影奖 最佳导演(提名) 马丁·斯科塞斯
  电影奖 最佳男配角(提名) 阿尔·帕西诺 / 乔·佩西
  电影奖 最佳改编剧本(提名) 斯蒂文·泽里安
  电影奖 最佳摄影(提名) 罗德里戈·普列托
  电影奖 最佳剪辑(提名) 塞尔玛·斯昆梅克
  电影奖 最佳服装设计(提名) 桑迪·鲍威尔 / 克里斯托弗·彼得森
  电影奖 最佳艺术指导(提名) 鲍勃·肖 / 里贾纳·格雷夫斯
  电影奖 最佳特殊视觉效果(提名)

  第72届美国导演工会奖(2020)
  最佳电影导演(提名) 马丁·斯科塞斯

  第26届美国演员工会奖(2020)
  电影奖 最佳男配角(提名) 阿尔·帕西诺 / 乔·佩西
  电影奖 最佳群戏(提名)
  电影最佳特技群戏(提名)

  第72届美国编剧工会奖(2020)
  电影奖 最佳改编剧本(提名) 斯蒂文·泽里安

  第31届美国制片人工会奖(2020)
  最佳电影制片人奖(提名)

  第34届美国摄影协会奖(2020)
  电影长片最佳摄影(提名) 罗德里戈·普列托

  第70届美国剪辑工会奖(2020)
  剧情片最佳剪辑(提名) 塞尔玛·斯昆梅克

  第24届美国艺术指导工会奖(2020)
  电影奖 最佳历史电影艺术指导(提名) 鲍勃·肖

  第7届美国化妆及发型设计工会奖(2020)
  电影类最佳特效化妆(提名)

  第67届美国音效剪辑协会奖(2020)
  金卷轴奖 最佳电影对白剪辑(提名)

  第18届美国视觉效果协会奖(2020)
  最佳电影辅助视觉效果
  最佳电影视觉效果合成

  第56届美国声音效果协会奖(2020)
  真人电影最佳音效(提名)

  第85届纽约影评人协会奖(2019)
  最佳影片
  最佳男配角 乔·佩西

  第91届美国国家评论协会奖(2019)
  最佳影片
  最佳改编剧本 斯蒂文·泽里安

  第25届美国评论家选择电影奖(2020)
  最佳影片(提名)
  最佳导演(提名) 马丁·斯科塞斯
  最佳男主角(提名) 罗伯特·德尼罗
  最佳男配角(提名) 阿尔·帕西诺 / 乔·佩西
  最佳群戏
  最佳改编剧本(提名) 斯蒂文·泽里安
  最佳摄影(提名)
  最佳剪辑(提名)
  最佳配乐(提名)
  最佳美术指导(提名)
  最佳服装设计(提名)
  最佳发型化妆(提名)
  最佳视觉效果(提名)

  第20届美国电影学会奖(2019)
  年度佳片

  第24届金卫星奖(2020)
  电影部门 最佳男配角(提名) 乔·佩西
  电影部门 最佳改编剧本(提名) 斯蒂文·泽里安
  电影部门 最佳原创配乐(提名)
  电影部门 最佳摄影(提名)
  电影部门 最佳视觉效果(提名)
  电影部门 最佳剪辑(提名)

  第23届好莱坞电影奖(2019)
  年度男配角 阿尔·帕西诺
  年度视觉效果 巴勃罗·赫尔曼

  第54届美国国家影评人协会奖(2020)
  最佳导演(提名) 马丁·斯科塞斯
  最佳男配角(提名) 乔·佩西

  第40届伦敦影评人协会奖(2020)
  年度电影(提名)
  年度导演(提名) 马丁·斯科塞斯
  年度编剧(提名) 斯蒂文·泽里安
  年度男主角(提名) 罗伯特·德尼罗
  年度男配角(提名) 阿尔·帕西诺 / 乔·佩西

  第40届波士顿影评人协会奖(2019)
  最佳男配角(提名) 乔·佩西
  最佳剪辑 塞尔玛·斯昆梅克

  第45届洛杉矶影评人协会奖(2019)
  最佳影片(提名)
  最佳导演(提名) 马丁·斯科塞斯
  最佳男配角(提名) 乔·佩西

  第32届芝加哥影评人协会奖(2019)
  最佳影片(提名)
  最佳导演(提名) 马丁·斯科塞斯
  最佳男主角(提名) 罗伯特·德尼罗
  最佳男配角(提名) 阿尔·帕西诺 / 乔·佩西
  最佳改编剧本(提名) 斯蒂文·泽里安
  最佳剪辑(提名)
  最佳视觉效果(提名)

  第13届底特律影评人协会奖(2019)
  最佳导演 马丁·斯科塞斯
  最佳男配角 乔·佩西

  第4届亚特兰大影评人协会奖(2019)
  十佳影片
  最佳群戏

  第23届美国在线影评人协会奖(2020)
  最佳影片(提名)
  最佳导演(提名) 马丁·斯科塞斯
  最佳男主角(提名) 罗伯特·德尼罗
  最佳男配角(提名) 阿尔·帕西诺 / 乔·佩西
  最佳改编剧本 斯蒂文·泽里安
  最佳剪辑(提名) 塞尔玛·斯昆梅克
  最佳摄影(提名) 罗德里戈·普列托

  第6届豆瓣电影年度榜单(2019)
  年度冷门佳片

  第5届豆瓣电影年度榜单(2018)
  最值得期待的外语电影(提名)
  1. Video
  2. ID                                       : 1
  3. Format                                   : AVC
  4. Format/Info                              : Advanced Video Codec
  5. Format profile                           : High@L4
  6. Format settings                          : CABAC / 5 Ref Frames
  7. Format settings, CABAC                   : Yes
  8. Format settings, Reference frames        : 5 frames
  9. Codec ID                                 : V_MPEG4/ISO/AVC
  10. Duration                                 : 3 h 29 min
  11. Bit rate                                 : 46.1 Mb/s
  12. Width                                    : 3 840 pixels
  13. Height                                   : 2 076 pixels
  14. Display aspect ratio                     : 1.85:1
  15. Frame rate mode                          : Constant
  16. Frame rate                               : 24.000 FPS
  17. Color space                              : YUV
  18. Chroma subsampling                       : 4:2:0
  19. Bit depth                                : 8 bits
  20. Scan type                                : Progressive
  21. Bits/(Pixel*Frame)                       : 0.241
  22. Stream size                              : 67.5 GiB (98%)
  23. Writing library                          : x264 core 157 r2969 d4099dd
  24. Encoding settings                        : cabac=1 / ref=5 / deblock=1:-3:-3 / analyse=0x3:0x133 / me=umh / subme=10 / psy=1 / psy_rd=1.00:0.15 / mixed_ref=1 / me_range=48 / chroma_me=1 / trellis=2 / 8x8dct=1 / cqm=0 / deadzone=21,11 / fast_pskip=0 / chroma_qp_offset=-3 / threads=24 / lookahead_threads=4 / sliced_threads=0 / nr=0 / decimate=0 / interlaced=0 / bluray_compat=0 / constrained_intra=0 / bframes=8 / b_pyramid=2 / b_adapt=2 / b_bias=0 / direct=3 / weightb=1 / open_gop=0 / weightp=2 / keyint=250 / keyint_min=24 / scenecut=40 / intra_refresh=0 / rc=crf / mbtree=0 / crf=20.0 / qcomp=0.60 / qpmin=0 / qpmax=69 / qpstep=4 / ip_ratio=1.30 / pb_ratio=1.20 / aq=3:0.80
  25. Language                                 : English
  26. Default                                  : Yes
  27. Forced                                   : No

  28. Audio
  29. ID                                       : 2
  30. Format                                   : E-AC-3 JOC
  31. Format/Info                              : Enhanced AC-3 with Joint Object Coding
  32. Commercial name                          : Dolby Digital Plus with Dolby Atmos
  33. Codec ID                                 : A_EAC3
  34. Duration                                 : 3 h 29 min
  35. Bit rate mode                            : Constant
  36. Bit rate                                 : 768 kb/s
  37. Channel(s)                               : 6 channels
  38. Channel layout                           : L R C LFE Ls Rs
  39. Sampling rate                            : 48.0 kHz
  40. Frame rate                               : 31.250 FPS (1536 SPF)
  41. Compression mode                         : Lossy
  42. Stream size                              : 1.12 GiB (2%)
  43. Title                                    : English
  44. Language                                 : English
  45. Service kind                             : Complete Main
  46. Default                                  : Yes
  47. Forced                                   : No
  48. Complexity index                         : 16
  49. Number of dynamic objects                : 15
  50. Bed channel count                        : 1 channel
  51. Bed channel configuration                : LFE

  52. Text #1
  53. ID                                       : 3
  54. Format                                   : UTF-8
  55. Codec ID                                 : S_TEXT/UTF8
  56. Codec ID/Info                            : UTF-8 Plain Text
  57. Duration                                 : 57 s 292 ms
  58. Bit rate                                 : 47 b/s
  59. Count of elements                        : 17
  60. Stream size                              : 343 Bytes (0%)
  61. Title                                    : Forced
  62. Language                                 : English
  63. Default                                  : Yes
  64. Forced                                   : Yes

  65. Text #2
  66. ID                                       : 4
  67. Format                                   : UTF-8
  68. Codec ID                                 : S_TEXT/UTF8
  69. Codec ID/Info                            : UTF-8 Plain Text
  70. Duration                                 : 3 h 20 min
  71. Bit rate                                 : 89 b/s
  72. Count of elements                        : 3813
  73. Stream size                              : 131 KiB (0%)
  74. Title                                    : SDH
  75. Language                                 : English
  76. Default                                  : No
  77. Forced                                   : No

  78. Text #3
  79. ID                                       : 5
  80. Format                                   : UTF-8
  81. Codec ID                                 : S_TEXT/UTF8
  82. Codec ID/Info                            : UTF-8 Plain Text
  83. Duration                                 : 3 h 28 min
  84. Bit rate                                 : 94 b/s
  85. Count of elements                        : 2980
  86. Stream size                              : 144 KiB (0%)
  87. Language                                 : Arabic
  88. Default                                  : No
  89. Forced                                   : No

  90. Text #4
  91. ID                                       : 6
  92. Format                                   : UTF-8
  93. Codec ID                                 : S_TEXT/UTF8
  94. Codec ID/Info                            : UTF-8 Plain Text
  95. Duration                                 : 3 h 28 min
  96. Bit rate                                 : 61 b/s
  97. Count of elements                        : 2974
  98. Stream size                              : 94.1 KiB (0%)
  99. Language                                 : Czech
  100. Default                                  : No
  101. Forced                                   : No

  102. Text #5
  103. ID                                       : 7
  104. Format                                   : UTF-8
  105. Codec ID                                 : S_TEXT/UTF8
  106. Codec ID/Info                            : UTF-8 Plain Text
  107. Duration                                 : 3 h 28 min
  108. Bit rate                                 : 60 b/s
  109. Count of elements                        : 2960
  110. Stream size                              : 92.3 KiB (0%)
  111. Language                                 : Danish
  112. Default                                  : No
  113. Forced                                   : No

  114. Text #6
  115. ID                                       : 8
  116. Format                                   : UTF-8
  117. Codec ID                                 : S_TEXT/UTF8
  118. Codec ID/Info                            : UTF-8 Plain Text
  119. Duration                                 : 3 h 28 min
  120. Bit rate                                 : 65 b/s
  121. Count of elements                        : 2982
  122. Stream size                              : 99.9 KiB (0%)
  123. Language                                 : German
  124. Default                                  : No
  125. Forced                                   : No

  126. Text #7
  127. ID                                       : 9
  128. Format                                   : UTF-8
  129. Codec ID                                 : S_TEXT/UTF8
  130. Codec ID/Info                            : UTF-8 Plain Text
  131. Duration                                 : 3 h 28 min
  132. Bit rate                                 : 106 b/s
  133. Count of elements                        : 2978
  134. Stream size                              : 163 KiB (0%)
  135. Language                                 : Greek
  136. Default                                  : No
  137. Forced                                   : No

  138. Text #8
  139. ID                                       : 10
  140. Format                                   : UTF-8
  141. Codec ID                                 : S_TEXT/UTF8
  142. Codec ID/Info                            : UTF-8 Plain Text
  143. Duration                                 : 3 h 27 min
  144. Bit rate                                 : 72 b/s
  145. Count of elements                        : 3089
  146. Stream size                              : 111 KiB (0%)
  147. Language                                 : Spanish
  148. Default                                  : No
  149. Forced                                   : No

  150. Text #9
  151. ID                                       : 11
  152. Format                                   : UTF-8
  153. Codec ID                                 : S_TEXT/UTF8
  154. Codec ID/Info                            : UTF-8 Plain Text
  155. Duration                                 : 3 h 19 min
  156. Bit rate                                 : 67 b/s
  157. Count of elements                        : 2716
  158. Stream size                              : 98.9 KiB (0%)
  159. Title                                    : European
  160. Language                                 : Spanish
  161. Default                                  : No
  162. Forced                                   : No

  163. Text #10
  164. ID                                       : 12
  165. Format                                   : UTF-8
  166. Codec ID                                 : S_TEXT/UTF8
  167. Codec ID/Info                            : UTF-8 Plain Text
  168. Duration                                 : 3 h 28 min
  169. Bit rate                                 : 59 b/s
  170. Count of elements                        : 2966
  171. Stream size                              : 90.0 KiB (0%)
  172. Language                                 : Finnish
  173. Default                                  : No
  174. Forced                                   : No

  175. Text #11
  176. ID                                       : 13
  177. Format                                   : UTF-8
  178. Codec ID                                 : S_TEXT/UTF8
  179. Codec ID/Info                            : UTF-8 Plain Text
  180. Duration                                 : 3 h 22 min
  181. Bit rate                                 : 61 b/s
  182. Count of elements                        : 3221
  183. Stream size                              : 90.5 KiB (0%)
  184. Language                                 : French
  185. Default                                  : No
  186. Forced                                   : No

  187. Text #12
  188. ID                                       : 14
  189. Format                                   : UTF-8
  190. Codec ID                                 : S_TEXT/UTF8
  191. Codec ID/Info                            : UTF-8 Plain Text
  192. Duration                                 : 3 h 28 min
  193. Bit rate                                 : 95 b/s
  194. Count of elements                        : 2980
  195. Stream size                              : 145 KiB (0%)
  196. Language                                 : Hebrew
  197. Default                                  : No
  198. Forced                                   : No

  199. Text #13
  200. ID                                       : 15
  201. Format                                   : UTF-8
  202. Codec ID                                 : S_TEXT/UTF8
  203. Codec ID/Info                            : UTF-8 Plain Text
  204. Duration                                 : 3 h 28 min
  205. Bit rate                                 : 60 b/s
  206. Count of elements                        : 2956
  207. Stream size                              : 91.5 KiB (0%)
  208. Language                                 : Hungarian
  209. Default                                  : No
  210. Forced                                   : No

  211. Text #14
  212. ID                                       : 16
  213. Format                                   : UTF-8
  214. Codec ID                                 : S_TEXT/UTF8
  215. Codec ID/Info                            : UTF-8 Plain Text
  216. Duration                                 : 3 h 28 min
  217. Bit rate                                 : 64 b/s
  218. Count of elements                        : 2970
  219. Stream size                              : 97.8 KiB (0%)
  220. Language                                 : Indonesian
  221. Default                                  : No
  222. Forced                                   : No

  223. Text #15
  224. ID                                       : 17
  225. Format                                   : UTF-8
  226. Codec ID                                 : S_TEXT/UTF8
  227. Codec ID/Info                            : UTF-8 Plain Text
  228. Duration                                 : 3 h 21 min
  229. Bit rate                                 : 56 b/s
  230. Count of elements                        : 2690
  231. Stream size                              : 83.2 KiB (0%)
  232. Language                                 : Italian
  233. Default                                  : No
  234. Forced                                   : No

  235. Text #16
  236. ID                                       : 18
  237. Format                                   : UTF-8
  238. Codec ID                                 : S_TEXT/UTF8
  239. Codec ID/Info                            : UTF-8 Plain Text
  240. Duration                                 : 3 h 22 min
  241. Bit rate                                 : 55 b/s
  242. Count of elements                        : 2628
  243. Stream size                              : 82.9 KiB (0%)
  244. Language                                 : Japanese
  245. Default                                  : No
  246. Forced                                   : No

  247. Text #17
  248. ID                                       : 19
  249. Format                                   : UTF-8
  250. Codec ID                                 : S_TEXT/UTF8
  251. Codec ID/Info                            : UTF-8 Plain Text
  252. Duration                                 : 3 h 28 min
  253. Bit rate                                 : 63 b/s
  254. Count of elements                        : 2978
  255. Stream size                              : 96.1 KiB (0%)
  256. Language                                 : Korean
  257. Default                                  : No
  258. Forced                                   : No

  259. Text #18
  260. ID                                       : 20
  261. Format                                   : UTF-8
  262. Codec ID                                 : S_TEXT/UTF8
  263. Codec ID/Info                            : UTF-8 Plain Text
  264. Duration                                 : 3 h 28 min
  265. Bit rate                                 : 58 b/s
  266. Count of elements                        : 2970
  267. Stream size                              : 89.3 KiB (0%)
  268. Language                                 : Norwegian Bokmal
  269. Default                                  : No
  270. Forced                                   : No

  271. Text #19
  272. ID                                       : 21
  273. Format                                   : UTF-8
  274. Codec ID                                 : S_TEXT/UTF8
  275. Codec ID/Info                            : UTF-8 Plain Text
  276. Duration                                 : 3 h 28 min
  277. Bit rate                                 : 56 b/s
  278. Count of elements                        : 2943
  279. Stream size                              : 85.5 KiB (0%)
  280. Language                                 : Dutch
  281. Default                                  : No
  282. Forced                                   : No

  283. Text #20
  284. ID                                       : 22
  285. Format                                   : UTF-8
  286. Codec ID                                 : S_TEXT/UTF8
  287. Codec ID/Info                            : UTF-8 Plain Text
  288. Duration                                 : 3 h 28 min
  289. Bit rate                                 : 55 b/s
  290. Count of elements                        : 2959
  291. Stream size                              : 84.4 KiB (0%)
  292. Language                                 : Polish
  293. Default                                  : No
  294. Forced                                   : No

  295. Text #21
  296. ID                                       : 23
  297. Format                                   : UTF-8
  298. Codec ID                                 : S_TEXT/UTF8
  299. Codec ID/Info                            : UTF-8 Plain Text
  300. Duration                                 : 3 h 28 min
  301. Bit rate                                 : 66 b/s
  302. Count of elements                        : 2966
  303. Stream size                              : 101 KiB (0%)
  304. Language                                 : Portuguese
  305. Default                                  : No
  306. Forced                                   : No

  307. Text #22
  308. ID                                       : 24
  309. Format                                   : UTF-8
  310. Codec ID                                 : S_TEXT/UTF8
  311. Codec ID/Info                            : UTF-8 Plain Text
  312. Duration                                 : 3 h 28 min
  313. Bit rate                                 : 64 b/s
  314. Count of elements                        : 2973
  315. Stream size                              : 97.9 KiB (0%)
  316. Title                                    : Brazilian
  317. Language                                 : Portuguese
  318. Default                                  : No
  319. Forced                                   : No

  320. Text #23
  321. ID                                       : 25
  322. Format                                   : UTF-8
  323. Codec ID                                 : S_TEXT/UTF8
  324. Codec ID/Info                            : UTF-8 Plain Text
  325. Duration                                 : 3 h 28 min
  326. Bit rate                                 : 64 b/s
  327. Count of elements                        : 2971
  328. Stream size                              : 98.6 KiB (0%)
  329. Language                                 : Romanian
  330. Default                                  : No
  331. Forced                                   : No

  332. Text #24
  333. ID                                       : 26
  334. Format                                   : UTF-8
  335. Codec ID                                 : S_TEXT/UTF8
  336. Codec ID/Info                            : UTF-8 Plain Text
  337. Duration                                 : 3 h 28 min
  338. Bit rate                                 : 97 b/s
  339. Count of elements                        : 2973
  340. Stream size                              : 148 KiB (0%)
  341. Language                                 : Russian
  342. Default                                  : No
  343. Forced                                   : No

  344. Text #25
  345. ID                                       : 27
  346. Format                                   : UTF-8
  347. Codec ID                                 : S_TEXT/UTF8
  348. Codec ID/Info                            : UTF-8 Plain Text
  349. Duration                                 : 3 h 28 min
  350. Bit rate                                 : 65 b/s
  351. Count of elements                        : 2966
  352. Stream size                              : 100 KiB (0%)
  353. Language                                 : Swedish
  354. Default                                  : No
  355. Forced                                   : No

  356. Text #26
  357. ID                                       : 28
  358. Format                                   : UTF-8
  359. Codec ID                                 : S_TEXT/UTF8
  360. Codec ID/Info                            : UTF-8 Plain Text
  361. Duration                                 : 3 h 28 min
  362. Bit rate                                 : 152 b/s
  363. Count of elements                        : 2984
  364. Stream size                              : 232 KiB (0%)
  365. Language                                 : Thai
  366. Default                                  : No
  367. Forced                                   : No

  368. Text #27
  369. ID                                       : 29
  370. Format                                   : UTF-8
  371. Codec ID                                 : S_TEXT/UTF8
  372. Codec ID/Info                            : UTF-8 Plain Text
  373. Duration                                 : 3 h 28 min
  374. Bit rate                                 : 62 b/s
  375. Count of elements                        : 2976
  376. Stream size                              : 95.1 KiB (0%)
  377. Language                                 : Turkish
  378. Default                                  : No
  379. Forced                                   : No

  380. Text #28
  381. ID                                       : 30
  382. Format                                   : UTF-8
  383. Codec ID                                 : S_TEXT/UTF8
  384. Codec ID/Info                            : UTF-8 Plain Text
  385. Duration                                 : 3 h 28 min
  386. Bit rate                                 : 76 b/s
  387. Count of elements                        : 2977
  388. Stream size                              : 117 KiB (0%)
  389. Language                                 : Vietnamese
  390. Default                                  : No
  391. Forced                                   : No

  392. Text #29
  393. ID                                       : 31
  394. Format                                   : UTF-8
  395. Codec ID                                 : S_TEXT/UTF8
  396. Codec ID/Info                            : UTF-8 Plain Text
  397. Duration                                 : 3 h 28 min
  398. Bit rate                                 : 59 b/s
  399. Count of elements                        : 2980
  400. Stream size                              : 90.1 KiB (0%)
  401. Title                                    : Simplified
  402. Language                                 : Chinese
  403. Default                                  : No
  404. Forced                                   : No

  405. Text #30
  406. ID                                       : 32
  407. Format                                   : UTF-8
  408. Codec ID                                 : S_TEXT/UTF8
  409. Codec ID/Info                            : UTF-8 Plain Text
  410. Duration                                 : 3 h 28 min
  411. Bit rate                                 : 53 b/s
  412. Count of elements                        : 2980
  413. Stream size                              : 81.1 KiB (0%)
  414. Title                                    : Traditional
  415. Language                                 : Chinese
  416. Default                                  : No
  417. Forced                                   : No
复制代码

爱尔兰人 The.Irishman.2019.2160p.NF.WEBRip.DDP5.1.Atmos.x264-NTb 68.61GB-2.png 爱尔兰人 The.Irishman.2019.2160p.NF.WEBRip.DDP5.1.Atmos.x264-NTb 68.61GB-3.png 爱尔兰人 The.Irishman.2019.2160p.NF.WEBRip.DDP5.1.Atmos.x264-NTb 68.61GB-1.png






回复

使用道具 举报

发表于 2020-3-4 07:10:39 | 显示全部楼层
The.Irishman.2019.2160p.NF.WEBRip.DDP5.1.Atmos.x264-NTb 68.61GB
高级模式
回复 支持 反对

使用道具 举报

 成长值: 2710

发表于 2020-3-4 08:18:51 | 显示全部楼层
爱尔兰杀手4k
回复 支持 反对

使用道具 举报

发表于 2020-3-4 08:52:37 | 显示全部楼层
楼主发贴辛苦了,谢谢楼主分享!我觉得蓝光电影网是注册对了!
回复 支持 反对

使用道具 举报

发表于 2020-3-4 08:53:08 | 显示全部楼层
楼主发贴辛苦了,谢谢楼主分享!我觉得蓝光电影网是注册对了!
回复 支持 反对

使用道具 举报

发表于 2020-3-4 09:03:22 | 显示全部楼层
楼主发贴辛苦了,谢谢楼主分享!我觉得蓝光电影网是注册对了!
回复 支持 反对

使用道具 举报

发表于 2020-3-4 09:07:28 | 显示全部楼层
简直不要太好看
回复 支持 反对

使用道具 举报

发表于 2020-3-4 09:31:38 | 显示全部楼层
楼主发贴辛苦了,谢谢楼主分享!我觉得蓝光电影网是注册对了!
回复 支持 反对

使用道具 举报

发表于 2020-3-4 12:08:18 | 显示全部楼层
感谢分享
回复

使用道具 举报

发表于 2020-3-4 13:12:52 | 显示全部楼层

这东西我收了!谢谢楼主!蓝光电影网真好!
回复 支持 反对

使用道具 举报

懒得打字嘛,点击右侧快捷回复 【右侧内容,后台自定义】
您需要登录后才可以回帖 登录 | 立即加入

本版积分规则

现在加入蓝光电影网,注册一个账号
上个主题 下个主题 快速回复 收藏帖子 返回列表 客服中心 搜索

手机版|小黑屋| 蓝光电影网 |网站地图 

Copyright © 2015-2019 Comsenz Inc.  Template by 蓝光电影论坛 All Rights Reserved.

Powered by 蓝光电影网 X3.4

特别声明:本站所有资源均由网上收集而来,版权归原影音公司所有,如果侵犯了你的权益,请通知我们,我们会及时删除侵权内容.

快速回复 返回顶部 返回列表