找回密码

蓝光电影网

查看: 5613|回复: 183

[剧情片] 理查德·朱维尔的哀歌 Richard.Jewell.2019.1080p.WEB-DL.DD5.1.H264-FGT 4.48GB

  [复制链接]

 成长值: 26800

发表于 2020-3-3 17:33:13 | 显示全部楼层 |阅读模式
理查德·朱维尔的哀歌 Richard.Jewell.2019.1080p.WEB-DL.DD5.1.H264-FGT 4.48GB-1.png

译  名 理查德·朱维尔的哀歌 / American Nightmare / American Nightmare: The Ballad of Richard Jewell / The Ballad of Richard Jewell / 李察朱威尔事件(台) / 李察朱维尔:惊世疑案(港) / 理查德·朱厄尔 / 理查德·朱厄尔的悲歌 / 理查德·朱厄尔的歌谣 / 理查德·朱维尔的歌谣 / 理查德·杰威尔的歌谣 / 美国噩梦
片  名 Richard Jewell
年  代 2019
产  地 美国
类  别 剧情
语  言 英语
上映日期 2019-11-20(AFI Fest) / 2019-12-13(美国) / 2020-01-10(中国大陆)
IMDb评分  7.5/10 from 18754 users
IMDb链接  https://www.imdb.com/title/tt3513548
豆瓣评分 8.3/10 from 36707 users
豆瓣链接 https://movie.douban.com/subject/25842038/
片  长 131分钟
导  演 克林特·伊斯特伍德 Clint Eastwood
编  剧 玛丽·布伦纳 Marie Brenner / 比利·雷 Billy Ray
主  演 保罗·沃尔特·豪泽 Paul Walter Hauser
       山姆·洛克威尔 Sam Rockwell
       凯西·贝茨 Kathy Bates
       奥利维亚·王尔德 Olivia Wilde
       乔恩·哈姆 Jon Hamm
       妮娜·阿里安达 Nina Arianda
       伊恩·戈麦斯 Ian Gomez
       兰德尔·P·海文斯 Randall P. Havens
       韦恩·杜瓦尔 Wayne Duvall
       亚历克斯·柯林斯 Alex Collins
       迈克·普涅夫斯基 Mike Pniewski
       米切尔·霍格 Mitchell Hoog
       大卫·莫拉蒂 David Moretti
       比利·斯洛特 Billy Slaughter
       迪伦·库斯曼 Dylan Kussman
       肯德里克·克罗斯 Kendrick Cross
       施奎塔·詹姆斯 Shiquita James
       吉尔-米歇尔·梅里恩 Jill-Michele Melean
       大卫·安 David An
       查尔斯·格林 Charles Green
       大卫·伦格尔 David Lengel
       马洛里·霍夫 Mallory Hoff
       罗伯特·廷斯利 Robert Tinsley
       约翰·盖蒂尔 John Gettier
       本杰明·韦弗 Benjamin Weaver
       德克斯特·蒂利什 Dexter Tillis
       布兰登·斯坦利 Brandon Stanley
       瑞安·博兹 Ryan Boz


标  签 真实事件改编 | 美国 | 人性 | 剧情 | 传记 | 2019 | 犯罪 | 媒体

简  介  

  影片改编自真实事件,理查德·朱维尔作为1996年亚特兰大奥运会爆炸案中发现炸弹装置的保安,而被全世界所熟知。当时他迅速采取行动,拯救了无数生命而成为英雄。但在几天之内,情况就急转直下,梦想成为执法者的他遭受媒体和公众的诽谤,竟成为联邦调查局的头号嫌疑犯,陷入了前所未有的 困境。朱维尔向独立律师沃森·布莱恩特寻求帮助,坚定地宣称自己无罪。然而,在为朱维尔洗脱罪名的过程中,布莱恩特发现自己对抗的是联邦调查局、佐治亚州调查局和警方的联合阻力;与此同时,他也不断提醒理查德不要相信任何试图毁灭他的人……

获奖情况  

  第92届奥斯卡金像奖(2020)
  最佳女配角(提名) 凯西·贝茨

  第77届金球奖(2020)
  电影类 最佳女配角(提名) 凯西·贝茨

  第91届美国国家评论协会奖(2019)
  最佳女配角 凯西·贝茨
  最佳新人演员 保罗·沃尔特·豪泽
  年度佳片

  第20届美国电影学会奖(2019)
  年度佳片
  1. Video
  2. ID                                       : 1
  3. Format                                   : AVC
  4. Format/Info                              : Advanced Video Codec
  5. Format profile                           : High@L4
  6. Format settings                          : CABAC / 5 Ref Frames
  7. Format settings, CABAC                   : Yes
  8. Format settings, Reference frames        : 5 frames
  9. Codec ID                                 : V_MPEG4/ISO/AVC
  10. Duration                                 : 2 h 10 min
  11. Bit rate                                 : 4 515 kb/s
  12. Width                                    : 1 920 pixels
  13. Height                                   : 804 pixels
  14. Display aspect ratio                     : 2.40:1
  15. Frame rate mode                          : Constant
  16. Frame rate                               : 23.976 FPS
  17. Color space                              : YUV
  18. Chroma subsampling                       : 4:2:0
  19. Bit depth                                : 8 bits
  20. Scan type                                : Progressive
  21. Bits/(Pixel*Frame)                       : 0.122
  22. Stream size                              : 4.13 GiB (92%)
  23. Title                                    : Richard.Jewell.2019.1080p.WEB-DL.DD5.1.H264-FGT
  24. Language                                 : English
  25. Default                                  : Yes
  26. Forced                                   : No
  27. Color range                              : Limited
  28. Color primaries                          : BT.709
  29. Transfer characteristics                 : BT.709
  30. Matrix coefficients                      : BT.709

  31. Audio
  32. ID                                       : 2
  33. Format                                   : AC-3
  34. Format/Info                              : Audio Coding 3
  35. Commercial name                          : Dolby Digital
  36. Codec ID                                 : A_AC3
  37. Duration                                 : 2 h 10 min
  38. Bit rate mode                            : Constant
  39. Bit rate                                 : 384 kb/s
  40. Channel(s)                               : 6 channels
  41. Channel layout                           : L R C LFE Ls Rs
  42. Sampling rate                            : 48.0 kHz
  43. Frame rate                               : 31.250 FPS (1536 SPF)
  44. Bit depth                                : 16 bits
  45. Compression mode                         : Lossy
  46. Stream size                              : 360 MiB (8%)
  47. Title                                    : Richard.Jewell.2019.1080p.WEB-DL.DD5.1.H264-FGT
  48. Language                                 : English
  49. Service kind                             : Complete Main
  50. Default                                  : Yes
  51. Forced                                   : No

  52. Text
  53. ID                                       : 3
  54. Format                                   : UTF-8
  55. Codec ID                                 : S_TEXT/UTF8
  56. Codec ID/Info                            : UTF-8 Plain Text
  57. Duration                                 : 2 h 3 min
  58. Bit rate                                 : 77 b/s
  59. Count of elements                        : 2125
  60. Stream size                              : 70.1 KiB (0%)
  61. Language                                 : English
  62. Default                                  : Yes
  63. Forced                                   : No

  64. Menu
  65. 00:00:00.000                             : en:1
  66. 00:09:50.965                             : en:2
  67. 00:20:02.951                             : en:3
  68. 00:29:54.459                             : en:4
  69. 00:40:02.525                             : en:5
  70. 00:48:20.396                             : en:6
  71. 00:57:51.884                             : en:7
  72. 01:06:34.907                             : en:8
  73. 01:14:33.635                             : en:9
  74. 01:24:32.734                             : en:10
  75. 01:34:03.428                             : en:11
  76. 01:44:00.690                             : en:12
  77. 01:52:19.522                             : en:13
  78. 02:02:27.880                             : en:14
  79. 02:04:52.690                             : en:15
复制代码

理查德·朱维尔的哀歌 Richard.Jewell.2019.1080p.WEB-DL.DD5.1.H264-FGT 4.48GB-1.png 理查德·朱维尔的哀歌 Richard.Jewell.2019.1080p.WEB-DL.DD5.1.H264-FGT 4.48GB-3.png 理查德·朱维尔的哀歌 Richard.Jewell.2019.1080p.WEB-DL.DD5.1.H264-FGT 4.48GB-4.png






回复

使用道具 举报

发表于 2020-3-3 17:49:14 | 显示全部楼层
理查德·朱厄尔 / 理查德·朱厄尔的悲歌 / 理查德·朱厄尔的歌谣 / 理查德·朱维尔的歌谣 / 理查德·杰威尔的歌谣 / 美国噩梦
回复 支持 反对

使用道具 举报

发表于 2020-3-3 18:17:34 | 显示全部楼层

楼主太厉害了!楼主,电影应该很好看我觉得蓝光电影网真是个好地方!
回复 支持 反对

使用道具 举报

发表于 2020-3-3 21:16:04 | 显示全部楼层
第92届奥斯卡金像奖(2020)
  最佳女配角(提名) 凯西·贝茨

  第77届金球奖(2020)
  电影类 最佳女配角(提名) 凯西·贝茨
回复 支持 反对

使用道具 举报

发表于 2020-3-3 21:21:03 | 显示全部楼层

楼主,我太崇拜你了!我想我是一天也不能离开蓝光电影网
回复 支持 反对

使用道具 举报

发表于 2020-3-3 21:26:35 | 显示全部楼层

这个帖子不回对不起自己!我想我是一天也不能离开蓝光电影网
回复 支持 反对

使用道具 举报

 成长值: 2545

发表于 2020-3-3 21:42:58 | 显示全部楼层
楼主发贴辛苦了,谢谢楼主分享!我觉得蓝光电影网是注册对了!
回复 支持 反对

使用道具 举报

发表于 2020-3-3 22:19:44 | 显示全部楼层

这东西我收了!谢谢楼主!蓝光电影网真好!
回复 支持 反对

使用道具 举报

发表于 2020-3-3 22:41:15 | 显示全部楼层
这个帖子不回对不起自己!
回复 支持 反对

使用道具 举报

发表于 2020-3-3 22:55:52 | 显示全部楼层
楼主太厉害了!楼主,电影应该很好看我觉得蓝光电影网真是个好地方!
回复 支持 反对

使用道具 举报

懒得打字嘛,点击右侧快捷回复 【右侧内容,后台自定义】
您需要登录后才可以回帖 登录 | 立即加入

本版积分规则

上个主题 下个主题 快速回复 收藏帖子 返回列表 客服中心 搜索
现在加入蓝光电影网,注册一个账号

手机版|小黑屋| 蓝光电影网  |网站地图

Copyright © 2015-2019 Comsenz Inc.  Template by 蓝光电影论坛 All Rights Reserved.

Powered by 蓝光电影网 X3.4

特别声明:本站所有资源均由网上收集而来,版权归原影音公司所有,如果侵犯了你的权益,请通知我们,我们会及时删除侵权内容.

快速回复 返回顶部 返回列表