找回密码

蓝光电影网

查看: 1397|回复: 23

[8bit.SDR] 变身特工/伪装间谍 Spies.in.Disguise.2019.2160p.BluRay.x264.8bit.SDR.DTS-HD.MA.TrueHD.7.1.Atmos-SWTYBLZ 21.54GB

[复制链接]

 成长值: 25360

发表于 2020-3-3 15:29:47 | 显示全部楼层 |阅读模式
变身特工/伪装间谍 Spies.in.Disguise.2019.2160p.BluRay.x264.8bit.SDR.DTS-HD.MA.TrueHD.7.1.Atmos-SWTYBLZ 21.54GB-1.png

译  名 变身特工 / 伪装间谍 / 变身特务(台) / 变雀特工(港) / 百变间谍王 / 间谍伪装 / 飞鸽特工队 / 鸽中谍
片  名 Spies in Disguise
年  代 2019
产  地 美国
类  别 喜剧 / 动作 / 科幻 / 动画
语  言 英语 / 日语
上映日期 2019-12-04(加州首映) / 2019-12-25(美国) / 2020-01-03(中国大陆)
IMDb评分  6.8/10 from 6782 users
IMDb链接  https://www.imdb.com/title/tt5814534
豆瓣评分 7.7/10 from 26462 users
豆瓣链接 https://movie.douban.com/subject/27000084/
片  长 102分钟
导  演 尼克·布鲁诺 Nick Bruno / 特洛伊·奎安 Troy Quane
编  剧 布拉德·科普兰 Brad Copeland / 劳埃德·泰勒 Lloyd Taylor
主  演 威尔·史密斯 Will Smith
       汤姆·赫兰德 Tom Holland
       拉什达·琼斯 Rashida Jones
       本·门德尔森 Ben Mendelsohn
       瑞芭·麦肯泰尔 Reba McEntire
       瑞秋·布罗斯纳安 Rachel Brosnahan
       凯伦·吉兰 Karen Gillan
       DJ卡拉德 DJ Khaled
       丘增 Masi Oka
       斯特凡 Stefania Spampinato
       卡拉·吉门内斯 Carla Jimenez
       JB·布兰科 JB Blanc
       艾德里安·冈萨雷斯 Adrian Gonzalez
       尼克·布鲁诺 Nick Bruno
       特洛伊·奎安 Troy Quane


标  签 动画 | 喜剧 | 搞笑 | 美国 | 科幻 | 二十世纪福克斯 | 动作 | 蓝天工作室

简  介  

  兰斯与沃尔特,前者是超级炫酷又迷人的间谍,后者负责发明兰斯使用的各种炫酷小道具。危难当头,他们必须团结一致才能拯救世界。

获奖情况  

  第47届动画安妮奖(2020)
  最佳配乐(提名) 西奥多·沙皮洛 / 马克·容森
  最佳角色设计(提名)

  第67届美国音效剪辑协会奖(2020)
  金卷轴奖 最佳动画片音效剪辑(提名)
  1. Video
  2. ID                                       : 1
  3. Format                                   : AVC
  4. Format/Info                              : Advanced Video Codec
  5. Format profile                           : High@L4
  6. Format settings                          : CABAC / 7 Ref Frames
  7. Format settings, CABAC                   : Yes
  8. Format settings, Reference frames        : 7 frames
  9. Codec ID                                 : V_MPEG4/ISO/AVC
  10. Duration                                 : 1 h 41 min
  11. Bit rate                                 : 21.2 Mb/s
  12. Width                                    : 3 840 pixels
  13. Height                                   : 1 608 pixels
  14. Display aspect ratio                     : 2.40:1
  15. Frame rate mode                          : Constant
  16. Frame rate                               : 23.976 (24000/1001) FPS
  17. Color space                              : YUV
  18. Chroma subsampling                       : 4:2:0
  19. Bit depth                                : 8 bits
  20. Scan type                                : Progressive
  21. Bits/(Pixel*Frame)                       : 0.143
  22. Stream size                              : 15.1 GiB (70%)
  23. Title                                    : Spies.in.Disguise.2019.2160p.BluRay.x264.8bit.SDR.DTS-HD.MA.TrueHD.7.1.Atmos-SWTYBLZ
  24. Writing library                          : x264 core 157 r2935 545de2f
  25. Encoding settings                        : cabac=1 / ref=7 / deblock=1:1:1 / analyse=0x3:0x113 / me=umh / subme=10 / psy=1 / psy_rd=0.40:0.00 / mixed_ref=1 / me_range=48 / chroma_me=1 / trellis=2 / 8x8dct=1 / cqm=0 / deadzone=21,11 / fast_pskip=1 / chroma_qp_offset=-2 / threads=48 / lookahead_threads=5 / sliced_threads=0 / nr=0 / decimate=0 / interlaced=0 / bluray_compat=0 / constrained_intra=0 / bframes=5 / b_pyramid=2 / b_adapt=2 / b_bias=0 / direct=3 / weightb=1 / open_gop=0 / weightp=2 / keyint=250 / keyint_min=23 / scenecut=40 / intra_refresh=0 / rc_lookahead=50 / rc=crf / mbtree=1 / crf=16.0 / qcomp=0.60 / qpmin=0 / qpmax=69 / qpstep=4 / ip_ratio=1.40 / aq=1:0.60
  26. Default                                  : Yes
  27. Forced                                   : No

  28. Audio #1
  29. ID                                       : 2
  30. Format                                   : MLP FBA 16-ch
  31. Format/Info                              : Meridian Lossless Packing FBA with 16-channel presentation
  32. Commercial name                          : Dolby TrueHD with Dolby Atmos
  33. Codec ID                                 : A_TRUEHD
  34. Duration                                 : 1 h 41 min
  35. Bit rate mode                            : Variable
  36. Bit rate                                 : 4 125 kb/s
  37. Maximum bit rate                         : 7 800 kb/s
  38. Channel(s)                               : 8 channels
  39. Channel layout                           : L R C LFE Ls Rs Lb Rb
  40. Sampling rate                            : 48.0 kHz
  41. Frame rate                               : 1 200.000 FPS (40 SPF)
  42. Compression mode                         : Lossless
  43. Stream size                              : 2.93 GiB (14%)
  44. Title                                    : Spies.in.Disguise.2019.2160p.BluRay.x264.8bit.SDR.DTS-HD.MA.TrueHD.7.1.Atmos-SWTYBLZ
  45. Language                                 : English
  46. Default                                  : Yes
  47. Forced                                   : No
  48. Number of dynamic objects                : 13
  49. Bed channel count                        : 1 channel
  50. Bed channel configuration                : LFE

  51. Audio #2
  52. ID                                       : 3
  53. Format                                   : DTS XLL
  54. Format/Info                              : Digital Theater Systems
  55. Commercial name                          : DTS-HD Master Audio
  56. Codec ID                                 : A_DTS
  57. Duration                                 : 1 h 41 min
  58. Bit rate mode                            : Variable
  59. Bit rate                                 : 4 068 kb/s
  60. Channel(s)                               : 8 channels
  61. Channel layout                           : C L R LFE Lb Rb Lss Rss
  62. Sampling rate                            : 48.0 kHz
  63. Frame rate                               : 93.750 FPS (512 SPF)
  64. Bit depth                                : 24 bits
  65. Compression mode                         : Lossless
  66. Stream size                              : 2.89 GiB (13%)
  67. Title                                    : Spies.in.Disguise.2019.2160p.BluRay.x264.8bit.SDR.DTS-HD.MA.TrueHD.7.1.Atmos-SWTYBLZ
  68. Language                                 : English
  69. Default                                  : No
  70. Forced                                   : No

  71. Audio #3
  72. ID                                       : 4
  73. Format                                   : AC-3
  74. Format/Info                              : Audio Coding 3
  75. Commercial name                          : Dolby Digital
  76. Codec ID                                 : A_AC3
  77. Duration                                 : 1 h 41 min
  78. Bit rate mode                            : Constant
  79. Bit rate                                 : 640 kb/s
  80. Channel(s)                               : 6 channels
  81. Channel layout                           : L R C LFE Ls Rs
  82. Sampling rate                            : 48.0 kHz
  83. Frame rate                               : 31.250 FPS (1536 SPF)
  84. Bit depth                                : 16 bits
  85. Compression mode                         : Lossy
  86. Stream size                              : 466 MiB (2%)
  87. Title                                    : Spies.in.Disguise.2019.2160p.BluRay.x264.8bit.SDR.DTS-HD.MA.TrueHD.7.1.Atmos-SWTYBLZ
  88. Language                                 : English
  89. Service kind                             : Complete Main
  90. Default                                  : No
  91. Forced                                   : No

  92. Text #1
  93. ID                                       : 5
  94. Format                                   : UTF-8
  95. Codec ID                                 : S_TEXT/UTF8
  96. Codec ID/Info                            : UTF-8 Plain Text
  97. Duration                                 : 1 h 18 min
  98. Bit rate                                 : 0 b/s
  99. Count of elements                        : 6
  100. Stream size                              : 142 Bytes (0%)
  101. Title                                    : English-FORCED-SRT
  102. Language                                 : English
  103. Default                                  : Yes
  104. Forced                                   : No

  105. Text #2
  106. ID                                       : 6
  107. Format                                   : UTF-8
  108. Codec ID                                 : S_TEXT/UTF8
  109. Codec ID/Info                            : UTF-8 Plain Text
  110. Duration                                 : 1 h 41 min
  111. Bit rate                                 : 66 b/s
  112. Count of elements                        : 1909
  113. Stream size                              : 49.0 KiB (0%)
  114. Title                                    : English-SRT
  115. Language                                 : English
  116. Default                                  : No
  117. Forced                                   : No

  118. Text #3
  119. ID                                       : 7
  120. Format                                   : PGS
  121. Muxing mode                              : zlib
  122. Codec ID                                 : S_HDMV/PGS
  123. Codec ID/Info                            : Picture based subtitle format used on BDs/HD-DVDs
  124. Duration                                 : 1 h 18 min
  125. Bit rate                                 : 92 b/s
  126. Count of elements                        : 12
  127. Stream size                              : 52.9 KiB (0%)
  128. Title                                    : English-FORCED-PGS
  129. Language                                 : English
  130. Default                                  : No
  131. Forced                                   : No

  132. Text #4
  133. ID                                       : 8
  134. Format                                   : PGS
  135. Muxing mode                              : zlib
  136. Codec ID                                 : S_HDMV/PGS
  137. Codec ID/Info                            : Picture based subtitle format used on BDs/HD-DVDs
  138. Duration                                 : 1 h 41 min
  139. Bit rate                                 : 45.9 kb/s
  140. Count of elements                        : 3822
  141. Stream size                              : 33.2 MiB (0%)
  142. Title                                    : English-PGS
  143. Language                                 : English
  144. Default                                  : No
  145. Forced                                   : No

  146. Text #5
  147. ID                                       : 9
  148. Format                                   : PGS
  149. Muxing mode                              : zlib
  150. Codec ID                                 : S_HDMV/PGS
  151. Codec ID/Info                            : Picture based subtitle format used on BDs/HD-DVDs
  152. Duration                                 : 1 h 40 min
  153. Bit rate                                 : 36.5 kb/s
  154. Count of elements                        : 2926
  155. Stream size                              : 26.2 MiB (0%)
  156. Title                                    : French-PGS
  157. Language                                 : French
  158. Default                                  : No
  159. Forced                                   : No

  160. Text #6
  161. ID                                       : 10
  162. Format                                   : PGS
  163. Muxing mode                              : zlib
  164. Codec ID                                 : S_HDMV/PGS
  165. Codec ID/Info                            : Picture based subtitle format used on BDs/HD-DVDs
  166. Duration                                 : 1 h 40 min
  167. Bit rate                                 : 32.8 kb/s
  168. Count of elements                        : 2722
  169. Stream size                              : 23.5 MiB (0%)
  170. Title                                    : Spanish-PGS
  171. Language                                 : Spanish
  172. Default                                  : No
  173. Forced                                   : No

  174. Menu
  175. 00:00:00.000                             : en:Chapter 01
  176. 00:04:09.458                             : en:Chapter 02
  177. 00:06:54.456                             : en:Chapter 03
  178. 00:11:53.796                             : en:Chapter 04
  179. 00:15:30.972                             : en:Chapter 05
  180. 00:20:35.443                             : en:Chapter 06
  181. 00:23:20.816                             : en:Chapter 07
  182. 00:26:42.392                             : en:Chapter 08
  183. 00:30:59.483                             : en:Chapter 09
  184. 00:36:06.539                             : en:Chapter 10
  185. 00:41:34.909                             : en:Chapter 11
  186. 00:45:41.906                             : en:Chapter 12
  187. 00:49:57.745                             : en:Chapter 13
  188. 00:53:58.861                             : en:Chapter 14
  189. 00:56:34.266                             : en:Chapter 15
  190. 01:00:06.728                             : en:Chapter 16
  191. 01:08:46.873                             : en:Chapter 17
  192. 01:12:51.742                             : en:Chapter 18
  193. 01:17:34.233                             : en:Chapter 19
  194. 01:20:18.897                             : en:Chapter 20
  195. 01:23:19.036                             : en:Chapter 21
  196. 01:26:05.202                             : en:Chapter 22
  197. 01:29:47.132                             : en:Chapter 23
  198. 01:33:08.833                             : en:Chapter 24
复制代码

变身特工/伪装间谍 Spies.in.Disguise.2019.2160p.BluRay.x264.8bit.SDR.DTS-HD.MA.TrueHD.7.1.Atmos-SWTYBLZ 21.54GB-2.png 变身特工/伪装间谍 Spies.in.Disguise.2019.2160p.BluRay.x264.8bit.SDR.DTS-HD.MA.TrueHD.7.1.Atmos-SWTYBLZ 21.54GB-3.png 变身特工/伪装间谍 Spies.in.Disguise.2019.2160p.BluRay.x264.8bit.SDR.DTS-HD.MA.TrueHD.7.1.Atmos-SWTYBLZ 21.54GB-4.png 变身特工/伪装间谍 Spies.in.Disguise.2019.2160p.BluRay.x264.8bit.SDR.DTS-HD.MA.TrueHD.7.1.Atmos-SWTYBLZ 21.54GB-5.png 变身特工/伪装间谍 Spies.in.Disguise.2019.2160p.BluRay.x264.8bit.SDR.DTS-HD.MA.TrueHD.7.1.Atmos-SWTYBLZ 21.54GB-6.png 变身特工/伪装间谍 Spies.in.Disguise.2019.2160p.BluRay.x264.8bit.SDR.DTS-HD.MA.TrueHD.7.1.Atmos-SWTYBLZ 21.54GB-7.png 变身特工/伪装间谍 Spies.in.Disguise.2019.2160p.BluRay.x264.8bit.SDR.DTS-HD.MA.TrueHD.7.1.Atmos-SWTYBLZ 21.54GB-1.png 变身特工/伪装间谍 Spies.in.Disguise.2019.2160p.BluRay.x264.8bit.SDR.DTS-HD.MA.TrueHD.7.1.Atmos-SWTYBLZ 21.54GB-9.png






回复

使用道具 举报

发表于 2020-3-3 17:47:49 | 显示全部楼层

楼主太厉害了!楼主,电影应该很好看我觉得蓝光电影网真是个好地方!
回复 支持 反对

使用道具 举报

发表于 2020-3-3 18:01:18 | 显示全部楼层
我觉得蓝光电影网真是个好地方.楼主太厉害了
回复 支持 反对

使用道具 举报

发表于 2020-3-3 18:22:37 | 显示全部楼层
动画片的质量不错,内容可以。
回复 支持 反对

使用道具 举报

发表于 2020-3-3 18:48:20 | 显示全部楼层
变身特工/伪装间谍
回复 支持 反对

使用道具 举报

发表于 2020-3-3 18:52:37 | 显示全部楼层

楼主太厉害了!楼主,电影应该很好看我觉得蓝光电影网真是个好地方!
回复 支持 反对

使用道具 举报

发表于 2020-3-3 19:07:28 | 显示全部楼层
楼主发贴辛苦了,谢谢楼主分享!我觉得蓝光电影网是注册对了!
回复 支持 反对

使用道具 举报

发表于 2020-3-3 19:08:43 | 显示全部楼层

我看不错噢 谢谢楼主!蓝光电影网越来越好!
回复 支持 反对

使用道具 举报

发表于 2020-3-3 19:27:43 | 显示全部楼层
谢谢楼主分享!小朋友看了很开心!只是威尔史密斯变成个鸽子搞了大半场,很怪异
回复 支持 反对

使用道具 举报

发表于 2020-3-3 22:24:26 | 显示全部楼层
好片,终于找到
回复 支持 反对

使用道具 举报

懒得打字嘛,点击右侧快捷回复 【右侧内容,后台自定义】
您需要登录后才可以回帖 登录 | 立即加入

本版积分规则

现在加入蓝光电影网,注册一个账号
上个主题 下个主题 快速回复 收藏帖子 返回列表 客服中心 搜索

手机版|小黑屋| 蓝光电影网 |网站地图 

Copyright © 2015-2019 Comsenz Inc.  Template by 蓝光电影论坛 All Rights Reserved.

Powered by 蓝光电影网 X3.4

特别声明:本站所有资源均由网上收集而来,版权归原影音公司所有,如果侵犯了你的权益,请通知我们,我们会及时删除侵权内容.

快速回复 返回顶部 返回列表