找回密码

蓝光电影网

查看: 609|回复: 15

[10bit.SDR] 变身特工/伪装间谍 Spies.in.Disguise.2019.2160p.BluRay.x265.10bit.SDR.DTS-HD.MA.TrueHD.7.1.Atmos-SWTYBLZ 20.35GB

[复制链接]

 成长值: 25285

发表于 2020-3-3 15:27:45 | 显示全部楼层 |阅读模式
变身特工/伪装间谍 Spies.in.Disguise.2019.2160p.BluRay.x265.10bit.SDR.DTS-HD.MA.TrueHD.7.1.Atmos-SWTYBLZ 20.35GB-1.png

译  名 变身特工 / 伪装间谍 / 变身特务(台) / 变雀特工(港) / 百变间谍王 / 间谍伪装 / 飞鸽特工队 / 鸽中谍
片  名 Spies in Disguise
年  代 2019
产  地 美国
类  别 喜剧 / 动作 / 科幻 / 动画
语  言 英语 / 日语
上映日期 2019-12-04(加州首映) / 2019-12-25(美国) / 2020-01-03(中国大陆)
IMDb评分  6.8/10 from 6782 users
IMDb链接  https://www.imdb.com/title/tt5814534
豆瓣评分 7.7/10 from 26462 users
豆瓣链接 https://movie.douban.com/subject/27000084/
片  长 102分钟
导  演 尼克·布鲁诺 Nick Bruno / 特洛伊·奎安 Troy Quane
编  剧 布拉德·科普兰 Brad Copeland / 劳埃德·泰勒 Lloyd Taylor
主  演 威尔·史密斯 Will Smith
       汤姆·赫兰德 Tom Holland
       拉什达·琼斯 Rashida Jones
       本·门德尔森 Ben Mendelsohn
       瑞芭·麦肯泰尔 Reba McEntire
       瑞秋·布罗斯纳安 Rachel Brosnahan
       凯伦·吉兰 Karen Gillan
       DJ卡拉德 DJ Khaled
       丘增 Masi Oka
       斯特凡 Stefania Spampinato
       卡拉·吉门内斯 Carla Jimenez
       JB·布兰科 JB Blanc
       艾德里安·冈萨雷斯 Adrian Gonzalez
       尼克·布鲁诺 Nick Bruno
       特洛伊·奎安 Troy Quane


标  签 动画 | 喜剧 | 搞笑 | 美国 | 科幻 | 二十世纪福克斯 | 动作 | 蓝天工作室

简  介  

  兰斯与沃尔特,前者是超级炫酷又迷人的间谍,后者负责发明兰斯使用的各种炫酷小道具。危难当头,他们必须团结一致才能拯救世界。

获奖情况  

  第47届动画安妮奖(2020)
  最佳配乐(提名) 西奥多·沙皮洛 / 马克·容森
  最佳角色设计(提名)

  第67届美国音效剪辑协会奖(2020)
  金卷轴奖 最佳动画片音效剪辑(提名)
  1. Video
  2. ID                                       : 1
  3. Format                                   : HEVC
  4. Format/Info                              : High Efficiency Video Coding
  5. Format profile                           : Main High@L4@High
  6. Codec ID                                 : V_MPEGH/ISO/HEVC
  7. Duration                                 : 1 h 41 min
  8. Bit rate                                 : 19.6 Mb/s
  9. Width                                    : 3 840 pixels
  10. Height                                   : 1 608 pixels
  11. Display aspect ratio                     : 2.40:1
  12. Frame rate mode                          : Constant
  13. Frame rate                               : 23.976 (24000/1001) FPS
  14. Color space                              : YUV
  15. Chroma subsampling                       : 4:2:0
  16. Bit depth                                : 10 bits
  17. Bits/(Pixel*Frame)                       : 0.132
  18. Stream size                              : 13.9 GiB (69%)
  19. Title                                    : Spies.in.Disguise.2019.2160p.BluRay.x265.10bit.SDR.DTS-HD.MA.TrueHD.7.1.Atmos-SWTYBLZ
  20. Writing library                          : x265 3.0ed72af837053:[Windows][GCC 8.2.0][64 bit] 10bit
  21. Encoding settings                        : cpuid=1111039 / frame-threads=6 / numa-pools=40 / wpp / no-pmode / no-pme / no-psnr / no-ssim / log-level=2 / input-csp=1 / input-res=3840x1608 / interlace=0 / total-frames=146513 / level-idc=51 / high-tier=1 / uhd-bd=0 / ref=3 / no-allow-non-conformance / repeat-headers / annexb / aud / hrd / info / hash=0 / no-temporal-layers / no-open-gop / min-keyint=1 / keyint=24 / gop-lookahead=0 / bframes=6 / b-adapt=2 / b-pyramid / bframe-bias=0 / rc-lookahead=25 / lookahead-slices=4 / scenecut=40 / radl=0 / no-splice / no-intra-refresh / ctu=64 / min-cu-size=8 / no-rect / no-amp / max-tu-size=32 / tu-inter-depth=1 / tu-intra-depth=1 / limit-tu=0 / rdoq-level=0 / dynamic-rd=0.00 / no-ssim-rd / signhide / no-tskip / nr-intra=0 / nr-inter=0 / no-constrained-intra / strong-intra-smoothing / max-merge=2 / limit-refs=3 / no-limit-modes / me=1 / subme=2 / merange=57 / temporal-mvp / weightp / no-weightb / no-analyze-src-pics / deblock=1:1 / no-sao / no-sao-non-deblock / rd=3 / no-early-skip / rskip / no-fast-intra / no-tskip-fast / no-cu-lossless / no-b-intra / no-splitrd-skip / rdpenalty=0 / psy-rd=0.40 / psy-rdoq=0.00 / no-rd-refine / no-lossless / cbqpoffs=0 / crqpoffs=0 / rc=crf / crf=14.0 / qcomp=0.60 / qpstep=4 / stats-write=0 / stats-read=0 / vbv-maxrate=160000 / vbv-bufsize=160000 / vbv-init=0.9 / crf-max=0.0 / crf-min=0.0 / ipratio=1.40 / pbratio=1.30 / aq-mode=1 / aq-strength=0.40 / cutree / zone-count=0 / no-strict-cbr / qg-size=32 / no-rc-grain / qpmax=69 / qpmin=0 / no-const-vbv / sar=1 / overscan=0 / videoformat=5 / range=0 / colorprim=2 / transfer=2 / colormatrix=2 / chromaloc=0 / display-window=0 / max-cll=0,0 / min-luma=0 / max-luma=1023 / log2-max-poc-lsb=8 / vui-timing-info / vui-hrd-info / slices=1 / opt-qp-pps / opt-ref-list-length-pps / no-multi-pass-opt-rps / scenecut-bias=0.05 / no-opt-cu-delta-qp / no-aq-motion / no-hdr / no-hdr-opt / no-dhdr10-opt / no-idr-recovery-sei / analysis-reuse-level=5 / scale-factor=0 / refine-intra=0 / refine-inter=0 / refine-mv=0 / refine-ctu-distortion=0 / no-limit-sao / ctu-info=0 / no-lowpass-dct / refine-analysis-type=0 / copy-pic=1 / max-ausize-factor=1.0 / no-dynamic-refine / no-single-sei / no-hevc-aq / qp-adaptation-range=1.00
  22. Default                                  : Yes
  23. Forced                                   : No

  24. Audio #1
  25. ID                                       : 2
  26. Format                                   : MLP FBA 16-ch
  27. Format/Info                              : Meridian Lossless Packing FBA with 16-channel presentation
  28. Commercial name                          : Dolby TrueHD with Dolby Atmos
  29. Codec ID                                 : A_TRUEHD
  30. Duration                                 : 1 h 41 min
  31. Bit rate mode                            : Variable
  32. Bit rate                                 : 4 125 kb/s
  33. Maximum bit rate                         : 7 800 kb/s
  34. Channel(s)                               : 8 channels
  35. Channel layout                           : L R C LFE Ls Rs Lb Rb
  36. Sampling rate                            : 48.0 kHz
  37. Frame rate                               : 1 200.000 FPS (40 SPF)
  38. Compression mode                         : Lossless
  39. Stream size                              : 2.93 GiB (14%)
  40. Title                                    : Spies.in.Disguise.2019.2160p.BluRay.x265.10bit.SDR.DTS-HD.MA.TrueHD.7.1.Atmos-SWTYBLZ
  41. Language                                 : English
  42. Default                                  : Yes
  43. Forced                                   : No
  44. Number of dynamic objects                : 13
  45. Bed channel count                        : 1 channel
  46. Bed channel configuration                : LFE

  47. Audio #2
  48. ID                                       : 3
  49. Format                                   : DTS XLL
  50. Format/Info                              : Digital Theater Systems
  51. Commercial name                          : DTS-HD Master Audio
  52. Codec ID                                 : A_DTS
  53. Duration                                 : 1 h 41 min
  54. Bit rate mode                            : Variable
  55. Bit rate                                 : 4 068 kb/s
  56. Channel(s)                               : 8 channels
  57. Channel layout                           : C L R LFE Lb Rb Lss Rss
  58. Sampling rate                            : 48.0 kHz
  59. Frame rate                               : 93.750 FPS (512 SPF)
  60. Bit depth                                : 24 bits
  61. Compression mode                         : Lossless
  62. Stream size                              : 2.89 GiB (14%)
  63. Title                                    : Spies.in.Disguise.2019.2160p.BluRay.x265.10bit.SDR.DTS-HD.MA.TrueHD.7.1.Atmos-SWTYBLZ
  64. Language                                 : English
  65. Default                                  : No
  66. Forced                                   : No

  67. Audio #3
  68. ID                                       : 4
  69. Format                                   : AC-3
  70. Format/Info                              : Audio Coding 3
  71. Commercial name                          : Dolby Digital
  72. Codec ID                                 : A_AC3
  73. Duration                                 : 1 h 41 min
  74. Bit rate mode                            : Constant
  75. Bit rate                                 : 640 kb/s
  76. Channel(s)                               : 6 channels
  77. Channel layout                           : L R C LFE Ls Rs
  78. Sampling rate                            : 48.0 kHz
  79. Frame rate                               : 31.250 FPS (1536 SPF)
  80. Bit depth                                : 16 bits
  81. Compression mode                         : Lossy
  82. Stream size                              : 466 MiB (2%)
  83. Title                                    : Spies.in.Disguise.2019.2160p.BluRay.x265.10bit.SDR.DTS-HD.MA.TrueHD.7.1.Atmos-SWTYBLZ
  84. Language                                 : English
  85. Service kind                             : Complete Main
  86. Default                                  : No
  87. Forced                                   : No

  88. Text #1
  89. ID                                       : 5
  90. Format                                   : UTF-8
  91. Codec ID                                 : S_TEXT/UTF8
  92. Codec ID/Info                            : UTF-8 Plain Text
  93. Duration                                 : 1 h 18 min
  94. Bit rate                                 : 0 b/s
  95. Count of elements                        : 6
  96. Stream size                              : 142 Bytes (0%)
  97. Title                                    : English-FORCED-SRT
  98. Language                                 : English
  99. Default                                  : Yes
  100. Forced                                   : No

  101. Text #2
  102. ID                                       : 6
  103. Format                                   : UTF-8
  104. Codec ID                                 : S_TEXT/UTF8
  105. Codec ID/Info                            : UTF-8 Plain Text
  106. Duration                                 : 1 h 41 min
  107. Bit rate                                 : 66 b/s
  108. Count of elements                        : 1909
  109. Stream size                              : 49.0 KiB (0%)
  110. Title                                    : English-SRT
  111. Language                                 : English
  112. Default                                  : No
  113. Forced                                   : No

  114. Text #3
  115. ID                                       : 7
  116. Format                                   : PGS
  117. Muxing mode                              : zlib
  118. Codec ID                                 : S_HDMV/PGS
  119. Codec ID/Info                            : Picture based subtitle format used on BDs/HD-DVDs
  120. Duration                                 : 1 h 18 min
  121. Bit rate                                 : 92 b/s
  122. Count of elements                        : 12
  123. Stream size                              : 52.9 KiB (0%)
  124. Title                                    : English-FORCED-PGS
  125. Language                                 : English
  126. Default                                  : No
  127. Forced                                   : No

  128. Text #4
  129. ID                                       : 8
  130. Format                                   : PGS
  131. Muxing mode                              : zlib
  132. Codec ID                                 : S_HDMV/PGS
  133. Codec ID/Info                            : Picture based subtitle format used on BDs/HD-DVDs
  134. Duration                                 : 1 h 41 min
  135. Bit rate                                 : 45.9 kb/s
  136. Count of elements                        : 3822
  137. Stream size                              : 33.2 MiB (0%)
  138. Title                                    : English-PGS
  139. Language                                 : English
  140. Default                                  : No
  141. Forced                                   : No

  142. Text #5
  143. ID                                       : 9
  144. Format                                   : PGS
  145. Muxing mode                              : zlib
  146. Codec ID                                 : S_HDMV/PGS
  147. Codec ID/Info                            : Picture based subtitle format used on BDs/HD-DVDs
  148. Duration                                 : 1 h 40 min
  149. Bit rate                                 : 36.5 kb/s
  150. Count of elements                        : 2926
  151. Stream size                              : 26.2 MiB (0%)
  152. Title                                    : French-PGS
  153. Language                                 : French
  154. Default                                  : No
  155. Forced                                   : No

  156. Text #6
  157. ID                                       : 10
  158. Format                                   : PGS
  159. Muxing mode                              : zlib
  160. Codec ID                                 : S_HDMV/PGS
  161. Codec ID/Info                            : Picture based subtitle format used on BDs/HD-DVDs
  162. Duration                                 : 1 h 40 min
  163. Bit rate                                 : 32.8 kb/s
  164. Count of elements                        : 2722
  165. Stream size                              : 23.5 MiB (0%)
  166. Title                                    : Spanish-PGS
  167. Language                                 : Spanish
  168. Default                                  : No
  169. Forced                                   : No

  170. Menu
  171. 00:00:00.000                             : en:Chapter 01
  172. 00:04:09.458                             : en:Chapter 02
  173. 00:06:54.456                             : en:Chapter 03
  174. 00:11:53.796                             : en:Chapter 04
  175. 00:15:30.972                             : en:Chapter 05
  176. 00:20:35.443                             : en:Chapter 06
  177. 00:23:20.816                             : en:Chapter 07
  178. 00:26:42.392                             : en:Chapter 08
  179. 00:30:59.483                             : en:Chapter 09
  180. 00:36:06.539                             : en:Chapter 10
  181. 00:41:34.909                             : en:Chapter 11
  182. 00:45:41.906                             : en:Chapter 12
  183. 00:49:57.745                             : en:Chapter 13
  184. 00:53:58.861                             : en:Chapter 14
  185. 00:56:34.266                             : en:Chapter 15
  186. 01:00:06.728                             : en:Chapter 16
  187. 01:08:46.873                             : en:Chapter 17
  188. 01:12:51.742                             : en:Chapter 18
  189. 01:17:34.233                             : en:Chapter 19
  190. 01:20:18.897                             : en:Chapter 20
  191. 01:23:19.036                             : en:Chapter 21
  192. 01:26:05.202                             : en:Chapter 22
  193. 01:29:47.132                             : en:Chapter 23
  194. 01:33:08.833                             : en:Chapter 24
复制代码

变身特工/伪装间谍 Spies.in.Disguise.2019.2160p.BluRay.x265.10bit.SDR.DTS-HD.MA.TrueHD.7.1.Atmos-SWTYBLZ 20.35GB-2.png 变身特工/伪装间谍 Spies.in.Disguise.2019.2160p.BluRay.x265.10bit.SDR.DTS-HD.MA.TrueHD.7.1.Atmos-SWTYBLZ 20.35GB-3.png 变身特工/伪装间谍 Spies.in.Disguise.2019.2160p.BluRay.x265.10bit.SDR.DTS-HD.MA.TrueHD.7.1.Atmos-SWTYBLZ 20.35GB-4.png 变身特工/伪装间谍 Spies.in.Disguise.2019.2160p.BluRay.x265.10bit.SDR.DTS-HD.MA.TrueHD.7.1.Atmos-SWTYBLZ 20.35GB-5.png 变身特工/伪装间谍 Spies.in.Disguise.2019.2160p.BluRay.x265.10bit.SDR.DTS-HD.MA.TrueHD.7.1.Atmos-SWTYBLZ 20.35GB-6.png 变身特工/伪装间谍 Spies.in.Disguise.2019.2160p.BluRay.x265.10bit.SDR.DTS-HD.MA.TrueHD.7.1.Atmos-SWTYBLZ 20.35GB-7.png 变身特工/伪装间谍 Spies.in.Disguise.2019.2160p.BluRay.x265.10bit.SDR.DTS-HD.MA.TrueHD.7.1.Atmos-SWTYBLZ 20.35GB-8.png 变身特工/伪装间谍 Spies.in.Disguise.2019.2160p.BluRay.x265.10bit.SDR.DTS-HD.MA.TrueHD.7.1.Atmos-SWTYBLZ 20.35GB-9.png






回复

使用道具 举报

发表于 2020-3-3 17:08:29 | 显示全部楼层
楼主发贴辛苦了,谢谢楼主分享!我觉得蓝光电影网是注册对了!
回复 支持 反对

使用道具 举报

发表于 2020-3-3 18:28:11 | 显示全部楼层

这个帖子不回对不起自己!我想我是一天也不能离开蓝光电影网
回复 支持 反对

使用道具 举报

发表于 2020-3-3 18:33:23 | 显示全部楼层

楼主太厉害了!楼主,电影应该很好看我觉得蓝光电影网真是个好地方!
回复 支持 反对

使用道具 举报

发表于 2020-3-3 22:34:48 | 显示全部楼层

这个帖子不回对不起自己!我想我是一天也不能离开蓝光电影网
回复 支持 反对

使用道具 举报

发表于 2020-3-3 23:37:49 | 显示全部楼层
楼主发贴辛苦了,谢谢楼主分享!我觉得蓝光电影网是注册对了!
回复 支持 反对

使用道具 举报

发表于 2020-3-4 13:22:26 | 显示全部楼层

这个帖子不回对不起自己!我想我是一天也不能离开蓝光电影网
回复 支持 反对

使用道具 举报

发表于 2020-3-4 13:56:49 | 显示全部楼层
楼主发贴辛苦了,谢谢楼主分享!我觉得蓝光电影网是注册对了!
回复 支持 反对

使用道具 举报

发表于 2020-3-4 14:20:20 | 显示全部楼层

我看不错噢 谢谢楼主!蓝光电影网越来越好!
回复 支持 反对

使用道具 举报

发表于 2020-3-4 16:54:43 | 显示全部楼层
谢谢分享!!!
回复

使用道具 举报

懒得打字嘛,点击右侧快捷回复 【右侧内容,后台自定义】
您需要登录后才可以回帖 登录 | 立即加入

本版积分规则

现在加入蓝光电影网,注册一个账号
上个主题 下个主题 快速回复 收藏帖子 返回列表 客服中心 搜索

手机版|小黑屋| 蓝光电影网 |网站地图 

Copyright © 2015-2019 Comsenz Inc.  Template by 蓝光电影论坛 All Rights Reserved.

Powered by 蓝光电影网 X3.4

特别声明:本站所有资源均由网上收集而来,版权归原影音公司所有,如果侵犯了你的权益,请通知我们,我们会及时删除侵权内容.

快速回复 返回顶部 返回列表