找回密码

蓝光电影网

查看: 538|回复: 12

[REMUX.HEVC] 变身特工/伪装间谍 Spies.in.Disguise.2019.2160p.BluRay.REMUX.HEVC.DTS-HD.MA.TrueHD.7.1.Atmos-FGT 46.10GB

[复制链接]

 成长值: 25285

发表于 2020-3-3 15:25:34 | 显示全部楼层 |阅读模式
变身特工/伪装间谍 Spies.in.Disguise.2019.2160p.BluRay.REMUX.HEVC.DTS-HD.MA.TrueHD.7.1.Atmos-FGT 46.10GB-1.png

译  名 变身特工 / 伪装间谍 / 变身特务(台) / 变雀特工(港) / 百变间谍王 / 间谍伪装 / 飞鸽特工队 / 鸽中谍
片  名 Spies in Disguise
年  代 2019
产  地 美国
类  别 喜剧 / 动作 / 科幻 / 动画
语  言 英语 / 日语
上映日期 2019-12-04(加州首映) / 2019-12-25(美国) / 2020-01-03(中国大陆)
IMDb评分  6.8/10 from 6782 users
IMDb链接  https://www.imdb.com/title/tt5814534
豆瓣评分 7.7/10 from 26462 users
豆瓣链接 https://movie.douban.com/subject/27000084/
片  长 102分钟
导  演 尼克·布鲁诺 Nick Bruno / 特洛伊·奎安 Troy Quane
编  剧 布拉德·科普兰 Brad Copeland / 劳埃德·泰勒 Lloyd Taylor
主  演 威尔·史密斯 Will Smith
       汤姆·赫兰德 Tom Holland
       拉什达·琼斯 Rashida Jones
       本·门德尔森 Ben Mendelsohn
       瑞芭·麦肯泰尔 Reba McEntire
       瑞秋·布罗斯纳安 Rachel Brosnahan
       凯伦·吉兰 Karen Gillan
       DJ卡拉德 DJ Khaled
       丘增 Masi Oka
       斯特凡 Stefania Spampinato
       卡拉·吉门内斯 Carla Jimenez
       JB·布兰科 JB Blanc
       艾德里安·冈萨雷斯 Adrian Gonzalez
       尼克·布鲁诺 Nick Bruno
       特洛伊·奎安 Troy Quane


标  签 动画 | 喜剧 | 搞笑 | 美国 | 科幻 | 二十世纪福克斯 | 动作 | 蓝天工作室

简  介  

  兰斯与沃尔特,前者是超级炫酷又迷人的间谍,后者负责发明兰斯使用的各种炫酷小道具。危难当头,他们必须团结一致才能拯救世界。

获奖情况  

  第47届动画安妮奖(2020)
  最佳配乐(提名) 西奥多·沙皮洛 / 马克·容森
  最佳角色设计(提名)

  第67届美国音效剪辑协会奖(2020)
  金卷轴奖 最佳动画片音效剪辑(提名)
  1. Video
  2. ID                                       : 1
  3. Format                                   : HEVC
  4. Format/Info                              : High Efficiency Video Coding
  5. Format profile                           : Main High@L4@High
  6. HDR format                               : SMPTE ST 2086, HDR10 compatible
  7. Codec ID                                 : V_MPEGH/ISO/HEVC
  8. Duration                                 : 1 h 41 min
  9. Bit rate                                 : 54.5 Mb/s
  10. Width                                    : 3 840 pixels
  11. Height                                   : 2 160 pixels
  12. Display aspect ratio                     : 16:9
  13. Frame rate mode                          : Constant
  14. Frame rate                               : 23.976 (24000/1001) FPS
  15. Color space                              : YUV
  16. Chroma subsampling                       : 4:2:0 (Type 2)
  17. Bit depth                                : 10 bits
  18. Bits/(Pixel*Frame)                       : 0.274
  19. Stream size                              : 38.8 GiB (84%)
  20. Title                                    : Spies.in.Disguise.2019.2160p.BluRay.REMUX.HEVC.DTS-HD.MA.TrueHD.7.1.Atmos-FGT
  21. Writing library                          : ATEME Titan File 3.9.0 (4.9.0.0)        
  22. Language                                 : English
  23. Default                                  : No
  24. Forced                                   : No
  25. Color range                              : Limited
  26. Color primaries                          : BT.2020
  27. Transfer characteristics                 : PQ
  28. Matrix coefficients                      : BT.2020 non-constant
  29. Mastering display color primaries        : Display P3
  30. Mastering display luminance              : min: 0.0050 cd/m2, max: 1000 cd/m2

  31. Audio #1
  32. ID                                       : 2
  33. Format                                   : MLP FBA 16-ch
  34. Format/Info                              : Meridian Lossless Packing FBA with 16-channel presentation
  35. Commercial name                          : Dolby TrueHD with Dolby Atmos
  36. Codec ID                                 : A_TRUEHD
  37. Duration                                 : 1 h 41 min
  38. Bit rate mode                            : Variable
  39. Bit rate                                 : 4 125 kb/s
  40. Maximum bit rate                         : 7 800 kb/s
  41. Channel(s)                               : 8 channels
  42. Channel layout                           : L R C LFE Ls Rs Lb Rb
  43. Sampling rate                            : 48.0 kHz
  44. Frame rate                               : 1 200.000 FPS (40 SPF)
  45. Compression mode                         : Lossless
  46. Stream size                              : 2.93 GiB (6%)
  47. Title                                    : Spies.in.Disguise.2019.2160p.BluRay.REMUX.HEVC.DTS-HD.MA.TrueHD.7.1.Atmos-FGT
  48. Language                                 : English
  49. Default                                  : Yes
  50. Forced                                   : No
  51. Number of dynamic objects                : 13
  52. Bed channel count                        : 1 channel
  53. Bed channel configuration                : LFE

  54. Audio #2
  55. ID                                       : 3
  56. Format                                   : DTS XLL
  57. Format/Info                              : Digital Theater Systems
  58. Commercial name                          : DTS-HD Master Audio
  59. Codec ID                                 : A_DTS
  60. Duration                                 : 1 h 41 min
  61. Bit rate mode                            : Variable
  62. Bit rate                                 : 4 068 kb/s
  63. Channel(s)                               : 8 channels
  64. Channel layout                           : C L R LFE Lb Rb Lss Rss
  65. Sampling rate                            : 48.0 kHz
  66. Frame rate                               : 93.750 FPS (512 SPF)
  67. Bit depth                                : 24 bits
  68. Compression mode                         : Lossless
  69. Stream size                              : 2.89 GiB (6%)
  70. Title                                    : Spies.in.Disguise.2019.2160p.BluRay.REMUX.HEVC.DTS-HD.MA.TrueHD.7.1.Atmos-FGT
  71. Language                                 : English
  72. Default                                  : No
  73. Forced                                   : No

  74. Audio #3
  75. ID                                       : 4
  76. Format                                   : AC-3
  77. Format/Info                              : Audio Coding 3
  78. Commercial name                          : Dolby Digital
  79. Codec ID                                 : A_AC3
  80. Duration                                 : 1 h 41 min
  81. Bit rate mode                            : Constant
  82. Bit rate                                 : 640 kb/s
  83. Channel(s)                               : 6 channels
  84. Channel layout                           : L R C LFE Ls Rs
  85. Sampling rate                            : 48.0 kHz
  86. Frame rate                               : 31.250 FPS (1536 SPF)
  87. Bit depth                                : 16 bits
  88. Compression mode                         : Lossy
  89. Stream size                              : 466 MiB (1%)
  90. Title                                    : Spies.in.Disguise.2019.2160p.BluRay.REMUX.HEVC.DTS-HD.MA.TrueHD.7.1.Atmos-FGT
  91. Language                                 : English
  92. Service kind                             : Complete Main
  93. Default                                  : No
  94. Forced                                   : No

  95. Audio #4
  96. ID                                       : 5
  97. Format                                   : AC-3
  98. Format/Info                              : Audio Coding 3
  99. Commercial name                          : Dolby Digital
  100. Codec ID                                 : A_AC3
  101. Duration                                 : 1 h 41 min
  102. Bit rate mode                            : Constant
  103. Bit rate                                 : 448 kb/s
  104. Channel(s)                               : 6 channels
  105. Channel layout                           : L R C LFE Ls Rs
  106. Sampling rate                            : 48.0 kHz
  107. Frame rate                               : 31.250 FPS (1536 SPF)
  108. Bit depth                                : 16 bits
  109. Compression mode                         : Lossy
  110. Stream size                              : 326 MiB (1%)
  111. Title                                    : Spies.in.Disguise.2019.2160p.BluRay.REMUX.HEVC.DTS-HD.MA.TrueHD.7.1.Atmos-FGT
  112. Language                                 : English
  113. Service kind                             : Complete Main
  114. Default                                  : No
  115. Forced                                   : No

  116. Audio #5
  117. ID                                       : 6
  118. Format                                   : AC-3
  119. Format/Info                              : Audio Coding 3
  120. Commercial name                          : Dolby Digital
  121. Codec ID                                 : A_AC3
  122. Duration                                 : 1 h 41 min
  123. Bit rate mode                            : Constant
  124. Bit rate                                 : 448 kb/s
  125. Channel(s)                               : 6 channels
  126. Channel layout                           : L R C LFE Ls Rs
  127. Sampling rate                            : 48.0 kHz
  128. Frame rate                               : 31.250 FPS (1536 SPF)
  129. Bit depth                                : 16 bits
  130. Compression mode                         : Lossy
  131. Stream size                              : 326 MiB (1%)
  132. Title                                    : Spies.in.Disguise.2019.2160p.BluRay.REMUX.HEVC.DTS-HD.MA.TrueHD.7.1.Atmos-FGT
  133. Language                                 : Spanish
  134. Service kind                             : Complete Main
  135. Default                                  : No
  136. Forced                                   : No

  137. Audio #6
  138. ID                                       : 7
  139. Format                                   : AC-3
  140. Format/Info                              : Audio Coding 3
  141. Commercial name                          : Dolby Digital
  142. Codec ID                                 : A_AC3
  143. Duration                                 : 1 h 41 min
  144. Bit rate mode                            : Constant
  145. Bit rate                                 : 448 kb/s
  146. Channel(s)                               : 6 channels
  147. Channel layout                           : L R C LFE Ls Rs
  148. Sampling rate                            : 48.0 kHz
  149. Frame rate                               : 31.250 FPS (1536 SPF)
  150. Bit depth                                : 16 bits
  151. Compression mode                         : Lossy
  152. Stream size                              : 326 MiB (1%)
  153. Title                                    : Spies.in.Disguise.2019.2160p.BluRay.REMUX.HEVC.DTS-HD.MA.TrueHD.7.1.Atmos-FGT
  154. Language                                 : French
  155. Service kind                             : Complete Main
  156. Default                                  : No
  157. Forced                                   : No

  158. Text #1
  159. ID                                       : 8
  160. Format                                   : UTF-8
  161. Codec ID                                 : S_TEXT/UTF8
  162. Codec ID/Info                            : UTF-8 Plain Text
  163. Duration                                 : 1 h 18 min
  164. Bit rate                                 : 0 b/s
  165. Count of elements                        : 6
  166. Stream size                              : 142 Bytes (0%)
  167. Title                                    : English-FORCED-SRT
  168. Language                                 : English
  169. Default                                  : Yes
  170. Forced                                   : No

  171. Text #2
  172. ID                                       : 9
  173. Format                                   : UTF-8
  174. Codec ID                                 : S_TEXT/UTF8
  175. Codec ID/Info                            : UTF-8 Plain Text
  176. Duration                                 : 1 h 41 min
  177. Bit rate                                 : 66 b/s
  178. Count of elements                        : 1909
  179. Stream size                              : 49.0 KiB (0%)
  180. Title                                    : English-SRT
  181. Language                                 : English
  182. Default                                  : No
  183. Forced                                   : No

  184. Text #3
  185. ID                                       : 10
  186. Format                                   : PGS
  187. Muxing mode                              : zlib
  188. Codec ID                                 : S_HDMV/PGS
  189. Codec ID/Info                            : Picture based subtitle format used on BDs/HD-DVDs
  190. Duration                                 : 1 h 41 min
  191. Bit rate                                 : 45.9 kb/s
  192. Count of elements                        : 3822
  193. Stream size                              : 33.2 MiB (0%)
  194. Title                                    : English-PGS
  195. Language                                 : English
  196. Default                                  : No
  197. Forced                                   : No

  198. Text #4
  199. ID                                       : 11
  200. Format                                   : PGS
  201. Muxing mode                              : zlib
  202. Codec ID                                 : S_HDMV/PGS
  203. Codec ID/Info                            : Picture based subtitle format used on BDs/HD-DVDs
  204. Duration                                 : 1 h 40 min
  205. Bit rate                                 : 32.8 kb/s
  206. Count of elements                        : 2722
  207. Stream size                              : 23.5 MiB (0%)
  208. Title                                    : Spanish-PGS
  209. Language                                 : Spanish
  210. Default                                  : No
  211. Forced                                   : No

  212. Text #5
  213. ID                                       : 12
  214. Format                                   : PGS
  215. Muxing mode                              : zlib
  216. Codec ID                                 : S_HDMV/PGS
  217. Codec ID/Info                            : Picture based subtitle format used on BDs/HD-DVDs
  218. Duration                                 : 1 h 37 min
  219. Bit rate                                 : 938 b/s
  220. Count of elements                        : 82
  221. Stream size                              : 672 KiB (0%)
  222. Title                                    : Spanish-FORCED-PGS
  223. Language                                 : Spanish
  224. Default                                  : No
  225. Forced                                   : No

  226. Text #6
  227. ID                                       : 13
  228. Format                                   : PGS
  229. Muxing mode                              : zlib
  230. Codec ID                                 : S_HDMV/PGS
  231. Codec ID/Info                            : Picture based subtitle format used on BDs/HD-DVDs
  232. Duration                                 : 1 h 40 min
  233. Bit rate                                 : 36.5 kb/s
  234. Count of elements                        : 2926
  235. Stream size                              : 26.2 MiB (0%)
  236. Title                                    : French-PGS
  237. Language                                 : French
  238. Default                                  : No
  239. Forced                                   : No

  240. Text #7
  241. ID                                       : 14
  242. Format                                   : PGS
  243. Muxing mode                              : zlib
  244. Codec ID                                 : S_HDMV/PGS
  245. Codec ID/Info                            : Picture based subtitle format used on BDs/HD-DVDs
  246. Duration                                 : 1 h 40 min
  247. Bit rate                                 : 1 507 b/s
  248. Count of elements                        : 108
  249. Stream size                              : 1.08 MiB (0%)
  250. Title                                    : French-FORCED-PGS
  251. Language                                 : French
  252. Default                                  : No
  253. Forced                                   : No

  254. Text #8
  255. ID                                       : 15
  256. Format                                   : PGS
  257. Muxing mode                              : zlib
  258. Codec ID                                 : S_HDMV/PGS
  259. Codec ID/Info                            : Picture based subtitle format used on BDs/HD-DVDs
  260. Duration                                 : 1 h 18 min
  261. Bit rate                                 : 92 b/s
  262. Count of elements                        : 12
  263. Stream size                              : 52.9 KiB (0%)
  264. Title                                    : English-FORCED-PGS
  265. Language                                 : English
  266. Default                                  : No
  267. Forced                                   : No

  268. Text #9
  269. ID                                       : 16
  270. Format                                   : PGS
  271. Muxing mode                              : zlib
  272. Codec ID                                 : S_HDMV/PGS
  273. Codec ID/Info                            : Picture based subtitle format used on BDs/HD-DVDs
  274. Duration                                 : 1 h 18 min
  275. Bit rate                                 : 92 b/s
  276. Count of elements                        : 12
  277. Stream size                              : 52.9 KiB (0%)
  278. Title                                    : English-FORCED-PGS
  279. Language                                 : English
  280. Default                                  : No
  281. Forced                                   : No

  282. Menu
  283. 00:00:00.000                             : en:Chapter 01
  284. 00:04:09.457                             : en:Chapter 02
  285. 00:06:54.455                             : en:Chapter 03
  286. 00:11:53.796                             : en:Chapter 04
  287. 00:15:30.971                             : en:Chapter 05
  288. 00:20:35.442                             : en:Chapter 06
  289. 00:23:20.649                             : en:Chapter 07
  290. 00:26:42.392                             : en:Chapter 08
  291. 00:30:59.482                             : en:Chapter 09
  292. 00:36:06.539                             : en:Chapter 10
  293. 00:41:34.742                             : en:Chapter 11
  294. 00:45:41.905                             : en:Chapter 12
  295. 00:49:57.744                             : en:Chapter 13
  296. 00:53:58.860                             : en:Chapter 14
  297. 00:56:34.265                             : en:Chapter 15
  298. 01:00:06.728                             : en:Chapter 16
  299. 01:08:46.872                             : en:Chapter 17
  300. 01:12:51.408                             : en:Chapter 18
  301. 01:17:34.232                             : en:Chapter 19
  302. 01:20:18.522                             : en:Chapter 20
  303. 01:23:19.035                             : en:Chapter 21
  304. 01:26:05.201                             : en:Chapter 22
  305. 01:29:47.131                             : en:Chapter 23
  306. 01:33:08.791                             : en:Chapter 24
复制代码

变身特工/伪装间谍 Spies.in.Disguise.2019.2160p.BluRay.REMUX.HEVC.DTS-HD.MA.TrueHD.7.1.Atmos-FGT 46.10GB-2.png 变身特工/伪装间谍 Spies.in.Disguise.2019.2160p.BluRay.REMUX.HEVC.DTS-HD.MA.TrueHD.7.1.Atmos-FGT 46.10GB-3.png 变身特工/伪装间谍 Spies.in.Disguise.2019.2160p.BluRay.REMUX.HEVC.DTS-HD.MA.TrueHD.7.1.Atmos-FGT 46.10GB-1.png







回复

使用道具 举报

发表于 2020-3-3 15:38:43 | 显示全部楼层
楼主发贴辛苦了,谢谢楼主分享!我觉得蓝光电影网是注册对了!
回复 支持 反对

使用道具 举报

发表于 2020-3-3 15:56:44 | 显示全部楼层
楼主发贴辛苦了,谢谢楼主分享!我觉得蓝光电影网是注册对了!
回复 支持 反对

使用道具 举报

发表于 2020-3-3 22:25:37 | 显示全部楼层
好片,终于找到
回复 支持 反对

使用道具 举报

发表于 2020-3-4 09:11:29 | 显示全部楼层
楼主发贴辛苦了,谢谢楼主分享!我觉得蓝光电影网是注册对了!
回复 支持 反对

使用道具 举报

发表于 2020-3-4 17:28:26 | 显示全部楼层

这个帖子不回对不起自己!我想我是一天也不能离开蓝光电影网
回复 支持 反对

使用道具 举报

发表于 2020-3-4 18:13:07 | 显示全部楼层
感谢楼主分享
回复 支持 反对

使用道具 举报

发表于 2020-3-5 02:05:58 | 显示全部楼层
性感女特工
回复 支持 反对

使用道具 举报

发表于 2020-3-5 09:29:28 | 显示全部楼层
这不是史皇吗????
回复 支持 反对

使用道具 举报

发表于 2020-3-5 10:13:18 | 显示全部楼层
谢谢楼主分享!
回复 支持 反对

使用道具 举报

懒得打字嘛,点击右侧快捷回复 【右侧内容,后台自定义】
您需要登录后才可以回帖 登录 | 立即加入

本版积分规则

现在加入蓝光电影网,注册一个账号
上个主题 下个主题 快速回复 收藏帖子 返回列表 客服中心 搜索

手机版|小黑屋| 蓝光电影网 |网站地图 

Copyright © 2015-2019 Comsenz Inc.  Template by 蓝光电影论坛 All Rights Reserved.

Powered by 蓝光电影网 X3.4

特别声明:本站所有资源均由网上收集而来,版权归原影音公司所有,如果侵犯了你的权益,请通知我们,我们会及时删除侵权内容.

快速回复 返回顶部 返回列表