找回密码

蓝光电影网

查看: 10485|回复: 225

[剧情] 标准之外 Hors.Normes.2019.FRENCH.1080p.BluRay.DTS.x264-LOST 7.93GB

  [复制链接]

 成长值: 26800

发表于 2020-3-3 15:04:01 | 显示全部楼层 |阅读模式
标准之外 Hors.Normes.2019.FRENCH.1080p.BluRay.DTS.x264-LOST 7.93GB-1.jpg

触不可及导演新作 蓝光终于发了~




译  名 标准之外
片  名 Hors normes / The Specials / The Extraordinary
年  代 2019
产  地 法国
类  别 剧情 / 喜剧
语  言 法语
上映日期 2019-05-25(戛纳电影节) / 2019-10-23(法国)
IMDb评分 7.6/10 from 2127 users
IMDb链接 https://www.imdb.com/title/tt8655470/
豆瓣评分 8.5/10 from 131 users
豆瓣链接 https://movie.douban.com/subject/30310218/
片  长 114分钟
导  演 奥利维埃·纳卡什 / 埃里克·托莱达诺
编  剧 奥利维埃·纳卡什 / 埃里克·托莱达诺
主  演 文森特·卡索 / 勒达·卡代布 / 海伦·文森特 / 阿尔班·伊万诺夫 / 凯瑟琳·蒙切特 / 弗雷德里克·皮耶罗 / 苏丽安·卜拉欣 / 琳娜·库德里 / 阿罗伊斯·索维奇 / 海迪·布奇纳法 / Bryan Mialoundama / Benjamin Lesieur / Marco Locatelli / Djibril Yoni / Ahmed Abdel Laoui / Darren Muselet / Diong-Kéba Tacu


简  介

  文森特·卡索、勒达·卡代布加盟全新喜剧新片[标准以外](Hors norme,暂译),该片由奥利维埃·纳卡什、埃里克·托莱达诺执导,该片也是两人合作执导的第七部影片。故事围绕布鲁诺和马利克展开,过去20年里他们生活在自闭症儿童和青少年的世界里。他们各自组建协会,以招募年轻人为他们处理棘手的事件。Ten Films担任影片制片,该片将在今年9月到11月巴黎展开拍摄。




  1. Video
  2. ID                             : 1
  3. Format                         : AVC
  4. Format/Info                    : Advanced Video Codec
  5. Format profile                 : High@L4
  6. Format settings, CABAC         : Yes
  7. Format settings, ReFrames      : 5 frames
  8. Codec ID                       : V_MPEG4/ISO/AVC
  9. Duration                       : 1h 53mn
  10. Bit rate                       : 8 482 Kbps
  11. Width                          : 1 920 pixels
  12. Height                         : 808 pixels
  13. Display aspect ratio           : 2.40:1
  14. Frame rate mode                : Constant
  15. Frame rate                     : 24.000 fps
  16. Color space                    : YUV
  17. Chroma subsampling             : 4:2:0
  18. Bit depth                      : 8 bits
  19. Scan type                      : Progressive
  20. Bits/(Pixel*Frame)             : 0.228
  21. Stream size                    : 6.58 GiB (83%)
  22. Writing library                : x264 core 159 r2991 1771b55
  23. Encoding settings              : cabac=1 / ref=5 / deblock=1:0:0 / analyse=0x3:0x113 / me=umh / subme=8 / psy=1 / psy_rd=1.00:0.00 / mixed_ref=1 / me_range=16 / chroma_me=1 / trellis=1 / 8x8dct=1 / cqm=0 / deadzone=21,11 / fast_pskip=1 / chroma_qp_offset=-2 / threads=18 / lookahead_threads=3 / sliced_threads=0 / nr=0 / decimate=1 / interlaced=0 / bluray_compat=0 / constrained_intra=0 / bframes=3 / b_pyramid=2 / b_adapt=2 / b_bias=0 / direct=3 / weightb=1 / open_gop=0 / weightp=2 / keyint=240 / keyint_min=24 / scenecut=40 / intra_refresh=0 / rc_lookahead=50 / rc=2pass / mbtree=1 / bitrate=8482 / ratetol=1.0 / qcomp=0.60 / qpmin=0 / qpmax=69 / qpstep=4 / cplxblur=20.0 / qblur=0.5 / ip_ratio=1.40 / aq=1:1.00
  24. Language                       : English
  25. Default                        : Yes
  26. Forced                         : No

  27. Audio
  28. ID                             : 2
  29. Format                         : DTS
  30. Format/Info                    : Digital Theater Systems
  31. Mode                           : 16
  32. Format settings, Endianness    : Big
  33. Codec ID                       : A_DTS
  34. Duration                       : 1h 53mn
  35. Bit rate mode                  : Constant
  36. Bit rate                       : 1 509 Kbps
  37. Channel(s)                     : 6 channels
  38. Channel positions              : Front: L C R, Side: L R, LFE
  39. Sampling rate                  : 48.0 KHz
  40. Bit depth                      : 24 bits
  41. Compression mode               : Lossy
  42. Stream size                    : 1.20 GiB (15%)
  43. Title                          : French DTS 1509kbps
  44. Language                       : French
  45. Default                        : Yes
  46. Forced                         : No

复制代码





回复

使用道具 举报

发表于 2020-3-3 16:00:44 | 显示全部楼层

这东西我收了!谢谢楼主!蓝光电影网真好!
回复 支持 1 反对 0

使用道具 举报

发表于 2020-3-3 16:13:05 | 显示全部楼层
zzc781023邀请您访问蓝光电影网
https://www.1080.cn/?fromuid=280734
回复 支持 反对

使用道具 举报

发表于 2020-3-3 20:51:47 | 显示全部楼层

楼主太厉害了!楼主,电影应该很好看我觉得蓝光电影网真是个好地方!
回复 支持 反对

使用道具 举报

发表于 2020-3-3 21:19:56 | 显示全部楼层

这东西我收了!谢谢楼主!蓝光电影网真好!
回复 支持 反对

使用道具 举报

已抛锚 成长值: 3420

发表于 2020-3-3 23:26:36 | 显示全部楼层
可否提供字幕,找不到
回复 支持 反对

使用道具 举报

发表于 2020-3-4 01:05:31 | 显示全部楼层
Thanks for sharing
回复 支持 反对

使用道具 举报

发表于 2020-3-4 18:02:27 | 显示全部楼层
好片是要支持的
回复 支持 反对

使用道具 举报

发表于 2020-3-4 20:46:46 | 显示全部楼层
谢谢楼主分享
回复 支持 反对

使用道具 举报

发表于 2020-3-5 09:09:03 | 显示全部楼层
谢谢楼主分享
回复 支持 反对

使用道具 举报

懒得打字嘛,点击右侧快捷回复 【右侧内容,后台自定义】
您需要登录后才可以回帖 登录 | 立即加入

本版积分规则

上个主题 下个主题 快速回复 收藏帖子 返回列表 客服中心 搜索
现在加入蓝光电影网,注册一个账号

手机版|小黑屋| 蓝光电影网  |网站地图

Copyright © 2015-2019 Comsenz Inc.  Template by 蓝光电影论坛 All Rights Reserved.

Powered by 蓝光电影网 X3.4

特别声明:本站所有资源均由网上收集而来,版权归原影音公司所有,如果侵犯了你的权益,请通知我们,我们会及时删除侵权内容.

快速回复 返回顶部 返回列表