找回密码

蓝光电影网

查看: 1122|回复: 15

创世纪:失乐园 Genesis.Paradise.Lost.2017.3D.DOCU.1080p.BluRay.x264-REGRET 6.56GB

[复制链接]

 成长值: 26155

发表于 2020-3-1 23:05:09 | 显示全部楼层 |阅读模式
创世纪:失乐园 Genesis.Paradise.Lost.2017.3D.DOCU.1080p.BluRay.x264-REGRET 6.56GB-1.png

译  名 创世纪:失乐园
片  名 Genesis: Paradise Lost
年  代 2017
产  地 美国
类  别 纪录片
语  言 英语
上映日期 2017-11-13(Fathom Events)
IMDb评分  5.2/10 from 520 users
IMDb链接  https://www.imdb.com/title/tt7522002
豆瓣评分 0/10 from 0 users
豆瓣链接 https://movie.douban.com/subject/33453537/
片  长 130分钟
导  演 Ralph Strean
主  演 Andrew J. Fabich
       Danny Faulkner
       Ray Comfort


简  介  

  If there is one part of the Bible that has undergone more scrutiny and abuse than any other, it is the very beginning-GENESIS. Both from within and without the church, assaults on GENESIS continue to question the Creation and ultimately the Creator. So, what exactly happened at the "Creation," at the "Beginning?" Creation Today and Seven Fold Films is proud to announce that for the first time ever, using stunning visual effects and the latest in scientific research, GENESIS will come to life right before your very eyes. We have heard the phrase "In the beginning" many times; now we get to see it on the big screen.
  1. Video
  2. ID                                       : 1
  3. Format                                   : AVC
  4. Format/Info                              : Advanced Video Codec
  5. Format profile                           : High@L4
  6. Format settings                          : CABAC / 5 Ref Frames
  7. Format settings, CABAC                   : Yes
  8. Format settings, Reference frames        : 5 frames
  9. Codec ID                                 : V_MPEG4/ISO/AVC
  10. Duration                                 : 1 h 49 min
  11. Bit rate                                 : 8 144 kb/s
  12. Width                                    : 1 920 pixels
  13. Height                                   : 808 pixels
  14. Display aspect ratio                     : 2.40:1
  15. Frame rate mode                          : Constant
  16. Frame rate                               : 23.976 (24000/1001) FPS
  17. Color space                              : YUV
  18. Chroma subsampling                       : 4:2:0
  19. Bit depth                                : 8 bits
  20. Scan type                                : Progressive
  21. Bits/(Pixel*Frame)                       : 0.219
  22. Stream size                              : 6.21 GiB (95%)
  23. Writing library                          : x264 core 157 r2969 d4099dd
  24. Encoding settings                        : cabac=1 / ref=5 / deblock=1:-3:-3 / analyse=0x3:0x133 / me=umh / subme=9 / psy=1 / psy_rd=1.00:0.00 / mixed_ref=1 / me_range=16 / chroma_me=1 / trellis=2 / 8x8dct=1 / cqm=0 / deadzone=21,11 / fast_pskip=0 / chroma_qp_offset=-2 / threads=18 / lookahead_threads=1 / sliced_threads=0 / nr=0 / decimate=1 / interlaced=0 / bluray_compat=0 / constrained_intra=0 / bframes=3 / b_pyramid=2 / b_adapt=1 / b_bias=0 / direct=3 / weightb=1 / open_gop=0 / weightp=2 / keyint=250 / keyint_min=23 / scenecut=40 / intra_refresh=0 / rc_lookahead=40 / rc=2pass / mbtree=1 / bitrate=8144 / ratetol=1.0 / qcomp=0.60 / qpmin=0 / qpmax=69 / qpstep=4 / cplxblur=20.0 / qblur=0.5 / ip_ratio=1.40 / aq=1:1.00
  25. Language                                 : English
  26. Default                                  : Yes
  27. Forced                                   : No

  28. Audio
  29. ID                                       : 2
  30. Format                                   : AC-3
  31. Format/Info                              : Audio Coding 3
  32. Commercial name                          : Dolby Digital
  33. Codec ID                                 : A_AC3
  34. Duration                                 : 1 h 49 min
  35. Bit rate mode                            : Constant
  36. Bit rate                                 : 448 kb/s
  37. Channel(s)                               : 6 channels
  38. Channel layout                           : L R C LFE Ls Rs
  39. Sampling rate                            : 48.0 kHz
  40. Frame rate                               : 31.250 FPS (1536 SPF)
  41. Bit depth                                : 16 bits
  42. Compression mode                         : Lossy
  43. Stream size                              : 350 MiB (5%)
  44. Service kind                             : Complete Main
  45. Default                                  : Yes
  46. Forced                                   : No

  47. Menu
  48. 00:00:00.000                             : en:00:00:00.000
  49. 00:00:48.090                             : en:00:00:48.090
  50. 00:03:35.215                             : en:00:03:35.215
  51. 00:05:32.540                             : en:00:05:32.540
  52. 00:06:45.405                             : en:00:06:45.405
  53. 00:08:57.745                             : en:00:08:57.745
  54. 00:09:41.706                             : en:00:09:41.706
  55. 00:10:39.388                             : en:00:10:39.388
  56. 00:13:03.907                             : en:00:13:03.907
  57. 00:19:51.189                             : en:00:19:51.189
  58. 00:20:51.666                             : en:00:20:51.666
  59. 00:22:46.489                             : en:00:22:46.489
  60. 00:24:41.020                             : en:00:24:41.020
  61. 00:26:14.405                             : en:00:26:14.405
  62. 00:27:17.051                             : en:00:27:17.051
  63. 00:27:58.926                             : en:00:27:58.926
  64. 00:28:42.678                             : en:00:28:42.678
  65. 00:30:38.544                             : en:00:30:38.544
  66. 00:34:47.083                             : en:00:34:47.083
  67. 00:37:27.285                             : en:00:37:27.285
  68. 00:38:23.257                             : en:00:38:23.257
  69. 00:39:04.006                             : en:00:39:04.006
  70. 00:40:07.111                             : en:00:40:07.111
  71. 00:43:04.997                             : en:00:43:04.997
  72. 00:44:34.211                             : en:00:44:34.211
  73. 00:45:40.319                             : en:00:45:40.319
  74. 00:48:45.462                             : en:00:48:45.462
  75. 00:50:45.123                             : en:00:50:45.123
  76. 00:52:59.924                             : en:00:52:59.924
  77. 00:53:42.425                             : en:00:53:42.425
  78. 00:56:08.154                             : en:00:56:08.154
  79. 00:56:36.807                             : en:00:56:36.807
  80. 00:58:36.927                             : en:00:58:36.927
  81. 01:01:14.668                             : en:01:01:14.668
  82. 01:02:34.289                             : en:01:02:34.289
  83. 01:03:45.152                             : en:01:03:45.152
  84. 01:05:55.991                             : en:01:05:55.991
  85. 01:08:38.319                             : en:01:08:38.319
  86. 01:09:19.986                             : en:01:09:19.986
  87. 01:10:19.420                             : en:01:10:19.420
  88. 01:12:04.817                             : en:01:12:04.817
  89. 01:13:28.776                             : en:01:13:28.776
  90. 01:16:56.358                             : en:01:16:56.358
  91. 01:17:38.108                             : en:01:17:38.108
  92. 01:18:19.733                             : en:01:18:19.733
  93. 01:21:28.630                             : en:01:21:28.630
  94. 01:22:25.520                             : en:01:22:25.520
  95. 01:23:05.393                             : en:01:23:05.393
  96. 01:23:38.426                             : en:01:23:38.426
  97. 01:25:38.963                             : en:01:25:38.963
  98. 01:27:08.010                             : en:01:27:08.010
  99. 01:32:06.600                             : en:01:32:06.600
  100. 01:40:31.354                             : en:01:40:31.354
  101. 01:41:50.516                             : en:01:41:50.516
  102. 01:43:44.588                             : en:01:43:44.588
复制代码

创世纪:失乐园 Genesis.Paradise.Lost.2017.3D.DOCU.1080p.BluRay.x264-REGRET 6.56GB-2.png






回复

使用道具 举报

发表于 2020-3-2 19:44:35 | 显示全部楼层
楼主发贴辛苦了,谢谢楼主分享!我觉得蓝光电影网是注册对了!
回复 支持 反对

使用道具 举报

发表于 2020-3-4 22:43:35 来自手机 | 显示全部楼层
以前账号竟然忘记了,又重新申请一个。唉~
回复 支持 反对

使用道具 举报

发表于 2020-3-6 20:32:11 | 显示全部楼层
不知道出屏效果怎么样
回复 支持 反对

使用道具 举报

发表于 2020-3-6 23:50:11 | 显示全部楼层
楼主发贴辛苦了,谢谢楼主分享!我觉得蓝光电影网是注册对了!
回复 支持 反对

使用道具 举报

发表于 2020-3-7 01:38:19 | 显示全部楼层
楼主发贴辛苦了,谢谢楼主分享!我觉得蓝光电影网是注册对了!
回复 支持 反对

使用道具 举报

发表于 2020-3-7 08:53:45 | 显示全部楼层
感谢分享感谢分享感谢分享感谢分享感谢分享感谢分享感谢分享感谢分享感谢分享感谢分享
回复 支持 反对

使用道具 举报

已抛锚 成长值: 290

发表于 2020-3-8 14:08:08 | 显示全部楼层
楼主发贴辛苦了,谢谢楼主分享!我觉得蓝光电影网是注册对了!
回复 支持 反对

使用道具 举报

发表于 2020-3-8 16:32:46 | 显示全部楼层
谢谢楼主 的分享
回复 支持 反对

使用道具 举报

发表于 2020-3-8 21:42:44 | 显示全部楼层
谢谢楼主分享好东西
回复 支持 反对

使用道具 举报

懒得打字嘛,点击右侧快捷回复 【右侧内容,后台自定义】
您需要登录后才可以回帖 登录 | 立即加入

本版积分规则

现在加入蓝光电影网,注册一个账号
上个主题 下个主题 快速回复 收藏帖子 返回列表 客服中心 搜索

手机版|小黑屋| 蓝光电影网 |网站地图 

Copyright © 2015-2019 Comsenz Inc.  Template by 蓝光电影论坛 All Rights Reserved.

Powered by 蓝光电影网 X3.4

特别声明:本站所有资源均由网上收集而来,版权归原影音公司所有,如果侵犯了你的权益,请通知我们,我们会及时删除侵权内容.

快速回复 返回顶部 返回列表