找回密码

蓝光电影网

查看: 912|回复: 16

[10bit.HDR] 美女与野兽 Beauty.and.the.Beast.2017.2160p.UHD.BluRay.X265.10bit.HDR.TrueHD.7.1.Atmos-AViATOR 14.10GB

[复制链接]

 成长值: 25360

发表于 2020-3-1 17:22:02 | 显示全部楼层 |阅读模式
美女与野兽 Beauty.and.the.Beast.2017.2160p.UHD.BluRay.X265.10bit.HDR.TrueHD.7.1.Atmos-AViATOR 14.10GB-1.png

译  名 美女与野兽
片  名 Beauty and the Beast
年  代 2017
产  地 美国
类  别 爱情 / 歌舞 / 奇幻
语  言 英语
上映日期 2017-03-17(中国大陆/美国)
IMDb评分  7.1/10 from 254094 users
IMDb链接  https://www.imdb.com/title/tt2771200
豆瓣评分 7.1/10 from 290748 users
豆瓣链接 https://movie.douban.com/subject/25900945/
片  长 129分钟
导  演 比尔·康顿 Bill Condon
编  剧 斯蒂芬·切波斯基 Stephen Chbosky / 埃文·斯彼里奥托普洛斯 Evan Spiliotopoulos / 琳达·伍尔芙顿 Linda Woolverton / Jeanne-Marie Leprince de Beaumont
主  演 艾玛·沃森 Emma Watson
       丹·史蒂文斯 Dan Stevens
       卢克·伊万斯 Luke Evans
       凯文·克莱恩 Kevin Kline
       乔什·盖德 Josh Gad
       伊万·麦克格雷格 Ewan McGregor
       伊恩·麦克莱恩 Ian McKellen
       艾玛·汤普森 Emma Thompson
       斯坦利·图齐 Stanley Tucci
       古古·姆巴塔-劳 Gugu Mbatha-Raw
       奥德拉·麦当娜 Audra McDonald
       内森·麦克 Nathan Mack
       哈蒂·莫拉汉 Hattie Morahan
       迈克尔·吉普森 Michael Jibson
       水野索诺娅 Sonoya Mizuno
       亨利·加勒特 Henry Garrett
       戴尔·布兰斯顿 Dale Branston


标  签 迪士尼 | 童话 | 爱情 | 歌舞 | 美国 | 奇幻 | 2017 | 魔幻

简  介  

  贝儿(艾玛·沃森 Emma Watson 饰)和小镇上的其他女孩不同,是一个热爱阅读和幻想的姑娘,孔武有力英俊强壮的加斯顿(卢克·伊万斯 Luke Evans 饰)发誓要娶贝儿为妻,但贝儿却一眼看穿了他的自私和虚伪,拒不从命。某日,贝儿的父亲莫里斯(凯文·克莱恩 Kevin Kline 饰)迷路误打误撞之下来到了一座荒凉破败的城堡中,那里居住着样貌可怖半人半兽的野兽(丹·史蒂文斯 Dan Stevens 饰)。
  因为偷摘了城堡里种植的玫瑰,莫里斯被野兽囚禁了起来,得知此消息的贝儿赶到城堡,要求和父亲作交换。就这样,贝儿开始了和野兽的同居生活。在会说话的茶壶太太(艾玛·汤普森 Emma Thompson 饰)、烛台卢米亚(伊万·麦克格雷格 Ewan McGregor 饰)和时钟葛士华(伊恩·麦克莱恩 Ian McKellen 饰)的照顾和帮助下,贝儿渐渐发现,野兽在丑陋的外表下,隐藏了一颗善良温柔的心。实际上,野兽的真实身份是一位王子,因受到了女巫的诅咒而沦落至此,而贝儿,是解除诅咒最后的,也是唯一的希望。

获奖情况  

  第90届奥斯卡金像奖(2018)
  最佳艺术指导(提名) 莎拉·格林伍德 / 凯蒂·斯宾塞
  最佳服装设计(提名) 杰奎琳·杜兰

  第71届英国电影学院奖(2018)
  电影奖 最佳服装设计(提名)
  电影奖 最佳艺术指导(提名)

  第41届日本电影学院奖(2018)
  最佳外语片(提名)

  第26届MTV电影奖(2017)
  MTV电影奖 年度电影
  MTV电影奖 最佳表演 艾玛·沃森
  MTV电影奖 最佳吻戏(提名) 艾玛·沃森 / 丹·史蒂文斯
  MTV电影奖 最佳银幕组合(提名) 卢克·伊万斯 / 乔什·加德

  第22届美国艺术指导工会奖(2018)
  电影奖 最佳幻想电影艺术指导(提名)

  第20届美国服装设计工会奖(2018)
  科幻/奇幻题材电影最佳服装设计(提名) 杰奎琳·杜兰

  第16届美国视觉效果协会奖(2018)
  最佳电影虚拟摄影(提名)

  第23届美国评论家选择电影奖(2018)
  最佳歌曲(提名)
  最佳美术指导(提名)
  最佳服装设计(提名)
  最佳发型化妆(提名)

  第22届金卫星奖(2018)
  电影部门 最佳服装设计(提名) 杰奎琳·杜兰

  第21届好莱坞电影奖(2017)
  年度服装设计 杰奎琳·杜兰
  年度化妆 珍妮·希尔科尔

  第30届芝加哥影评人协会奖(2017)
  最佳艺术指导(提名)

  第42届报知映画赏(2017)
  海外作品奖 比尔·康顿

  第4届豆瓣电影年度榜单(2017)
  3月最受关注电影(提名)
  1. Video
  2. ID                                       : 1
  3. Format                                   : HEVC
  4. Format/Info                              : High Efficiency Video Coding
  5. Format profile                           : Main 10@L5.1@High
  6. HDR format                               : SMPTE ST 2086, HDR10 compatible
  7. Codec ID                                 : V_MPEGH/ISO/HEVC
  8. Duration                                 : 2 h 9 min
  9. Bit rate                                 : 9 722 kb/s
  10. Width                                    : 3 840 pixels
  11. Height                                   : 1 608 pixels
  12. Display aspect ratio                     : 2.40:1
  13. Frame rate mode                          : Constant
  14. Frame rate                               : 23.976 (24000/1001/39027) FPS
  15. Color space                              : YUV
  16. Chroma subsampling                       : 4:2:0 (Type 2)
  17. Bit depth                                : 10 bits
  18. Bits/(Pixel*Frame)                       : 0.066
  19. Stream size                              : 8.78 GiB (63%)
  20. Writing library                          : x265 3.2+23-52135ffd9bcd:[Windows][GCC 9.2.1][64 bit] 10bit
  21. Encoding settings                        : cpuid=1176575 / frame-threads=5 / numa-pools=36 / wpp / no-pmode / no-pme / no-psnr / no-ssim / log-level=2 / input-csp=1 / input-res=3840x1608 / interlace=0 / total-frames=185976 / level-idc=51 / high-tier=1 / uhd-bd=0 / ref=4 / no-allow-non-conformance / repeat-headers / annexb / aud / hrd / info / hash=0 / no-temporal-layers / no-open-gop / min-keyint=1 / keyint=24 / gop-lookahead=0 / bframes=4 / b-adapt=2 / b-pyramid / bframe-bias=0 / rc-lookahead=25 / lookahead-slices=4 / scenecut=40 / hist-scenecut=0 / radl=0 / no-splice / no-intra-refresh / ctu=64 / min-cu-size=8 / rect / no-amp / max-tu-size=32 / tu-inter-depth=1 / tu-intra-depth=1 / limit-tu=0 / rdoq-level=2 / dynamic-rd=0.00 / no-ssim-rd / signhide / no-tskip / nr-intra=0 / nr-inter=0 / no-constrained-intra / no-strong-intra-smoothing / max-merge=3 / limit-refs=3 / limit-modes / me=3 / subme=3 / merange=57 / temporal-mvp / no-frame-dup / no-hme / weightp / no-weightb / no-analyze-src-pics / deblock=-3:-3 / no-sao / no-sao-non-deblock / rd=4 / selective-sao=0 / no-early-skip / rskip / no-fast-intra / no-tskip-fast / no-cu-lossless / no-b-intra / no-splitrd-skip / rdpenalty=0 / psy-rd=2.00 / psy-rdoq=1.00 / no-rd-refine / no-lossless / cbqpoffs=0 / crqpoffs=0 / rc=crf / crf=17.0 / qcomp=0.60 / qpstep=4 / stats-write=0 / stats-read=0 / vbv-maxrate=160000 / vbv-bufsize=160000 / vbv-init=0.9 / crf-max=0.0 / crf-min=0.0 / ipratio=1.40 / pbratio=1.30 / aq-mode=1 / aq-strength=1.00 / cutree / zone-count=0 / no-strict-cbr / qg-size=32 / no-rc-grain / qpmax=69 / qpmin=0 / no-const-vbv / sar=1 / overscan=0 / videoformat=5 / range=0 / colorprim=9 / transfer=16 / colormatrix=9 / chromaloc=1 / chromaloc-top=2 / chromaloc-bottom=2 / display-window=0 / master-display=G(13250,34500)B(7500,3000)R(34000,16000)WP(15635,16450)L(40000000,50) / cll=0,0 / min-luma=0 / max-luma=1023 / log2-max-poc-lsb=8 / vui-timing-info / vui-hrd-info / slices=1 / no-opt-qp-pps / no-opt-ref-list-length-pps / no-multi-pass-opt-rps / scenecut-bias=0.05 / hist-threshold=0.01 / no-opt-cu-delta-qp / no-aq-motion / hdr / hdr-opt / no-dhdr10-opt / no-idr-recovery-sei / analysis-reuse-level=5 / scale-factor=0 / refine-intra=0 / refine-inter=0 / refine-mv=1 / refine-ctu-distortion=0 / no-limit-sao / ctu-info=0 / no-lowpass-dct / refine-analysis-type=0 / copy-pic=1 / max-ausize-factor=1.0 / no-dynamic-refine / no-single-sei / no-hevc-aq / no-svt / no-field / qp-adaptation-range=1.00 / no-scenecut-aware-qp
  22. Default                                  : Yes
  23. Forced                                   : No
  24. Color range                              : Limited
  25. Color primaries                          : BT.2020
  26. Transfer characteristics                 : PQ
  27. Matrix coefficients                      : BT.2020 non-constant
  28. Mastering display color primaries        : Display P3
  29. Mastering display luminance              : min: 0.0050 cd/m2, max: 4000 cd/m2
  30. Audio #1
  31. ID                                       : 2
  32. Format                                   : MLP FBA 16-ch
  33. Format/Info                              : Meridian Lossless Packing FBA with 16-channel presentation
  34. Commercial name                          : Dolby TrueHD with Dolby Atmos
  35. Codec ID                                 : A_TRUEHD
  36. Duration                                 : 2 h 9 min
  37. Bit rate mode                            : Variable
  38. Bit rate                                 : 4 936 kb/s
  39. Maximum bit rate                         : 8 103 kb/s
  40. Channel(s)                               : 8 channels
  41. Channel layout                           : L R C LFE Ls Rs Lb Rb
  42. Sampling rate                            : 48.0 kHz
  43. Frame rate                               : 1 200.000 FPS (40 SPF)
  44. Compression mode                         : Lossless
  45. Stream size                              : 4.46 GiB (32%)
  46. Language                                 : English
  47. Default                                  : Yes
  48. Forced                                   : No
  49. Number of dynamic objects                : 13
  50. Bed channel count                        : 1 channel
  51. Bed channel configuration                : LFE
  52. Audio #2
  53. ID                                       : 3
  54. Format                                   : AC-3
  55. Format/Info                              : Audio Coding 3
  56. Commercial name                          : Dolby Digital
  57. Codec ID                                 : A_AC3
  58. Duration                                 : 2 h 9 min
  59. Bit rate mode                            : Constant
  60. Bit rate                                 : 640 kb/s
  61. Channel(s)                               : 6 channels
  62. Channel layout                           : L R C LFE Ls Rs
  63. Sampling rate                            : 48.0 kHz
  64. Frame rate                               : 31.250 FPS (1536 SPF)
  65. Compression mode                         : Lossy
  66. Stream size                              : 592 MiB (4%)
  67. Language                                 : English
  68. Service kind                             : Complete Main
  69. Default                                  : No
  70. Forced                                   : No
  71. Text #1
  72. ID                                       : 4
  73. Format                                   : PGS
  74. Muxing mode                              : zlib
  75. Codec ID                                 : S_HDMV/PGS
  76. Codec ID/Info                            : Picture based subtitle format used on BDs/HD-DVDs
  77. Duration                                 : 2 h 8 min
  78. Bit rate                                 : 36.8 kb/s
  79. Count of elements                        : 4050
  80. Stream size                              : 33.7 MiB (0%)
  81. Title                                    : English SDH
  82. Language                                 : English
  83. Default                                  : No
  84. Forced                                   : No
  85. Text #2
  86. ID                                       : 5
  87. Format                                   : PGS
  88. Muxing mode                              : zlib
  89. Codec ID                                 : S_HDMV/PGS
  90. Codec ID/Info                            : Picture based subtitle format used on BDs/HD-DVDs
  91. Duration                                 : 2 h 1 min
  92. Bit rate                                 : 27.4 kb/s
  93. Count of elements                        : 3128
  94. Stream size                              : 23.9 MiB (0%)
  95. Title                                    : French
  96. Language                                 : French
  97. Default                                  : No
  98. Forced                                   : No
  99. Text #3
  100. ID                                       : 6
  101. Format                                   : PGS
  102. Muxing mode                              : zlib
  103. Codec ID                                 : S_HDMV/PGS
  104. Codec ID/Info                            : Picture based subtitle format used on BDs/HD-DVDs
  105. Duration                                 : 2 h 8 min
  106. Bit rate                                 : 32.5 kb/s
  107. Count of elements                        : 3448
  108. Stream size                              : 29.8 MiB (0%)
  109. Title                                    : French
  110. Language                                 : French
  111. Default                                  : No
  112. Forced                                   : No
  113. Text #4
  114. ID                                       : 7
  115. Format                                   : PGS
  116. Muxing mode                              : zlib
  117. Codec ID                                 : S_HDMV/PGS
  118. Codec ID/Info                            : Picture based subtitle format used on BDs/HD-DVDs
  119. Duration                                 : 2 h 1 min
  120. Bit rate                                 : 29.4 kb/s
  121. Count of elements                        : 3188
  122. Stream size                              : 25.7 MiB (0%)
  123. Title                                    : Spanish
  124. Language                                 : Spanish
  125. Default                                  : No
  126. Forced                                   : No
  127. Text #5
  128. ID                                       : 8
  129. Format                                   : PGS
  130. Muxing mode                              : zlib
  131. Codec ID                                 : S_HDMV/PGS
  132. Codec ID/Info                            : Picture based subtitle format used on BDs/HD-DVDs
  133. Duration                                 : 1 h 57 min
  134. Bit rate                                 : 31.2 kb/s
  135. Count of elements                        : 3188
  136. Stream size                              : 26.3 MiB (0%)
  137. Title                                    : Italian
  138. Language                                 : Italian
  139. Default                                  : No
  140. Forced                                   : No
  141. Text #6
  142. ID                                       : 9
  143. Format                                   : PGS
  144. Muxing mode                              : zlib
  145. Codec ID                                 : S_HDMV/PGS
  146. Codec ID/Info                            : Picture based subtitle format used on BDs/HD-DVDs
  147. Duration                                 : 1 h 57 min
  148. Bit rate                                 : 30.6 kb/s
  149. Count of elements                        : 3228
  150. Stream size                              : 25.8 MiB (0%)
  151. Title                                    : German
  152. Language                                 : German
  153. Default                                  : No
  154. Forced                                   : No
  155. Text #7
  156. ID                                       : 10
  157. Format                                   : PGS
  158. Muxing mode                              : zlib
  159. Codec ID                                 : S_HDMV/PGS
  160. Codec ID/Info                            : Picture based subtitle format used on BDs/HD-DVDs
  161. Duration                                 : 2 h 8 min
  162. Bit rate                                 : 27.4 kb/s
  163. Count of elements                        : 3194
  164. Stream size                              : 25.1 MiB (0%)
  165. Title                                    : Norwegian
  166. Language                                 : Norwegian
  167. Default                                  : No
  168. Forced                                   : No
  169. Text #8
  170. ID                                       : 11
  171. Format                                   : PGS
  172. Muxing mode                              : zlib
  173. Codec ID                                 : S_HDMV/PGS
  174. Codec ID/Info                            : Picture based subtitle format used on BDs/HD-DVDs
  175. Duration                                 : 2 h 1 min
  176. Bit rate                                 : 27.2 kb/s
  177. Count of elements                        : 2378
  178. Stream size                              : 23.7 MiB (0%)
  179. Title                                    : Swedish
  180. Language                                 : Swedish
  181. Default                                  : No
  182. Forced                                   : No
  183. Text #9
  184. ID                                       : 12
  185. Format                                   : PGS
  186. Muxing mode                              : zlib
  187. Codec ID                                 : S_HDMV/PGS
  188. Codec ID/Info                            : Picture based subtitle format used on BDs/HD-DVDs
  189. Duration                                 : 1 h 58 min
  190. Bit rate                                 : 24 b/s
  191. Count of elements                        : 4
  192. Stream size                              : 20.9 KiB (0%)
  193. Title                                    : French
  194. Language                                 : French
  195. Default                                  : No
  196. Forced                                   : No
  197. Text #10
  198. ID                                       : 13
  199. Format                                   : PGS
  200. Muxing mode                              : zlib
  201. Codec ID                                 : S_HDMV/PGS
  202. Codec ID/Info                            : Picture based subtitle format used on BDs/HD-DVDs
  203. Duration                                 : 3 min 40 s
  204. Bit rate                                 : 14.5 kb/s
  205. Count of elements                        : 76
  206. Stream size                              : 389 KiB (0%)
  207. Title                                    : French
  208. Language                                 : French
  209. Default                                  : No
  210. Forced                                   : No
  211. Text #11
  212. ID                                       : 14
  213. Format                                   : PGS
  214. Muxing mode                              : zlib
  215. Codec ID                                 : S_HDMV/PGS
  216. Codec ID/Info                            : Picture based subtitle format used on BDs/HD-DVDs
  217. Duration                                 : 4 s 212 ms
  218. Bit rate                                 : 24.1 kb/s
  219. Count of elements                        : 2
  220. Stream size                              : 12.4 KiB (0%)
  221. Title                                    : Spanish
  222. Language                                 : Spanish
  223. Default                                  : No
  224. Forced                                   : No
  225. Text #12
  226. ID                                       : 15
  227. Format                                   : PGS
  228. Muxing mode                              : zlib
  229. Codec ID                                 : S_HDMV/PGS
  230. Codec ID/Info                            : Picture based subtitle format used on BDs/HD-DVDs
  231. Duration                                 : 4 s 379 ms
  232. Bit rate                                 : 22.6 kb/s
  233. Count of elements                        : 2
  234. Stream size                              : 12.1 KiB (0%)
  235. Title                                    : Italian
  236. Language                                 : Italian
  237. Default                                  : No
  238. Forced                                   : No
  239. Text #13
  240. ID                                       : 16
  241. Format                                   : PGS
  242. Muxing mode                              : zlib
  243. Codec ID                                 : S_HDMV/PGS
  244. Codec ID/Info                            : Picture based subtitle format used on BDs/HD-DVDs
  245. Duration                                 : 2 s 795 ms
  246. Bit rate                                 : 54.2 kb/s
  247. Count of elements                        : 2
  248. Stream size                              : 18.5 KiB (0%)
  249. Title                                    : German
  250. Language                                 : German
  251. Default                                  : No
  252. Forced                                   : No
复制代码
022936qov7ypyqywzyip6b.png 022936khdtd99cvbbfhhze.png 022937zrujo999ygjzwhw9.png


回复

使用道具 举报

发表于 2020-3-1 17:47:28 | 显示全部楼层

楼主,我太崇拜你了!我想我是一天也不能离开蓝光电影网
回复 支持 反对

使用道具 举报

发表于 2020-3-1 20:19:50 | 显示全部楼层
楼主发贴辛苦了,谢谢楼主分享!我觉得蓝光电影网是注册对了!
回复 支持 反对

使用道具 举报

发表于 2020-3-1 21:12:15 | 显示全部楼层

楼主,我太崇拜你了!我想我是一天也不能离开蓝光电影网
回复 支持 反对

使用道具 举报

发表于 2020-3-1 23:42:02 | 显示全部楼层
谢谢站主
回复

使用道具 举报

发表于 2020-3-2 00:23:42 | 显示全部楼层
楼主发贴辛苦了,谢谢楼主分享!我觉得蓝光电影网是注册对了!
回复 支持 反对

使用道具 举报

发表于 2020-3-2 05:56:01 | 显示全部楼层

楼主,我太崇拜你了!我想我是一天也不能离开蓝光电影网
回复 支持 反对

使用道具 举报

发表于 2020-3-2 13:32:05 | 显示全部楼层

这东西我收了!谢谢楼主!蓝光电影网真好!
回复 支持 反对

使用道具 举报

发表于 2020-3-2 18:07:10 | 显示全部楼层
这种大片很棒,多多益善!
回复 支持 反对

使用道具 举报

发表于 2020-3-2 18:34:11 | 显示全部楼层
楼主发贴辛苦了,谢谢楼主分享!我觉得蓝光电影网是注册对了!
回复 支持 反对

使用道具 举报

懒得打字嘛,点击右侧快捷回复 【右侧内容,后台自定义】
您需要登录后才可以回帖 登录 | 立即加入

本版积分规则

现在加入蓝光电影网,注册一个账号
上个主题 下个主题 快速回复 收藏帖子 返回列表 客服中心 搜索

手机版|小黑屋| 蓝光电影网 |网站地图 

Copyright © 2015-2019 Comsenz Inc.  Template by 蓝光电影论坛 All Rights Reserved.

Powered by 蓝光电影网 X3.4

特别声明:本站所有资源均由网上收集而来,版权归原影音公司所有,如果侵犯了你的权益,请通知我们,我们会及时删除侵权内容.

快速回复 返回顶部 返回列表