找回密码

蓝光电影网

查看: 341|回复: 10

[8bit.SDR] 美女与野兽 Beauty.and.the.Beast.2017.2160p.BluRay.x264.8bit.SDR.DTS-HD.MA.TrueHD.7.1.Atmos-SWTYBLZ 27.63GB

[复制链接]

 成长值: 25360

发表于 2020-3-1 17:18:38 | 显示全部楼层 |阅读模式
美女与野兽 Beauty.and.the.Beast.2017.2160p.BluRay.x264.8bit.SDR.DTS-HD.MA.TrueHD.7.1.Atmos-SWTYBLZ 27.63GB-1.png

译  名 美女与野兽
片  名 Beauty and the Beast
年  代 2017
产  地 美国
类  别 爱情 / 歌舞 / 奇幻
语  言 英语
上映日期 2017-03-17(中国大陆/美国)
IMDb评分  7.1/10 from 254094 users
IMDb链接  https://www.imdb.com/title/tt2771200
豆瓣评分 7.1/10 from 290748 users
豆瓣链接 https://movie.douban.com/subject/25900945/
片  长 129分钟
导  演 比尔·康顿 Bill Condon
编  剧 斯蒂芬·切波斯基 Stephen Chbosky / 埃文·斯彼里奥托普洛斯 Evan Spiliotopoulos / 琳达·伍尔芙顿 Linda Woolverton / Jeanne-Marie Leprince de Beaumont
主  演 艾玛·沃森 Emma Watson
       丹·史蒂文斯 Dan Stevens
       卢克·伊万斯 Luke Evans
       凯文·克莱恩 Kevin Kline
       乔什·盖德 Josh Gad
       伊万·麦克格雷格 Ewan McGregor
       伊恩·麦克莱恩 Ian McKellen
       艾玛·汤普森 Emma Thompson
       斯坦利·图齐 Stanley Tucci
       古古·姆巴塔-劳 Gugu Mbatha-Raw
       奥德拉·麦当娜 Audra McDonald
       内森·麦克 Nathan Mack
       哈蒂·莫拉汉 Hattie Morahan
       迈克尔·吉普森 Michael Jibson
       水野索诺娅 Sonoya Mizuno
       亨利·加勒特 Henry Garrett
       戴尔·布兰斯顿 Dale Branston


标  签 迪士尼 | 童话 | 爱情 | 歌舞 | 美国 | 奇幻 | 2017 | 魔幻

简  介  

  贝儿(艾玛·沃森 Emma Watson 饰)和小镇上的其他女孩不同,是一个热爱阅读和幻想的姑娘,孔武有力英俊强壮的加斯顿(卢克·伊万斯 Luke Evans 饰)发誓要娶贝儿为妻,但贝儿却一眼看穿了他的自私和虚伪,拒不从命。某日,贝儿的父亲莫里斯(凯文·克莱恩 Kevin Kline 饰)迷路误打误撞之下来到了一座荒凉破败的城堡中,那里居住着样貌可怖半人半兽的野兽(丹·史蒂文斯 Dan Stevens 饰)。
  因为偷摘了城堡里种植的玫瑰,莫里斯被野兽囚禁了起来,得知此消息的贝儿赶到城堡,要求和父亲作交换。就这样,贝儿开始了和野兽的同居生活。在会说话的茶壶太太(艾玛·汤普森 Emma Thompson 饰)、烛台卢米亚(伊万·麦克格雷格 Ewan McGregor 饰)和时钟葛士华(伊恩·麦克莱恩 Ian McKellen 饰)的照顾和帮助下,贝儿渐渐发现,野兽在丑陋的外表下,隐藏了一颗善良温柔的心。实际上,野兽的真实身份是一位王子,因受到了女巫的诅咒而沦落至此,而贝儿,是解除诅咒最后的,也是唯一的希望。

获奖情况  

  第90届奥斯卡金像奖(2018)
  最佳艺术指导(提名) 莎拉·格林伍德 / 凯蒂·斯宾塞
  最佳服装设计(提名) 杰奎琳·杜兰

  第71届英国电影学院奖(2018)
  电影奖 最佳服装设计(提名)
  电影奖 最佳艺术指导(提名)

  第41届日本电影学院奖(2018)
  最佳外语片(提名)

  第26届MTV电影奖(2017)
  MTV电影奖 年度电影
  MTV电影奖 最佳表演 艾玛·沃森
  MTV电影奖 最佳吻戏(提名) 艾玛·沃森 / 丹·史蒂文斯
  MTV电影奖 最佳银幕组合(提名) 卢克·伊万斯 / 乔什·加德

  第22届美国艺术指导工会奖(2018)
  电影奖 最佳幻想电影艺术指导(提名)

  第20届美国服装设计工会奖(2018)
  科幻/奇幻题材电影最佳服装设计(提名) 杰奎琳·杜兰

  第16届美国视觉效果协会奖(2018)
  最佳电影虚拟摄影(提名)

  第23届美国评论家选择电影奖(2018)
  最佳歌曲(提名)
  最佳美术指导(提名)
  最佳服装设计(提名)
  最佳发型化妆(提名)

  第22届金卫星奖(2018)
  电影部门 最佳服装设计(提名) 杰奎琳·杜兰

  第21届好莱坞电影奖(2017)
  年度服装设计 杰奎琳·杜兰
  年度化妆 珍妮·希尔科尔

  第30届芝加哥影评人协会奖(2017)
  最佳艺术指导(提名)

  第42届报知映画赏(2017)
  海外作品奖 比尔·康顿

  第4届豆瓣电影年度榜单(2017)
  3月最受关注电影(提名)
  1. Video
  2. ID                                       : 1
  3. Format                                   : AVC
  4. Format/Info                              : Advanced Video Codec
  5. Format profile                           : High@L4
  6. Format settings                          : CABAC / 5 Ref Frames
  7. Format settings, CABAC                   : Yes
  8. Format settings, Reference frames        : 5 frames
  9. Codec ID                                 : V_MPEG4/ISO/AVC
  10. Duration                                 : 2 h 9 min
  11. Bit rate                                 : 20.7 Mb/s
  12. Width                                    : 3 840 pixels
  13. Height                                   : 1 606 pixels
  14. Display aspect ratio                     : 2.40:1
  15. Frame rate mode                          : Constant
  16. Frame rate                               : 23.976 (24000/1001) FPS
  17. Color space                              : YUV
  18. Chroma subsampling                       : 4:2:0
  19. Bit depth                                : 8 bits
  20. Scan type                                : Progressive
  21. Bits/(Pixel*Frame)                       : 0.140
  22. Stream size                              : 18.7 GiB (68%)
  23. Title                                    : Beauty.and.the.Beast.2017.2160p.BluRay.x264.8bit.SDR.DTS-HD.MA.TrueHD.7.1.Atmos-SWTYBLZ
  24. Writing library                          : x264 core 157 r2935 545de2f
  25. Encoding settings                        : cabac=1 / ref=5 / deblock=1:-1:-1 / analyse=0x3:0x113 / me=umh / subme=10 / psy=1 / psy_rd=1.00:0.15 / mixed_ref=1 / me_range=48 / chroma_me=1 / trellis=2 / 8x8dct=1 / cqm=0 / deadzone=21,11 / fast_pskip=1 / chroma_qp_offset=-3 / threads=48 / lookahead_threads=4 / sliced_threads=0 / nr=0 / decimate=0 / interlaced=0 / bluray_compat=0 / constrained_intra=0 / bframes=3 / b_pyramid=2 / b_adapt=2 / b_bias=0 / direct=3 / weightb=1 / open_gop=0 / weightp=2 / keyint=250 / keyint_min=23 / scenecut=40 / intra_refresh=0 / rc_lookahead=50 / rc=crf / mbtree=1 / crf=18.0 / qcomp=0.60 / qpmin=0 / qpmax=69 / qpstep=4 / ip_ratio=1.40 / aq=1:1.00
  26. Default                                  : Yes
  27. Forced                                   : No

  28. Audio #1
  29. ID                                       : 2
  30. Format                                   : MLP FBA 16-ch
  31. Format/Info                              : Meridian Lossless Packing FBA with 16-channel presentation
  32. Commercial name                          : Dolby TrueHD with Dolby Atmos
  33. Codec ID                                 : A_TRUEHD
  34. Duration                                 : 2 h 9 min
  35. Bit rate mode                            : Variable
  36. Bit rate                                 : 4 936 kb/s
  37. Maximum bit rate                         : 8 103 kb/s
  38. Channel(s)                               : 8 channels
  39. Channel layout                           : L R C LFE Ls Rs Lb Rb
  40. Sampling rate                            : 48.0 kHz
  41. Frame rate                               : 1 200.000 FPS (40 SPF)
  42. Compression mode                         : Lossless
  43. Stream size                              : 4.46 GiB (16%)
  44. Title                                    : Beauty.and.the.Beast.2017.2160p.BluRay.x264.8bit.SDR.DTS-HD.MA.TrueHD.7.1.Atmos-SWTYBLZ
  45. Language                                 : English
  46. Default                                  : Yes
  47. Forced                                   : No
  48. Number of dynamic objects                : 13
  49. Bed channel count                        : 1 channel
  50. Bed channel configuration                : LFE

  51. Audio #2
  52. ID                                       : 3
  53. Format                                   : DTS XLL
  54. Format/Info                              : Digital Theater Systems
  55. Commercial name                          : DTS-HD Master Audio
  56. Codec ID                                 : A_DTS
  57. Duration                                 : 2 h 9 min
  58. Bit rate mode                            : Variable
  59. Bit rate                                 : 4 075 kb/s
  60. Channel(s)                               : 8 channels
  61. Channel layout                           : C L R LFE Lb Rb Lss Rss
  62. Sampling rate                            : 48.0 kHz
  63. Frame rate                               : 93.750 FPS (512 SPF)
  64. Bit depth                                : 24 bits
  65. Compression mode                         : Lossless
  66. Stream size                              : 3.68 GiB (13%)
  67. Title                                    : Beauty.and.the.Beast.2017.2160p.BluRay.x264.8bit.SDR.DTS-HD.MA.TrueHD.7.1.Atmos-SWTYBLZ
  68. Language                                 : English
  69. Default                                  : No
  70. Forced                                   : No

  71. Audio #3
  72. ID                                       : 4
  73. Format                                   : AC-3
  74. Format/Info                              : Audio Coding 3
  75. Commercial name                          : Dolby Digital
  76. Codec ID                                 : A_AC3
  77. Duration                                 : 2 h 9 min
  78. Bit rate mode                            : Constant
  79. Bit rate                                 : 640 kb/s
  80. Channel(s)                               : 6 channels
  81. Channel layout                           : L R C LFE Ls Rs
  82. Sampling rate                            : 48.0 kHz
  83. Frame rate                               : 31.250 FPS (1536 SPF)
  84. Compression mode                         : Lossy
  85. Stream size                              : 592 MiB (2%)
  86. Title                                    : Beauty.and.the.Beast.2017.2160p.BluRay.x264.8bit.SDR.DTS-HD.MA.TrueHD.7.1.Atmos-SWTYBLZ
  87. Language                                 : English
  88. Service kind                             : Complete Main
  89. Default                                  : No
  90. Forced                                   : No

  91. Text #1
  92. ID                                       : 5
  93. Format                                   : UTF-8
  94. Codec ID                                 : S_TEXT/UTF8
  95. Codec ID/Info                            : UTF-8 Plain Text
  96. Duration                                 : 2 h 8 min
  97. Bit rate                                 : 48 b/s
  98. Count of elements                        : 1786
  99. Stream size                              : 45.8 KiB (0%)
  100. Title                                    : English-SRT
  101. Language                                 : English
  102. Default                                  : Yes
  103. Forced                                   : No

  104. Text #2
  105. ID                                       : 6
  106. Format                                   : PGS
  107. Muxing mode                              : zlib
  108. Codec ID                                 : S_HDMV/PGS
  109. Codec ID/Info                            : Picture based subtitle format used on BDs/HD-DVDs
  110. Duration                                 : 2 h 8 min
  111. Bit rate                                 : 36.8 kb/s
  112. Count of elements                        : 4050
  113. Stream size                              : 33.7 MiB (0%)
  114. Title                                    : English-PGS
  115. Language                                 : English
  116. Default                                  : No
  117. Forced                                   : No

  118. Text #3
  119. ID                                       : 7
  120. Format                                   : PGS
  121. Muxing mode                              : zlib
  122. Codec ID                                 : S_HDMV/PGS
  123. Codec ID/Info                            : Picture based subtitle format used on BDs/HD-DVDs
  124. Duration                                 : 2 h 1 min
  125. Bit rate                                 : 27.4 kb/s
  126. Count of elements                        : 3128
  127. Stream size                              : 23.9 MiB (0%)
  128. Title                                    : French-PGS
  129. Language                                 : French
  130. Default                                  : No
  131. Forced                                   : No

  132. Text #4
  133. ID                                       : 8
  134. Format                                   : PGS
  135. Muxing mode                              : zlib
  136. Codec ID                                 : S_HDMV/PGS
  137. Codec ID/Info                            : Picture based subtitle format used on BDs/HD-DVDs
  138. Duration                                 : 2 h 8 min
  139. Bit rate                                 : 32.5 kb/s
  140. Count of elements                        : 3448
  141. Stream size                              : 29.8 MiB (0%)
  142. Title                                    : French-PGS
  143. Language                                 : French
  144. Default                                  : No
  145. Forced                                   : No

  146. Text #5
  147. ID                                       : 9
  148. Format                                   : PGS
  149. Muxing mode                              : zlib
  150. Codec ID                                 : S_HDMV/PGS
  151. Codec ID/Info                            : Picture based subtitle format used on BDs/HD-DVDs
  152. Duration                                 : 2 h 1 min
  153. Bit rate                                 : 29.4 kb/s
  154. Count of elements                        : 3188
  155. Stream size                              : 25.7 MiB (0%)
  156. Title                                    : Spanish-PGS
  157. Language                                 : Spanish
  158. Default                                  : No
  159. Forced                                   : No

  160. Text #6
  161. ID                                       : 10
  162. Format                                   : PGS
  163. Muxing mode                              : zlib
  164. Codec ID                                 : S_HDMV/PGS
  165. Codec ID/Info                            : Picture based subtitle format used on BDs/HD-DVDs
  166. Duration                                 : 1 h 57 min
  167. Bit rate                                 : 31.2 kb/s
  168. Count of elements                        : 3188
  169. Stream size                              : 26.3 MiB (0%)
  170. Title                                    : Italian-PGS
  171. Language                                 : Italian
  172. Default                                  : No
  173. Forced                                   : No

  174. Text #7
  175. ID                                       : 11
  176. Format                                   : PGS
  177. Muxing mode                              : zlib
  178. Codec ID                                 : S_HDMV/PGS
  179. Codec ID/Info                            : Picture based subtitle format used on BDs/HD-DVDs
  180. Duration                                 : 1 h 57 min
  181. Bit rate                                 : 30.6 kb/s
  182. Count of elements                        : 3228
  183. Stream size                              : 25.8 MiB (0%)
  184. Title                                    : German-PGS
  185. Language                                 : German
  186. Default                                  : No
  187. Forced                                   : No

  188. Text #8
  189. ID                                       : 12
  190. Format                                   : PGS
  191. Muxing mode                              : zlib
  192. Codec ID                                 : S_HDMV/PGS
  193. Codec ID/Info                            : Picture based subtitle format used on BDs/HD-DVDs
  194. Duration                                 : 2 h 8 min
  195. Bit rate                                 : 27.4 kb/s
  196. Count of elements                        : 3194
  197. Stream size                              : 25.1 MiB (0%)
  198. Title                                    : Norwegian-PGS
  199. Language                                 : Norwegian
  200. Default                                  : No
  201. Forced                                   : No

  202. Text #9
  203. ID                                       : 13
  204. Format                                   : PGS
  205. Muxing mode                              : zlib
  206. Codec ID                                 : S_HDMV/PGS
  207. Codec ID/Info                            : Picture based subtitle format used on BDs/HD-DVDs
  208. Duration                                 : 2 h 1 min
  209. Bit rate                                 : 27.2 kb/s
  210. Count of elements                        : 2378
  211. Stream size                              : 23.7 MiB (0%)
  212. Title                                    : Swedish-PGS
  213. Language                                 : Swedish
  214. Default                                  : No
  215. Forced                                   : No

  216. Menu
  217. 00:00:00.000                             : en:Chapter 01
  218. 00:04:35.817                             : en:Chapter 02
  219. 00:08:06.402                             : en:Chapter 03
  220. 00:11:18.135                             : en:Chapter 04
  221. 00:15:21.420                             : en:Chapter 05
  222. 00:18:57.136                             : en:Chapter 06
  223. 00:25:05.795                             : en:Chapter 07
  224. 00:31:41.441                             : en:Chapter 08
  225. 00:36:08.583                             : en:Chapter 09
  226. 00:42:31.882                             : en:Chapter 10
  227. 00:47:01.193                             : en:Chapter 11
  228. 00:54:44.864                             : en:Chapter 12
  229. 01:00:43.431                             : en:Chapter 13
  230. 01:07:40.806                             : en:Chapter 14
  231. 01:14:38.098                             : en:Chapter 15
  232. 01:19:43.570                             : en:Chapter 16
  233. 01:22:02.417                             : en:Chapter 17
  234. 01:28:53.202                             : en:Chapter 18
  235. 01:34:01.177                             : en:Chapter 19
  236. 01:38:10.050                             : en:Chapter 20
  237. 01:45:23.567                             : en:Chapter 21
  238. 01:49:13.838                             : en:Chapter 22
  239. 01:55:53.738                             : en:Chapter 23
  240. 01:58:49.080                             : en:Chapter 24
复制代码

美女与野兽 Beauty.and.the.Beast.2017.2160p.BluRay.x264.8bit.SDR.DTS-HD.MA.TrueHD.7.1.Atmos-SWTYBLZ 27.63GB-2.png 美女与野兽 Beauty.and.the.Beast.2017.2160p.BluRay.x264.8bit.SDR.DTS-HD.MA.TrueHD.7.1.Atmos-SWTYBLZ 27.63GB-1.png 美女与野兽 Beauty.and.the.Beast.2017.2160p.BluRay.x264.8bit.SDR.DTS-HD.MA.TrueHD.7.1.Atmos-SWTYBLZ 27.63GB-4.png 美女与野兽 Beauty.and.the.Beast.2017.2160p.BluRay.x264.8bit.SDR.DTS-HD.MA.TrueHD.7.1.Atmos-SWTYBLZ 27.63GB-5.png 美女与野兽 Beauty.and.the.Beast.2017.2160p.BluRay.x264.8bit.SDR.DTS-HD.MA.TrueHD.7.1.Atmos-SWTYBLZ 27.63GB-6.png 美女与野兽 Beauty.and.the.Beast.2017.2160p.BluRay.x264.8bit.SDR.DTS-HD.MA.TrueHD.7.1.Atmos-SWTYBLZ 27.63GB-7.png 美女与野兽 Beauty.and.the.Beast.2017.2160p.BluRay.x264.8bit.SDR.DTS-HD.MA.TrueHD.7.1.Atmos-SWTYBLZ 27.63GB-8.png






回复

使用道具 举报

发表于 2020-3-1 20:15:22 | 显示全部楼层
楼主发贴辛苦了,谢谢楼主分享!我觉得蓝光电影网是注册对了!
回复 支持 反对

使用道具 举报

 成长值: 1105

发表于 2020-3-2 09:23:02 | 显示全部楼层
感谢楼主发布这个电影。
回复 支持 反对

使用道具 举报

已抛锚 成长值: 3525

发表于 2020-3-2 09:33:01 | 显示全部楼层
感谢楼主!!
回复

使用道具 举报

发表于 2020-3-2 19:59:44 | 显示全部楼层

楼主太厉害了!楼主,电影应该很好看我觉得蓝光电影网真是个好地方!
回复 支持 反对

使用道具 举报

发表于 2020-3-2 20:09:49 | 显示全部楼层
楼主辛苦了
回复 支持 反对

使用道具 举报

发表于 2020-3-4 10:12:09 | 显示全部楼层

这个帖子不回对不起自己!我想我是一天也不能离开蓝光电影网
回复 支持 反对

使用道具 举报

发表于 2020-3-4 17:02:23 | 显示全部楼层
反对法士大夫撒旦
回复 支持 反对

使用道具 举报

发表于 2020-3-7 14:24:53 来自手机 | 显示全部楼层
感谢楼主
回复

使用道具 举报

发表于 2020-3-10 09:32:56 | 显示全部楼层
4K文件还是太大啊
回复 支持 反对

使用道具 举报

懒得打字嘛,点击右侧快捷回复 【右侧内容,后台自定义】
您需要登录后才可以回帖 登录 | 立即加入

本版积分规则

现在加入蓝光电影网,注册一个账号
上个主题 下个主题 快速回复 收藏帖子 返回列表 客服中心 搜索

手机版|小黑屋| 蓝光电影网 |网站地图 

Copyright © 2015-2019 Comsenz Inc.  Template by 蓝光电影论坛 All Rights Reserved.

Powered by 蓝光电影网 X3.4

特别声明:本站所有资源均由网上收集而来,版权归原影音公司所有,如果侵犯了你的权益,请通知我们,我们会及时删除侵权内容.

快速回复 返回顶部 返回列表