找回密码

蓝光电影网

查看: 295|回复: 7

[10bit.HDR] 美女与野兽/美女与野兽3D Beauty.and.the.Beast.1991.2160p.UHD.BluRay.X265.10bit.HDR.TrueHD.7.1.Atmos-AViATOR 12.66GB

[复制链接]

 成长值: 25285

发表于 2020-3-1 17:15:46 | 显示全部楼层 |阅读模式
美女与野兽/美女与野兽3D Beauty.and.the.Beast.1991.2160p.UHD.BluRay.X265.10bit.HDR.TrueHD.7.1.Atmos-AViATOR 12.66GB-1.png

译  名 美女与野兽 / 美女与野兽3D
片  名 Beauty and the Beast
年  代 1991
产  地 美国
类  别 喜剧 / 爱情 / 动画 / 歌舞 / 奇幻
语  言 英语 / 法语
上映日期 1991-09-29(纽约电影节) / 1991-11-22(美国) / 2012-01-13(美国)
IMDb评分  8.0/10 from 402519 users
IMDb链接  https://www.imdb.com/title/tt0101414
豆瓣评分 8.4/10 from 127503 users
豆瓣链接 https://movie.douban.com/subject/1297995/
片  长 84分钟
导  演 加里·特洛斯达勒 Gary Trousdale / 柯克·维斯 Kirk Wise
编  剧 琳达·伍尔芙顿 Linda Woolverton / 罗杰·阿勒斯 Roger Allers / 布兰达?查普曼 Brenda Chapman / 伯尼·马丁森 Burny Mattinson / 布瑞恩·皮门托尔 Brian Pimental / 乔·兰福特 Joe Ranft / 凯利·阿斯博瑞 Kelly Asbury / 克里斯·桑德斯 Chris Sanders / 凯文·哈基 Kevin Harkey / 布鲁斯·伍德赛德 Bruce Woodside / 汤姆·埃勒里 Tom Ellery / 罗伯特·伦塞 Robert Lence
主  演 佩吉·奥哈拉 Paige O'Hara
       罗比·本森 Robby Benson
       理查德·怀特 Richard White
       杰里·奥尔巴赫 Jerry Orbach
       戴维·奥格登·施蒂尔斯 David Ogden Stiers
       安吉拉·兰斯伯瑞 Angela Lansbury
       布莱德利·皮尔斯 Bradley Pierce
       雷克斯·埃弗哈特 Rex Everhart
       杰西·科尔蒂 Jesse Corti
       哈尔·史密斯 Hal Smith
       乔·安妮·沃利 Jo Anne Worley
       玛丽·凯·伯格曼 Mary Kay Bergman
       布瑞恩·卡明斯 Brian Cummings
       阿尔文·爱泼斯坦 Alvin Epstein
       托尼·杰 Tony Jay
       亚历克·墨菲 Alec Murphy
       金米·罗伯特森 Kimmy Robertson
       凯特·索西 Kath Soucie
       弗兰克·维尔克 Frank Welker


标  签 动画 | 迪斯尼 | 美国 | 爱情 | 经典 | 美女与野兽 | DISNEY | 动画片

简  介  

  贝儿美丽善良,与老父亲一起住在一个宁静的小村庄里。一次,父亲不小心闯进了野兽的领地,被囚禁在野兽的城堡里。为了救出亲爱的父亲,贝儿只身犯险,答应与野兽同居于古堡而换回了父亲。野兽的城堡华丽而充满奇幻色彩,有充满绅士风度的烛台先生,和蔼亲切的茶壶妈妈,还有可爱的小茶壶宝宝。然而,贝儿生活的并不愉快,一心想念着她的父亲。
  终于,贝儿找到了逃走的机会。可是却遇到了凶狠的狼群。危难关头,野兽及时出现,解救了贝儿,自己却受了伤。贝儿心存感动,细心照顾野兽。相处的过程中,二人互相了解,野兽也被感化,慢慢变得温和,学会去爱。朝夕相处,日生情愫。也许,野兽也可以是英勇的守护骑士,温雅的白马王子。

获奖情况  

  第64届奥斯卡金像奖(1992)
  最佳影片(提名) 唐·翰
  最佳音响(提名) David J. Hudson / Doc Kane / Mel Metcalfe / 特里·波特
  最佳原创配乐 艾伦·曼肯
  最佳原创歌曲 霍华德·阿什曼 / 艾伦·曼肯
  最佳原创歌曲(提名) 霍华德·阿什曼 / 艾伦·曼肯

  第46届英国电影学院奖(1993)
  电影奖 最佳特殊视觉效果(提名) Randy Fullmer
  电影奖 最佳原创音乐(提名) 霍华德·阿什曼 / 艾伦·曼肯

  第20届动画安妮奖(1992)
  最佳动画长片
  最佳个人成就 格兰·基恩
  1. Video
  2. ID                                       : 1
  3. Format                                   : HEVC
  4. Format/Info                              : High Efficiency Video Coding
  5. Format profile                           : Main 10@L5.1@High
  6. HDR format                               : SMPTE ST 2086, HDR10 compatible
  7. Codec ID                                 : V_MPEGH/ISO/HEVC
  8. Duration                                 : 1 h 24 min
  9. Bit rate                                 : 12.1 Mb/s
  10. Width                                    : 3 840 pixels
  11. Height                                   : 2 160 pixels
  12. Display aspect ratio                     : 16:9
  13. Frame rate mode                          : Constant
  14. Frame rate                               : 23.976 (24000/1001/39027) FPS
  15. Color space                              : YUV
  16. Chroma subsampling                       : 4:2:0 (Type 2)
  17. Bit depth                                : 10 bits
  18. Bits/(Pixel*Frame)                       : 0.061
  19. Stream size                              : 7.20 GiB (58%)
  20. Writing library                          : x265 3.2+23-52135ffd9bcd:[Windows][GCC 9.2.1][64 bit] 10bit
  21. Encoding settings                        : cpuid=1176575 / frame-threads=6 / numa-pools=36 / wpp / no-pmode / no-pme / no-psnr / no-ssim / log-level=2 / input-csp=1 / input-res=3840x2160 / interlace=0 / total-frames=122122 / level-idc=51 / high-tier=1 / uhd-bd=1 / ref=4 / no-allow-non-conformance / repeat-headers / annexb / aud / hrd / info / hash=0 / no-temporal-layers / no-open-gop / min-keyint=1 / keyint=24 / gop-lookahead=0 / bframes=4 / b-adapt=2 / b-pyramid / bframe-bias=0 / rc-lookahead=25 / lookahead-slices=4 / scenecut=40 / hist-scenecut=0 / radl=0 / no-splice / no-intra-refresh / ctu=64 / min-cu-size=8 / rect / no-amp / max-tu-size=32 / tu-inter-depth=1 / tu-intra-depth=1 / limit-tu=0 / rdoq-level=2 / dynamic-rd=0.00 / no-ssim-rd / signhide / no-tskip / nr-intra=0 / nr-inter=0 / no-constrained-intra / no-strong-intra-smoothing / max-merge=3 / limit-refs=3 / limit-modes / me=3 / subme=3 / merange=57 / temporal-mvp / no-frame-dup / no-hme / weightp / no-weightb / no-analyze-src-pics / deblock=-3:-3 / no-sao / no-sao-non-deblock / rd=4 / selective-sao=0 / no-early-skip / rskip / no-fast-intra / no-tskip-fast / no-cu-lossless / no-b-intra / no-splitrd-skip / rdpenalty=0 / psy-rd=2.00 / psy-rdoq=1.00 / no-rd-refine / no-lossless / cbqpoffs=0 / crqpoffs=0 / rc=crf / crf=17.0 / qcomp=0.60 / qpstep=4 / stats-write=0 / stats-read=0 / vbv-maxrate=160000 / vbv-bufsize=160000 / vbv-init=0.9 / crf-max=0.0 / crf-min=0.0 / ipratio=1.40 / pbratio=1.30 / aq-mode=1 / aq-strength=1.00 / cutree / zone-count=0 / no-strict-cbr / qg-size=32 / no-rc-grain / qpmax=69 / qpmin=0 / no-const-vbv / sar=1 / overscan=0 / videoformat=5 / range=0 / colorprim=9 / transfer=16 / colormatrix=9 / chromaloc=1 / chromaloc-top=2 / chromaloc-bottom=2 / display-window=0 / master-display=G(13250,34500)B(7500,3000)R(34000,16000)WP(15635,16450)L(40000000,50) / cll=0,0 / min-luma=0 / max-luma=1023 / log2-max-poc-lsb=8 / vui-timing-info / vui-hrd-info / slices=1 / no-opt-qp-pps / no-opt-ref-list-length-pps / no-multi-pass-opt-rps / scenecut-bias=0.05 / hist-threshold=0.01 / no-opt-cu-delta-qp / no-aq-motion / hdr / hdr-opt / no-dhdr10-opt / no-idr-recovery-sei / analysis-reuse-level=5 / scale-factor=0 / refine-intra=0 / refine-inter=0 / refine-mv=1 / refine-ctu-distortion=0 / no-limit-sao / ctu-info=0 / no-lowpass-dct / refine-analysis-type=0 / copy-pic=1 / max-ausize-factor=1.0 / no-dynamic-refine / no-single-sei / no-hevc-aq / no-svt / no-field / qp-adaptation-range=1.00 / no-scenecut-aware-qp
  22. Default                                  : Yes
  23. Forced                                   : No
  24. Color range                              : Limited
  25. Color primaries                          : BT.2020
  26. Transfer characteristics                 : PQ
  27. Matrix coefficients                      : BT.2020 non-constant
  28. Mastering display color primaries        : Display P3
  29. Mastering display luminance              : min: 0.0050 cd/m2, max: 4000 cd/m2

  30. Audio #1
  31. ID                                       : 2
  32. Format                                   : MLP FBA 16-ch
  33. Format/Info                              : Meridian Lossless Packing FBA with 16-channel presentation
  34. Commercial name                          : Dolby TrueHD with Dolby Atmos
  35. Codec ID                                 : A_TRUEHD
  36. Duration                                 : 1 h 24 min
  37. Bit rate mode                            : Variable
  38. Bit rate                                 : 8 209 kb/s
  39. Maximum bit rate                         : 12.1 Mb/s
  40. Channel(s)                               : 8 channels
  41. Channel layout                           : L R C LFE Ls Rs Lb Rb
  42. Sampling rate                            : 48.0 kHz
  43. Frame rate                               : 1 200.000 FPS (40 SPF)
  44. Compression mode                         : Lossless
  45. Stream size                              : 4.87 GiB (39%)
  46. Language                                 : English
  47. Default                                  : Yes
  48. Forced                                   : No
  49. Number of dynamic objects                : 13
  50. Bed channel count                        : 1 channel
  51. Bed channel configuration                : LFE

  52. Audio #2
  53. ID                                       : 3
  54. Format                                   : AC-3
  55. Format/Info                              : Audio Coding 3
  56. Commercial name                          : Dolby Digital
  57. Codec ID                                 : A_AC3
  58. Duration                                 : 1 h 24 min
  59. Bit rate mode                            : Constant
  60. Bit rate                                 : 640 kb/s
  61. Channel(s)                               : 6 channels
  62. Channel layout                           : L R C LFE Ls Rs
  63. Sampling rate                            : 48.0 kHz
  64. Frame rate                               : 31.250 FPS (1536 SPF)
  65. Bit depth                                : 16 bits
  66. Compression mode                         : Lossy
  67. Stream size                              : 389 MiB (3%)
  68. Language                                 : English
  69. Service kind                             : Complete Main
  70. Default                                  : No
  71. Forced                                   : No

  72. Text #1
  73. ID                                       : 4
  74. Format                                   : PGS
  75. Muxing mode                              : zlib
  76. Codec ID                                 : S_HDMV/PGS
  77. Codec ID/Info                            : Picture based subtitle format used on BDs/HD-DVDs
  78. Duration                                 : 1 h 23 min
  79. Bit rate                                 : 42.8 kb/s
  80. Count of elements                        : 2702
  81. Stream size                              : 25.5 MiB (0%)
  82. Title                                    : English SDH
  83. Language                                 : English
  84. Default                                  : No
  85. Forced                                   : No

  86. Text #2
  87. ID                                       : 5
  88. Format                                   : PGS
  89. Muxing mode                              : zlib
  90. Codec ID                                 : S_HDMV/PGS
  91. Codec ID/Info                            : Picture based subtitle format used on BDs/HD-DVDs
  92. Duration                                 : 1 h 18 min
  93. Bit rate                                 : 36.4 kb/s
  94. Count of elements                        : 2176
  95. Stream size                              : 20.5 MiB (0%)
  96. Title                                    : French
  97. Language                                 : French
  98. Default                                  : No
  99. Forced                                   : No

  100. Text #3
  101. ID                                       : 6
  102. Format                                   : PGS
  103. Muxing mode                              : zlib
  104. Codec ID                                 : S_HDMV/PGS
  105. Codec ID/Info                            : Picture based subtitle format used on BDs/HD-DVDs
  106. Duration                                 : 1 h 23 min
  107. Bit rate                                 : 32.9 kb/s
  108. Count of elements                        : 2198
  109. Stream size                              : 19.6 MiB (0%)
  110. Title                                    : Spanish
  111. Language                                 : Spanish
  112. Default                                  : No
  113. Forced                                   : No

  114. Text #4
  115. ID                                       : 7
  116. Format                                   : PGS
  117. Muxing mode                              : zlib
  118. Codec ID                                 : S_HDMV/PGS
  119. Codec ID/Info                            : Picture based subtitle format used on BDs/HD-DVDs
  120. Duration                                 : 4 s 630 ms
  121. Bit rate                                 : 19.2 kb/s
  122. Count of elements                        : 2
  123. Stream size                              : 10.9 KiB (0%)
  124. Title                                    : French
  125. Language                                 : French
  126. Default                                  : No
  127. Forced                                   : No

  128. Text #5
  129. ID                                       : 8
  130. Format                                   : PGS
  131. Muxing mode                              : zlib
  132. Codec ID                                 : S_HDMV/PGS
  133. Codec ID/Info                            : Picture based subtitle format used on BDs/HD-DVDs
  134. Duration                                 : 1 h 21 min
  135. Bit rate                                 : 188 b/s
  136. Count of elements                        : 8
  137. Stream size                              : 112 KiB (0%)
  138. Title                                    : Spanish
  139. Language                                 : Spanish
  140. Default                                  : No
  141. Forced                                   : No
复制代码
063555mlu2ka6u95kkzlor.png 063555y3x8x09xj7q8twgj.png 063555ktgps9tz20pcpvd6.png



回复

使用道具 举报

发表于 2020-3-1 18:34:53 | 显示全部楼层
楼主发贴辛苦了,谢谢楼主分享!我觉得蓝光电影网是注册对了!
回复 支持 反对

使用道具 举报

发表于 2020-3-2 18:43:15 | 显示全部楼层
谢谢楼主分享!
回复 支持 反对

使用道具 举报

发表于 2020-3-2 19:36:26 | 显示全部楼层

感谢楼主的无私分享!要想蓝光电影网好 就靠你我他
回复 支持 反对

使用道具 举报

发表于 2020-3-3 12:32:41 | 显示全部楼层
感谢楼主的无私分享!要想蓝光电影网好 就靠你我他
回复 支持 反对

使用道具 举报

发表于 2020-3-3 15:03:56 | 显示全部楼层
这个也是3D版本的么??
回复 支持 反对

使用道具 举报

发表于 2020-3-3 22:43:22 | 显示全部楼层
楼主发贴辛苦了,谢谢楼主分享!我觉得蓝光电影网是注册对了!
回复 支持 反对

使用道具 举报

发表于 2020-3-7 19:56:21 | 显示全部楼层
很不错的电影
回复 支持 反对

使用道具 举报

懒得打字嘛,点击右侧快捷回复 【右侧内容,后台自定义】
您需要登录后才可以回帖 登录 | 立即加入

本版积分规则

现在加入蓝光电影网,注册一个账号
上个主题 下个主题 快速回复 收藏帖子 返回列表 客服中心 搜索

手机版|小黑屋| 蓝光电影网 |网站地图 

Copyright © 2015-2019 Comsenz Inc.  Template by 蓝光电影论坛 All Rights Reserved.

Powered by 蓝光电影网 X3.4

特别声明:本站所有资源均由网上收集而来,版权归原影音公司所有,如果侵犯了你的权益,请通知我们,我们会及时删除侵权内容.

快速回复 返回顶部 返回列表