找回密码

蓝光电影网

查看: 146|回复: 3

[8bit.SDR] 美女与野兽/美女与野兽3D Beauty.and.the.Beast.1991.2160p.BluRay.x264.8bit.SDR.DTS-HD.MA.TrueHD.7.1.Atmos-SWTYBLZ 21.52GB

[复制链接]

 成长值: 25285

发表于 2020-3-1 17:12:08 | 显示全部楼层 |阅读模式
美女与野兽/美女与野兽3D Beauty.and.the.Beast.1991.2160p.BluRay.x264.8bit.SDR.DTS-HD.MA.TrueHD.7.1.Atmos-SWTYBLZ 21.52GB-1.png

译  名 美女与野兽 / 美女与野兽3D
片  名 Beauty and the Beast
年  代 1991
产  地 美国
类  别 喜剧 / 爱情 / 动画 / 歌舞 / 奇幻
语  言 英语 / 法语
上映日期 1991-09-29(纽约电影节) / 1991-11-22(美国) / 2012-01-13(美国)
IMDb评分  8.0/10 from 402519 users
IMDb链接  https://www.imdb.com/title/tt0101414
豆瓣评分 8.4/10 from 127503 users
豆瓣链接 https://movie.douban.com/subject/1297995/
片  长 84分钟
导  演 加里·特洛斯达勒 Gary Trousdale / 柯克·维斯 Kirk Wise
编  剧 琳达·伍尔芙顿 Linda Woolverton / 罗杰·阿勒斯 Roger Allers / 布兰达?查普曼 Brenda Chapman / 伯尼·马丁森 Burny Mattinson / 布瑞恩·皮门托尔 Brian Pimental / 乔·兰福特 Joe Ranft / 凯利·阿斯博瑞 Kelly Asbury / 克里斯·桑德斯 Chris Sanders / 凯文·哈基 Kevin Harkey / 布鲁斯·伍德赛德 Bruce Woodside / 汤姆·埃勒里 Tom Ellery / 罗伯特·伦塞 Robert Lence
主  演 佩吉·奥哈拉 Paige O'Hara
       罗比·本森 Robby Benson
       理查德·怀特 Richard White
       杰里·奥尔巴赫 Jerry Orbach
       戴维·奥格登·施蒂尔斯 David Ogden Stiers
       安吉拉·兰斯伯瑞 Angela Lansbury
       布莱德利·皮尔斯 Bradley Pierce
       雷克斯·埃弗哈特 Rex Everhart
       杰西·科尔蒂 Jesse Corti
       哈尔·史密斯 Hal Smith
       乔·安妮·沃利 Jo Anne Worley
       玛丽·凯·伯格曼 Mary Kay Bergman
       布瑞恩·卡明斯 Brian Cummings
       阿尔文·爱泼斯坦 Alvin Epstein
       托尼·杰 Tony Jay
       亚历克·墨菲 Alec Murphy
       金米·罗伯特森 Kimmy Robertson
       凯特·索西 Kath Soucie
       弗兰克·维尔克 Frank Welker


标  签 动画 | 迪斯尼 | 美国 | 爱情 | 经典 | 美女与野兽 | DISNEY | 动画片

简  介  

  贝儿美丽善良,与老父亲一起住在一个宁静的小村庄里。一次,父亲不小心闯进了野兽的领地,被囚禁在野兽的城堡里。为了救出亲爱的父亲,贝儿只身犯险,答应与野兽同居于古堡而换回了父亲。野兽的城堡华丽而充满奇幻色彩,有充满绅士风度的烛台先生,和蔼亲切的茶壶妈妈,还有可爱的小茶壶宝宝。然而,贝儿生活的并不愉快,一心想念着她的父亲。
  终于,贝儿找到了逃走的机会。可是却遇到了凶狠的狼群。危难关头,野兽及时出现,解救了贝儿,自己却受了伤。贝儿心存感动,细心照顾野兽。相处的过程中,二人互相了解,野兽也被感化,慢慢变得温和,学会去爱。朝夕相处,日生情愫。也许,野兽也可以是英勇的守护骑士,温雅的白马王子。

获奖情况  

  第64届奥斯卡金像奖(1992)
  最佳影片(提名) 唐·翰
  最佳音响(提名) David J. Hudson / Doc Kane / Mel Metcalfe / 特里·波特
  最佳原创配乐 艾伦·曼肯
  最佳原创歌曲 霍华德·阿什曼 / 艾伦·曼肯
  最佳原创歌曲(提名) 霍华德·阿什曼 / 艾伦·曼肯

  第46届英国电影学院奖(1993)
  电影奖 最佳特殊视觉效果(提名) Randy Fullmer
  电影奖 最佳原创音乐(提名) 霍华德·阿什曼 / 艾伦·曼肯

  第20届动画安妮奖(1992)
  最佳动画长片
  最佳个人成就 格兰·基恩
  1. Video
  2. ID                                       : 1
  3. Format                                   : AVC
  4. Format/Info                              : Advanced Video Codec
  5. Format profile                           : High@L4
  6. Format settings                          : CABAC / 5 Ref Frames
  7. Format settings, CABAC                   : Yes
  8. Format settings, Reference frames        : 5 frames
  9. Codec ID                                 : V_MPEG4/ISO/AVC
  10. Duration                                 : 1 h 24 min
  11. Bit rate                                 : 23.2 Mb/s
  12. Width                                    : 3 840 pixels
  13. Height                                   : 2 160 pixels
  14. Display aspect ratio                     : 16:9
  15. Frame rate mode                          : Constant
  16. Frame rate                               : 23.976 (24000/1001) FPS
  17. Color space                              : YUV
  18. Chroma subsampling                       : 4:2:0
  19. Bit depth                                : 8 bits
  20. Scan type                                : Progressive
  21. Bits/(Pixel*Frame)                       : 0.117
  22. Stream size                              : 13.8 GiB (64%)
  23. Title                                    : Beauty.and.the.Beast.1991.2160p.BluRay.x264.8bit.SDR.DTS-HD.MA.TrueHD.7.1.Atmos-SWTYBLZ
  24. Writing library                          : x264 core 157 r2935 545de2f
  25. Encoding settings                        : cabac=1 / ref=5 / deblock=1:1:1 / analyse=0x3:0x113 / me=umh / subme=10 / psy=1 / psy_rd=0.40:0.00 / mixed_ref=1 / me_range=48 / chroma_me=1 / trellis=2 / 8x8dct=1 / cqm=0 / deadzone=21,11 / fast_pskip=1 / chroma_qp_offset=-2 / threads=36 / lookahead_threads=4 / sliced_threads=0 / nr=0 / decimate=0 / interlaced=0 / bluray_compat=0 / constrained_intra=0 / bframes=5 / b_pyramid=2 / b_adapt=2 / b_bias=0 / direct=3 / weightb=1 / open_gop=0 / weightp=2 / keyint=250 / keyint_min=23 / scenecut=40 / intra_refresh=0 / rc_lookahead=50 / rc=crf / mbtree=1 / crf=16.0 / qcomp=0.60 / qpmin=0 / qpmax=69 / qpstep=4 / ip_ratio=1.40 / aq=1:0.60
  26. Default                                  : Yes
  27. Forced                                   : No

  28. Audio #1
  29. ID                                       : 2
  30. Format                                   : MLP FBA 16-ch
  31. Format/Info                              : Meridian Lossless Packing FBA with 16-channel presentation
  32. Commercial name                          : Dolby TrueHD with Dolby Atmos
  33. Codec ID                                 : A_TRUEHD
  34. Duration                                 : 1 h 24 min
  35. Bit rate mode                            : Variable
  36. Bit rate                                 : 8 209 kb/s
  37. Maximum bit rate                         : 12.1 Mb/s
  38. Channel(s)                               : 8 channels
  39. Channel layout                           : L R C LFE Ls Rs Lb Rb
  40. Sampling rate                            : 48.0 kHz
  41. Frame rate                               : 1 200.000 FPS (40 SPF)
  42. Compression mode                         : Lossless
  43. Stream size                              : 4.87 GiB (23%)
  44. Title                                    : Beauty.and.the.Beast.1991.2160p.BluRay.x264.8bit.SDR.DTS-HD.MA.TrueHD.7.1.Atmos-SWTYBLZ
  45. Language                                 : English
  46. Default                                  : Yes
  47. Forced                                   : No
  48. Number of dynamic objects                : 13
  49. Bed channel count                        : 1 channel
  50. Bed channel configuration                : LFE

  51. Audio #2
  52. ID                                       : 3
  53. Format                                   : DTS XLL
  54. Format/Info                              : Digital Theater Systems
  55. Commercial name                          : DTS-HD Master Audio
  56. Codec ID                                 : A_DTS
  57. Duration                                 : 1 h 24 min
  58. Bit rate mode                            : Variable
  59. Bit rate                                 : 3 911 kb/s
  60. Channel(s)                               : 8 channels
  61. Channel layout                           : C L R LFE Lb Rb Lss Rss
  62. Sampling rate                            : 48.0 kHz
  63. Frame rate                               : 93.750 FPS (512 SPF)
  64. Bit depth                                : 24 bits
  65. Compression mode                         : Lossless
  66. Stream size                              : 2.32 GiB (11%)
  67. Title                                    : Beauty.and.the.Beast.1991.2160p.BluRay.x264.8bit.SDR.DTS-HD.MA.TrueHD.7.1.Atmos-SWTYBLZ
  68. Language                                 : English
  69. Default                                  : No
  70. Forced                                   : No

  71. Audio #3
  72. ID                                       : 4
  73. Format                                   : AC-3
  74. Format/Info                              : Audio Coding 3
  75. Commercial name                          : Dolby Digital
  76. Codec ID                                 : A_AC3
  77. Duration                                 : 1 h 24 min
  78. Bit rate mode                            : Constant
  79. Bit rate                                 : 640 kb/s
  80. Channel(s)                               : 6 channels
  81. Channel layout                           : L R C LFE Ls Rs
  82. Sampling rate                            : 48.0 kHz
  83. Frame rate                               : 31.250 FPS (1536 SPF)
  84. Bit depth                                : 16 bits
  85. Compression mode                         : Lossy
  86. Stream size                              : 389 MiB (2%)
  87. Title                                    : Beauty.and.the.Beast.1991.2160p.BluRay.x264.8bit.SDR.DTS-HD.MA.TrueHD.7.1.Atmos-SWTYBLZ
  88. Language                                 : English
  89. Service kind                             : Complete Main
  90. Default                                  : No
  91. Forced                                   : No

  92. Text #1
  93. ID                                       : 5
  94. Format                                   : UTF-8
  95. Codec ID                                 : S_TEXT/UTF8
  96. Codec ID/Info                            : UTF-8 Plain Text
  97. Duration                                 : 1 h 23 min
  98. Bit rate                                 : 60 b/s
  99. Count of elements                        : 1172
  100. Stream size                              : 36.6 KiB (0%)
  101. Title                                    : English-SRT
  102. Language                                 : English
  103. Default                                  : Yes
  104. Forced                                   : No

  105. Text #2
  106. ID                                       : 6
  107. Format                                   : PGS
  108. Muxing mode                              : zlib
  109. Codec ID                                 : S_HDMV/PGS
  110. Codec ID/Info                            : Picture based subtitle format used on BDs/HD-DVDs
  111. Duration                                 : 1 h 23 min
  112. Bit rate                                 : 42.8 kb/s
  113. Count of elements                        : 2702
  114. Stream size                              : 25.5 MiB (0%)
  115. Title                                    : English-PGS
  116. Language                                 : English
  117. Default                                  : No
  118. Forced                                   : No

  119. Text #3
  120. ID                                       : 7
  121. Format                                   : PGS
  122. Muxing mode                              : zlib
  123. Codec ID                                 : S_HDMV/PGS
  124. Codec ID/Info                            : Picture based subtitle format used on BDs/HD-DVDs
  125. Duration                                 : 1 h 18 min
  126. Bit rate                                 : 36.4 kb/s
  127. Count of elements                        : 2176
  128. Stream size                              : 20.5 MiB (0%)
  129. Title                                    : French-PGS
  130. Language                                 : French
  131. Default                                  : No
  132. Forced                                   : No

  133. Text #4
  134. ID                                       : 8
  135. Format                                   : PGS
  136. Muxing mode                              : zlib
  137. Codec ID                                 : S_HDMV/PGS
  138. Codec ID/Info                            : Picture based subtitle format used on BDs/HD-DVDs
  139. Duration                                 : 1 h 23 min
  140. Bit rate                                 : 32.9 kb/s
  141. Count of elements                        : 2198
  142. Stream size                              : 19.6 MiB (0%)
  143. Title                                    : Spanish-PGS
  144. Language                                 : Spanish
  145. Default                                  : No
  146. Forced                                   : No

  147. Menu
  148. 00:00:00.000                             : en:Chapter 01
  149. 00:03:19.490                             : en:Chapter 02
  150. 00:08:24.629                             : en:Chapter 03
  151. 00:13:50.830                             : en:Chapter 04
  152. 00:17:34.762                             : en:Chapter 05
  153. 00:20:53.710                             : en:Chapter 06
  154. 00:25:33.782                             : en:Chapter 07
  155. 00:27:04.623                             : en:Chapter 08
  156. 00:34:58.387                             : en:Chapter 09
  157. 00:38:28.723                             : en:Chapter 10
  158. 00:43:50.419                             : en:Chapter 11
  159. 00:49:25.504                             : en:Chapter 12
  160. 00:51:58.949                             : en:Chapter 13
  161. 00:53:59.527                             : en:Chapter 14
  162. 00:57:34.868                             : en:Chapter 15
  163. 01:04:10.179                             : en:Chapter 16
  164. 01:05:56.243                             : en:Chapter 17
  165. 01:08:50.251                             : en:Chapter 18
  166. 01:11:43.173                             : en:Chapter 19
  167. 01:16:16.697                             : en:Chapter 20
  168. 01:20:28.698                             : en:Chapter 21
复制代码

美女与野兽/美女与野兽3D Beauty.and.the.Beast.1991.2160p.BluRay.x264.8bit.SDR.DTS-HD.MA.TrueHD.7.1.Atmos-SWTYBLZ 21.52GB-2.png 美女与野兽/美女与野兽3D Beauty.and.the.Beast.1991.2160p.BluRay.x264.8bit.SDR.DTS-HD.MA.TrueHD.7.1.Atmos-SWTYBLZ 21.52GB-3.png 美女与野兽/美女与野兽3D Beauty.and.the.Beast.1991.2160p.BluRay.x264.8bit.SDR.DTS-HD.MA.TrueHD.7.1.Atmos-SWTYBLZ 21.52GB-4.png 美女与野兽/美女与野兽3D Beauty.and.the.Beast.1991.2160p.BluRay.x264.8bit.SDR.DTS-HD.MA.TrueHD.7.1.Atmos-SWTYBLZ 21.52GB-5.png 美女与野兽/美女与野兽3D Beauty.and.the.Beast.1991.2160p.BluRay.x264.8bit.SDR.DTS-HD.MA.TrueHD.7.1.Atmos-SWTYBLZ 21.52GB-6.png 美女与野兽/美女与野兽3D Beauty.and.the.Beast.1991.2160p.BluRay.x264.8bit.SDR.DTS-HD.MA.TrueHD.7.1.Atmos-SWTYBLZ 21.52GB-7.png 美女与野兽/美女与野兽3D Beauty.and.the.Beast.1991.2160p.BluRay.x264.8bit.SDR.DTS-HD.MA.TrueHD.7.1.Atmos-SWTYBLZ 21.52GB-1.png 美女与野兽/美女与野兽3D Beauty.and.the.Beast.1991.2160p.BluRay.x264.8bit.SDR.DTS-HD.MA.TrueHD.7.1.Atmos-SWTYBLZ 21.52GB-9.png






回复

使用道具 举报

发表于 2020-3-1 22:37:30 | 显示全部楼层
试听音质
回复

使用道具 举报

发表于 2020-3-2 10:47:22 | 显示全部楼层

这东西我收了!谢谢楼主!蓝光电影网真好!
回复 支持 反对

使用道具 举报

发表于 2020-3-2 11:45:29 | 显示全部楼层

这东西我收了!谢谢楼主!蓝光电影网真好!
回复 支持 反对

使用道具 举报

懒得打字嘛,点击右侧快捷回复 【右侧内容,后台自定义】
您需要登录后才可以回帖 登录 | 立即加入

本版积分规则

现在加入蓝光电影网,注册一个账号
上个主题 下个主题 快速回复 收藏帖子 返回列表 客服中心 搜索

手机版|小黑屋| 蓝光电影网 |网站地图 

Copyright © 2015-2019 Comsenz Inc.  Template by 蓝光电影论坛 All Rights Reserved.

Powered by 蓝光电影网 X3.4

特别声明:本站所有资源均由网上收集而来,版权归原影音公司所有,如果侵犯了你的权益,请通知我们,我们会及时删除侵权内容.

快速回复 返回顶部 返回列表