找回密码

蓝光电影网

查看: 187|回复: 0

[10bit.SDR] 美女与野兽/美女与野兽3D Beauty.and.the.Beast.1991.2160p.BluRay.x265.10bit.SDR.DTS-HD.MA.TrueHD.7.1.Atmos-SWTYBLZ 24.31GB

[复制链接]

 成长值: 25360

发表于 2020-3-1 17:10:17 | 显示全部楼层 |阅读模式
美女与野兽/美女与野兽3D Beauty.and.the.Beast.1991.2160p.BluRay.x265.10bit.SDR.DTS-HD.MA.TrueHD.7.1.Atmos-SWTYBLZ 24.31GB-1.png

译  名 美女与野兽 / 美女与野兽3D
片  名 Beauty and the Beast
年  代 1991
产  地 美国
类  别 喜剧 / 爱情 / 动画 / 歌舞 / 奇幻
语  言 英语 / 法语
上映日期 1991-09-29(纽约电影节) / 1991-11-22(美国) / 2012-01-13(美国)
IMDb评分  8.0/10 from 402519 users
IMDb链接  https://www.imdb.com/title/tt0101414
豆瓣评分 8.4/10 from 127503 users
豆瓣链接 https://movie.douban.com/subject/1297995/
片  长 84分钟
导  演 加里·特洛斯达勒 Gary Trousdale / 柯克·维斯 Kirk Wise
编  剧 琳达·伍尔芙顿 Linda Woolverton / 罗杰·阿勒斯 Roger Allers / 布兰达?查普曼 Brenda Chapman / 伯尼·马丁森 Burny Mattinson / 布瑞恩·皮门托尔 Brian Pimental / 乔·兰福特 Joe Ranft / 凯利·阿斯博瑞 Kelly Asbury / 克里斯·桑德斯 Chris Sanders / 凯文·哈基 Kevin Harkey / 布鲁斯·伍德赛德 Bruce Woodside / 汤姆·埃勒里 Tom Ellery / 罗伯特·伦塞 Robert Lence
主  演 佩吉·奥哈拉 Paige O'Hara
       罗比·本森 Robby Benson
       理查德·怀特 Richard White
       杰里·奥尔巴赫 Jerry Orbach
       戴维·奥格登·施蒂尔斯 David Ogden Stiers
       安吉拉·兰斯伯瑞 Angela Lansbury
       布莱德利·皮尔斯 Bradley Pierce
       雷克斯·埃弗哈特 Rex Everhart
       杰西·科尔蒂 Jesse Corti
       哈尔·史密斯 Hal Smith
       乔·安妮·沃利 Jo Anne Worley
       玛丽·凯·伯格曼 Mary Kay Bergman
       布瑞恩·卡明斯 Brian Cummings
       阿尔文·爱泼斯坦 Alvin Epstein
       托尼·杰 Tony Jay
       亚历克·墨菲 Alec Murphy
       金米·罗伯特森 Kimmy Robertson
       凯特·索西 Kath Soucie
       弗兰克·维尔克 Frank Welker


标  签 动画 | 迪斯尼 | 美国 | 爱情 | 经典 | 美女与野兽 | DISNEY | 动画片

简  介  

  贝儿美丽善良,与老父亲一起住在一个宁静的小村庄里。一次,父亲不小心闯进了野兽的领地,被囚禁在野兽的城堡里。为了救出亲爱的父亲,贝儿只身犯险,答应与野兽同居于古堡而换回了父亲。野兽的城堡华丽而充满奇幻色彩,有充满绅士风度的烛台先生,和蔼亲切的茶壶妈妈,还有可爱的小茶壶宝宝。然而,贝儿生活的并不愉快,一心想念着她的父亲。
  终于,贝儿找到了逃走的机会。可是却遇到了凶狠的狼群。危难关头,野兽及时出现,解救了贝儿,自己却受了伤。贝儿心存感动,细心照顾野兽。相处的过程中,二人互相了解,野兽也被感化,慢慢变得温和,学会去爱。朝夕相处,日生情愫。也许,野兽也可以是英勇的守护骑士,温雅的白马王子。

获奖情况  

  第64届奥斯卡金像奖(1992)
  最佳影片(提名) 唐·翰
  最佳音响(提名) David J. Hudson / Doc Kane / Mel Metcalfe / 特里·波特
  最佳原创配乐 艾伦·曼肯
  最佳原创歌曲 霍华德·阿什曼 / 艾伦·曼肯
  最佳原创歌曲(提名) 霍华德·阿什曼 / 艾伦·曼肯

  第46届英国电影学院奖(1993)
  电影奖 最佳特殊视觉效果(提名) Randy Fullmer
  电影奖 最佳原创音乐(提名) 霍华德·阿什曼 / 艾伦·曼肯

  第20届动画安妮奖(1992)
  最佳动画长片
  最佳个人成就 格兰·基恩
  1. Video
  2. ID                                       : 1
  3. Format                                   : HEVC
  4. Format/Info                              : High Efficiency Video Coding
  5. Format profile                           : Main High@L4@High
  6. Codec ID                                 : V_MPEGH/ISO/HEVC
  7. Duration                                 : 1 h 24 min
  8. Bit rate                                 : 27.9 Mb/s
  9. Width                                    : 3 840 pixels
  10. Height                                   : 2 160 pixels
  11. Display aspect ratio                     : 16:9
  12. Frame rate mode                          : Constant
  13. Frame rate                               : 23.976 (24000/1001) FPS
  14. Color space                              : YUV
  15. Chroma subsampling                       : 4:2:0
  16. Bit depth                                : 10 bits
  17. Bits/(Pixel*Frame)                       : 0.140
  18. Stream size                              : 16.6 GiB (68%)
  19. Title                                    : Beauty.and.the.Beast.1991.2160p.BluRay.x265.10bit.SDR.DTS-HD.MA.TrueHD.7.1.Atmos-SWTYBLZ
  20. Writing library                          : x265 3.0ed72af837053:[Windows][GCC 8.2.0][64 bit] 10bit
  21. Encoding settings                        : cpuid=1111039 / frame-threads=6 / numa-pools=40 / wpp / no-pmode / no-pme / no-psnr / no-ssim / log-level=2 / input-csp=1 / input-res=3840x2160 / interlace=0 / total-frames=122122 / level-idc=51 / high-tier=1 / uhd-bd=0 / ref=3 / no-allow-non-conformance / repeat-headers / annexb / aud / hrd / info / hash=0 / no-temporal-layers / no-open-gop / min-keyint=1 / keyint=24 / gop-lookahead=0 / bframes=6 / b-adapt=2 / b-pyramid / bframe-bias=0 / rc-lookahead=25 / lookahead-slices=4 / scenecut=40 / radl=0 / no-splice / no-intra-refresh / ctu=64 / min-cu-size=8 / no-rect / no-amp / max-tu-size=32 / tu-inter-depth=1 / tu-intra-depth=1 / limit-tu=0 / rdoq-level=0 / dynamic-rd=0.00 / no-ssim-rd / signhide / no-tskip / nr-intra=0 / nr-inter=0 / no-constrained-intra / strong-intra-smoothing / max-merge=2 / limit-refs=3 / no-limit-modes / me=1 / subme=2 / merange=57 / temporal-mvp / weightp / no-weightb / no-analyze-src-pics / deblock=1:1 / no-sao / no-sao-non-deblock / rd=3 / no-early-skip / rskip / no-fast-intra / no-tskip-fast / no-cu-lossless / no-b-intra / no-splitrd-skip / rdpenalty=0 / psy-rd=0.40 / psy-rdoq=0.00 / no-rd-refine / no-lossless / cbqpoffs=0 / crqpoffs=0 / rc=crf / crf=14.0 / qcomp=0.60 / qpstep=4 / stats-write=0 / stats-read=0 / vbv-maxrate=160000 / vbv-bufsize=160000 / vbv-init=0.9 / crf-max=0.0 / crf-min=0.0 / ipratio=1.40 / pbratio=1.30 / aq-mode=1 / aq-strength=0.40 / cutree / zone-count=0 / no-strict-cbr / qg-size=32 / no-rc-grain / qpmax=69 / qpmin=0 / no-const-vbv / sar=1 / overscan=0 / videoformat=5 / range=0 / colorprim=2 / transfer=2 / colormatrix=2 / chromaloc=0 / display-window=0 / max-cll=0,0 / min-luma=0 / max-luma=1023 / log2-max-poc-lsb=8 / vui-timing-info / vui-hrd-info / slices=1 / opt-qp-pps / opt-ref-list-length-pps / no-multi-pass-opt-rps / scenecut-bias=0.05 / no-opt-cu-delta-qp / no-aq-motion / no-hdr / no-hdr-opt / no-dhdr10-opt / no-idr-recovery-sei / analysis-reuse-level=5 / scale-factor=0 / refine-intra=0 / refine-inter=0 / refine-mv=0 / refine-ctu-distortion=0 / no-limit-sao / ctu-info=0 / no-lowpass-dct / refine-analysis-type=0 / copy-pic=1 / max-ausize-factor=1.0 / no-dynamic-refine / no-single-sei / no-hevc-aq / qp-adaptation-range=1.00
  22. Default                                  : Yes
  23. Forced                                   : No

  24. Audio #1
  25. ID                                       : 2
  26. Format                                   : MLP FBA 16-ch
  27. Format/Info                              : Meridian Lossless Packing FBA with 16-channel presentation
  28. Commercial name                          : Dolby TrueHD with Dolby Atmos
  29. Codec ID                                 : A_TRUEHD
  30. Duration                                 : 1 h 24 min
  31. Bit rate mode                            : Variable
  32. Bit rate                                 : 8 209 kb/s
  33. Maximum bit rate                         : 12.1 Mb/s
  34. Channel(s)                               : 8 channels
  35. Channel layout                           : L R C LFE Ls Rs Lb Rb
  36. Sampling rate                            : 48.0 kHz
  37. Frame rate                               : 1 200.000 FPS (40 SPF)
  38. Compression mode                         : Lossless
  39. Stream size                              : 4.87 GiB (20%)
  40. Title                                    : Beauty.and.the.Beast.1991.2160p.BluRay.x265.10bit.SDR.DTS-HD.MA.TrueHD.7.1.Atmos-SWTYBLZ
  41. Language                                 : English
  42. Default                                  : Yes
  43. Forced                                   : No
  44. Number of dynamic objects                : 13
  45. Bed channel count                        : 1 channel
  46. Bed channel configuration                : LFE

  47. Audio #2
  48. ID                                       : 3
  49. Format                                   : DTS XLL
  50. Format/Info                              : Digital Theater Systems
  51. Commercial name                          : DTS-HD Master Audio
  52. Codec ID                                 : A_DTS
  53. Duration                                 : 1 h 24 min
  54. Bit rate mode                            : Variable
  55. Bit rate                                 : 3 911 kb/s
  56. Channel(s)                               : 8 channels
  57. Channel layout                           : C L R LFE Lb Rb Lss Rss
  58. Sampling rate                            : 48.0 kHz
  59. Frame rate                               : 93.750 FPS (512 SPF)
  60. Bit depth                                : 24 bits
  61. Compression mode                         : Lossless
  62. Stream size                              : 2.32 GiB (10%)
  63. Title                                    : Beauty.and.the.Beast.1991.2160p.BluRay.x265.10bit.SDR.DTS-HD.MA.TrueHD.7.1.Atmos-SWTYBLZ
  64. Language                                 : English
  65. Default                                  : No
  66. Forced                                   : No

  67. Audio #3
  68. ID                                       : 4
  69. Format                                   : AC-3
  70. Format/Info                              : Audio Coding 3
  71. Commercial name                          : Dolby Digital
  72. Codec ID                                 : A_AC3
  73. Duration                                 : 1 h 24 min
  74. Bit rate mode                            : Constant
  75. Bit rate                                 : 640 kb/s
  76. Channel(s)                               : 6 channels
  77. Channel layout                           : L R C LFE Ls Rs
  78. Sampling rate                            : 48.0 kHz
  79. Frame rate                               : 31.250 FPS (1536 SPF)
  80. Bit depth                                : 16 bits
  81. Compression mode                         : Lossy
  82. Stream size                              : 389 MiB (2%)
  83. Title                                    : Beauty.and.the.Beast.1991.2160p.BluRay.x265.10bit.SDR.DTS-HD.MA.TrueHD.7.1.Atmos-SWTYBLZ
  84. Language                                 : English
  85. Service kind                             : Complete Main
  86. Default                                  : No
  87. Forced                                   : No

  88. Text #1
  89. ID                                       : 5
  90. Format                                   : UTF-8
  91. Codec ID                                 : S_TEXT/UTF8
  92. Codec ID/Info                            : UTF-8 Plain Text
  93. Duration                                 : 1 h 23 min
  94. Bit rate                                 : 60 b/s
  95. Count of elements                        : 1172
  96. Stream size                              : 36.6 KiB (0%)
  97. Title                                    : English-SRT
  98. Language                                 : English
  99. Default                                  : Yes
  100. Forced                                   : No

  101. Text #2
  102. ID                                       : 6
  103. Format                                   : PGS
  104. Muxing mode                              : zlib
  105. Codec ID                                 : S_HDMV/PGS
  106. Codec ID/Info                            : Picture based subtitle format used on BDs/HD-DVDs
  107. Duration                                 : 1 h 23 min
  108. Bit rate                                 : 42.8 kb/s
  109. Count of elements                        : 2702
  110. Stream size                              : 25.5 MiB (0%)
  111. Title                                    : English-PGS
  112. Language                                 : English
  113. Default                                  : No
  114. Forced                                   : No

  115. Text #3
  116. ID                                       : 7
  117. Format                                   : PGS
  118. Muxing mode                              : zlib
  119. Codec ID                                 : S_HDMV/PGS
  120. Codec ID/Info                            : Picture based subtitle format used on BDs/HD-DVDs
  121. Duration                                 : 1 h 18 min
  122. Bit rate                                 : 36.4 kb/s
  123. Count of elements                        : 2176
  124. Stream size                              : 20.5 MiB (0%)
  125. Title                                    : French-PGS
  126. Language                                 : French
  127. Default                                  : No
  128. Forced                                   : No

  129. Text #4
  130. ID                                       : 8
  131. Format                                   : PGS
  132. Muxing mode                              : zlib
  133. Codec ID                                 : S_HDMV/PGS
  134. Codec ID/Info                            : Picture based subtitle format used on BDs/HD-DVDs
  135. Duration                                 : 1 h 23 min
  136. Bit rate                                 : 32.9 kb/s
  137. Count of elements                        : 2198
  138. Stream size                              : 19.6 MiB (0%)
  139. Title                                    : Spanish-PGS
  140. Language                                 : Spanish
  141. Default                                  : No
  142. Forced                                   : No

  143. Menu
  144. 00:00:00.000                             : en:Chapter 01
  145. 00:03:19.490                             : en:Chapter 02
  146. 00:08:24.629                             : en:Chapter 03
  147. 00:13:50.830                             : en:Chapter 04
  148. 00:17:34.762                             : en:Chapter 05
  149. 00:20:53.710                             : en:Chapter 06
  150. 00:25:33.782                             : en:Chapter 07
  151. 00:27:04.623                             : en:Chapter 08
  152. 00:34:58.387                             : en:Chapter 09
  153. 00:38:28.723                             : en:Chapter 10
  154. 00:43:50.419                             : en:Chapter 11
  155. 00:49:25.504                             : en:Chapter 12
  156. 00:51:58.949                             : en:Chapter 13
  157. 00:53:59.527                             : en:Chapter 14
  158. 00:57:34.868                             : en:Chapter 15
  159. 01:04:10.179                             : en:Chapter 16
  160. 01:05:56.243                             : en:Chapter 17
  161. 01:08:50.251                             : en:Chapter 18
  162. 01:11:43.173                             : en:Chapter 19
  163. 01:16:16.697                             : en:Chapter 20
  164. 01:20:28.698                             : en:Chapter 21
复制代码

美女与野兽/美女与野兽3D Beauty.and.the.Beast.1991.2160p.BluRay.x265.10bit.SDR.DTS-HD.MA.TrueHD.7.1.Atmos-SWTYBLZ 24.31GB-2.png 美女与野兽/美女与野兽3D Beauty.and.the.Beast.1991.2160p.BluRay.x265.10bit.SDR.DTS-HD.MA.TrueHD.7.1.Atmos-SWTYBLZ 24.31GB-1.png 美女与野兽/美女与野兽3D Beauty.and.the.Beast.1991.2160p.BluRay.x265.10bit.SDR.DTS-HD.MA.TrueHD.7.1.Atmos-SWTYBLZ 24.31GB-4.png 美女与野兽/美女与野兽3D Beauty.and.the.Beast.1991.2160p.BluRay.x265.10bit.SDR.DTS-HD.MA.TrueHD.7.1.Atmos-SWTYBLZ 24.31GB-1.png 美女与野兽/美女与野兽3D Beauty.and.the.Beast.1991.2160p.BluRay.x265.10bit.SDR.DTS-HD.MA.TrueHD.7.1.Atmos-SWTYBLZ 24.31GB-6.png 美女与野兽/美女与野兽3D Beauty.and.the.Beast.1991.2160p.BluRay.x265.10bit.SDR.DTS-HD.MA.TrueHD.7.1.Atmos-SWTYBLZ 24.31GB-7.png 美女与野兽/美女与野兽3D Beauty.and.the.Beast.1991.2160p.BluRay.x265.10bit.SDR.DTS-HD.MA.TrueHD.7.1.Atmos-SWTYBLZ 24.31GB-8.png 美女与野兽/美女与野兽3D Beauty.and.the.Beast.1991.2160p.BluRay.x265.10bit.SDR.DTS-HD.MA.TrueHD.7.1.Atmos-SWTYBLZ 24.31GB-9.png






回复

使用道具 举报

懒得打字嘛,点击右侧快捷回复 【右侧内容,后台自定义】
您需要登录后才可以回帖 登录 | 立即加入

本版积分规则

现在加入蓝光电影网,注册一个账号
上个主题 下个主题 快速回复 收藏帖子 返回列表 客服中心 搜索

手机版|小黑屋| 蓝光电影网 |网站地图 

Copyright © 2015-2019 Comsenz Inc.  Template by 蓝光电影论坛 All Rights Reserved.

Powered by 蓝光电影网 X3.4

特别声明:本站所有资源均由网上收集而来,版权归原影音公司所有,如果侵犯了你的权益,请通知我们,我们会及时删除侵权内容.

快速回复 返回顶部 返回列表