找回密码

蓝光电影网

查看: 152|回复: 3

[REMUX.HEVC] 美女与野兽/美女与野兽3D Beauty.and.the.Beast.1991.2160p.BluRay.REMUX.HEVC.DTS-HD.MA.TrueHD.7.1.Atmos-FGT 55.26GB

[复制链接]

 成长值: 25360

发表于 2020-3-1 17:00:29 | 显示全部楼层 |阅读模式
美女与野兽/美女与野兽3D Beauty.and.the.Beast.1991.2160p.BluRay.REMUX.HEVC.DTS-HD.MA.TrueHD.7.1.Atmos-FGT 55.26GB-1.png

译  名 美女与野兽 / 美女与野兽3D
片  名 Beauty and the Beast
年  代 1991
产  地 美国
类  别 喜剧 / 爱情 / 动画 / 歌舞 / 奇幻
语  言 英语 / 法语
上映日期 1991-09-29(纽约电影节) / 1991-11-22(美国) / 2012-01-13(美国)
IMDb评分  8.0/10 from 402519 users
IMDb链接  https://www.imdb.com/title/tt0101414
豆瓣评分 8.4/10 from 127503 users
豆瓣链接 https://movie.douban.com/subject/1297995/
片  长 84分钟
导  演 加里·特洛斯达勒 Gary Trousdale / 柯克·维斯 Kirk Wise
编  剧 琳达·伍尔芙顿 Linda Woolverton / 罗杰·阿勒斯 Roger Allers / 布兰达?查普曼 Brenda Chapman / 伯尼·马丁森 Burny Mattinson / 布瑞恩·皮门托尔 Brian Pimental / 乔·兰福特 Joe Ranft / 凯利·阿斯博瑞 Kelly Asbury / 克里斯·桑德斯 Chris Sanders / 凯文·哈基 Kevin Harkey / 布鲁斯·伍德赛德 Bruce Woodside / 汤姆·埃勒里 Tom Ellery / 罗伯特·伦塞 Robert Lence
主  演 佩吉·奥哈拉 Paige O'Hara
       罗比·本森 Robby Benson
       理查德·怀特 Richard White
       杰里·奥尔巴赫 Jerry Orbach
       戴维·奥格登·施蒂尔斯 David Ogden Stiers
       安吉拉·兰斯伯瑞 Angela Lansbury
       布莱德利·皮尔斯 Bradley Pierce
       雷克斯·埃弗哈特 Rex Everhart
       杰西·科尔蒂 Jesse Corti
       哈尔·史密斯 Hal Smith
       乔·安妮·沃利 Jo Anne Worley
       玛丽·凯·伯格曼 Mary Kay Bergman
       布瑞恩·卡明斯 Brian Cummings
       阿尔文·爱泼斯坦 Alvin Epstein
       托尼·杰 Tony Jay
       亚历克·墨菲 Alec Murphy
       金米·罗伯特森 Kimmy Robertson
       凯特·索西 Kath Soucie
       弗兰克·维尔克 Frank Welker


标  签 动画 | 迪斯尼 | 美国 | 爱情 | 经典 | 美女与野兽 | DISNEY | 动画片

简  介  

  贝儿美丽善良,与老父亲一起住在一个宁静的小村庄里。一次,父亲不小心闯进了野兽的领地,被囚禁在野兽的城堡里。为了救出亲爱的父亲,贝儿只身犯险,答应与野兽同居于古堡而换回了父亲。野兽的城堡华丽而充满奇幻色彩,有充满绅士风度的烛台先生,和蔼亲切的茶壶妈妈,还有可爱的小茶壶宝宝。然而,贝儿生活的并不愉快,一心想念着她的父亲。
  终于,贝儿找到了逃走的机会。可是却遇到了凶狠的狼群。危难关头,野兽及时出现,解救了贝儿,自己却受了伤。贝儿心存感动,细心照顾野兽。相处的过程中,二人互相了解,野兽也被感化,慢慢变得温和,学会去爱。朝夕相处,日生情愫。也许,野兽也可以是英勇的守护骑士,温雅的白马王子。

获奖情况  

  第64届奥斯卡金像奖(1992)
  最佳影片(提名) 唐·翰
  最佳音响(提名) David J. Hudson / Doc Kane / Mel Metcalfe / 特里·波特
  最佳原创配乐 艾伦·曼肯
  最佳原创歌曲 霍华德·阿什曼 / 艾伦·曼肯
  最佳原创歌曲(提名) 霍华德·阿什曼 / 艾伦·曼肯

  第46届英国电影学院奖(1993)
  电影奖 最佳特殊视觉效果(提名) Randy Fullmer
  电影奖 最佳原创音乐(提名) 霍华德·阿什曼 / 艾伦·曼肯

  第20届动画安妮奖(1992)
  最佳动画长片
  最佳个人成就 格兰·基恩
  1. Video
  2. ID                                       : 1
  3. Format                                   : HEVC
  4. Format/Info                              : High Efficiency Video Coding
  5. Format profile                           : Main High@L4@High
  6. HDR format                               : SMPTE ST 2086, HDR10 compatible
  7. Codec ID                                 : V_MPEGH/ISO/HEVC
  8. Duration                                 : 1 h 24 min
  9. Bit rate                                 : 77.8 Mb/s
  10. Width                                    : 3 840 pixels
  11. Height                                   : 2 160 pixels
  12. Display aspect ratio                     : 16:9
  13. Frame rate mode                          : Constant
  14. Frame rate                               : 23.976 (24000/1001) FPS
  15. Color space                              : YUV
  16. Chroma subsampling                       : 4:2:0 (Type 2)
  17. Bit depth                                : 10 bits
  18. Bits/(Pixel*Frame)                       : 0.391
  19. Stream size                              : 46.1 GiB (83%)
  20. Title                                    : Beauty.and.the.Beast.1991.2160p.BluRay.REMUX.HEVC.DTS-HD.MA.TrueHD.7.1.Atmos-FGT
  21. Writing library                          : ATEME Titan File 3.9.0 (4.9.0.0)        
  22. Language                                 : English
  23. Default                                  : No
  24. Forced                                   : No
  25. Color range                              : Limited
  26. Color primaries                          : BT.2020
  27. Transfer characteristics                 : PQ
  28. Matrix coefficients                      : BT.2020 non-constant
  29. Mastering display color primaries        : Display P3
  30. Mastering display luminance              : min: 0.0050 cd/m2, max: 4000 cd/m2

  31. Audio #1
  32. ID                                       : 2
  33. Format                                   : MLP FBA 16-ch
  34. Format/Info                              : Meridian Lossless Packing FBA with 16-channel presentation
  35. Commercial name                          : Dolby TrueHD with Dolby Atmos
  36. Codec ID                                 : A_TRUEHD
  37. Duration                                 : 1 h 24 min
  38. Bit rate mode                            : Variable
  39. Bit rate                                 : 8 209 kb/s
  40. Maximum bit rate                         : 12.1 Mb/s
  41. Channel(s)                               : 8 channels
  42. Channel layout                           : L R C LFE Ls Rs Lb Rb
  43. Sampling rate                            : 48.0 kHz
  44. Frame rate                               : 1 200.000 FPS (40 SPF)
  45. Compression mode                         : Lossless
  46. Stream size                              : 4.87 GiB (9%)
  47. Title                                    : Beauty.and.the.Beast.1991.2160p.BluRay.REMUX.HEVC.DTS-HD.MA.TrueHD.7.1.Atmos-FGT
  48. Language                                 : English
  49. Default                                  : Yes
  50. Forced                                   : No
  51. Number of dynamic objects                : 13
  52. Bed channel count                        : 1 channel
  53. Bed channel configuration                : LFE

  54. Audio #2
  55. ID                                       : 3
  56. Format                                   : DTS XLL
  57. Format/Info                              : Digital Theater Systems
  58. Commercial name                          : DTS-HD Master Audio
  59. Codec ID                                 : A_DTS
  60. Duration                                 : 1 h 24 min
  61. Bit rate mode                            : Variable
  62. Bit rate                                 : 3 911 kb/s
  63. Channel(s)                               : 8 channels
  64. Channel layout                           : C L R LFE Lb Rb Lss Rss
  65. Sampling rate                            : 48.0 kHz
  66. Frame rate                               : 93.750 FPS (512 SPF)
  67. Bit depth                                : 24 bits
  68. Compression mode                         : Lossless
  69. Stream size                              : 2.32 GiB (4%)
  70. Title                                    : Beauty.and.the.Beast.1991.2160p.BluRay.REMUX.HEVC.DTS-HD.MA.TrueHD.7.1.Atmos-FGT
  71. Language                                 : English
  72. Default                                  : No
  73. Forced                                   : No

  74. Audio #3
  75. ID                                       : 4
  76. Format                                   : AC-3
  77. Format/Info                              : Audio Coding 3
  78. Commercial name                          : Dolby Digital
  79. Codec ID                                 : A_AC3
  80. Duration                                 : 1 h 24 min
  81. Bit rate mode                            : Constant
  82. Bit rate                                 : 640 kb/s
  83. Channel(s)                               : 6 channels
  84. Channel layout                           : L R C LFE Ls Rs
  85. Sampling rate                            : 48.0 kHz
  86. Frame rate                               : 31.250 FPS (1536 SPF)
  87. Bit depth                                : 16 bits
  88. Compression mode                         : Lossy
  89. Stream size                              : 389 MiB (1%)
  90. Title                                    : Beauty.and.the.Beast.1991.2160p.BluRay.REMUX.HEVC.DTS-HD.MA.TrueHD.7.1.Atmos-FGT
  91. Language                                 : English
  92. Service kind                             : Complete Main
  93. Default                                  : No
  94. Forced                                   : No

  95. Audio #4
  96. ID                                       : 5
  97. Format                                   : AC-3
  98. Format/Info                              : Audio Coding 3
  99. Commercial name                          : Dolby Digital
  100. Codec ID                                 : A_AC3
  101. Duration                                 : 1 h 24 min
  102. Bit rate mode                            : Constant
  103. Bit rate                                 : 320 kb/s
  104. Channel(s)                               : 2 channels
  105. Channel layout                           : L R
  106. Sampling rate                            : 48.0 kHz
  107. Frame rate                               : 31.250 FPS (1536 SPF)
  108. Bit depth                                : 16 bits
  109. Compression mode                         : Lossy
  110. Stream size                              : 194 MiB (0%)
  111. Title                                    : Beauty.and.the.Beast.1991.2160p.BluRay.REMUX.HEVC.DTS-HD.MA.TrueHD.7.1.Atmos-FGT
  112. Language                                 : English
  113. Service kind                             : Complete Main
  114. Default                                  : No
  115. Forced                                   : No

  116. Audio #5
  117. ID                                       : 6
  118. Format                                   : E-AC-3
  119. Format/Info                              : Enhanced AC-3
  120. Commercial name                          : Dolby Digital Plus
  121. Format profile                           : Blu-ray Disc
  122. Codec ID                                 : A_EAC3
  123. Duration                                 : 1 h 24 min
  124. Bit rate mode                            : Constant
  125. Bit rate                                 : 1 024 kb/s
  126. Channel(s)                               : 8 channels
  127. Channel layout                           : L R C LFE Ls Rs Lb Rb
  128. Sampling rate                            : 48.0 kHz
  129. Frame rate                               : 31.250 FPS (1536 SPF)
  130. Compression mode                         : Lossy
  131. Stream size                              : 622 MiB (1%)
  132. Title                                    : Beauty.and.the.Beast.1991.2160p.BluRay.REMUX.HEVC.DTS-HD.MA.TrueHD.7.1.Atmos-FGT
  133. Language                                 : French
  134. Service kind                             : Complete Main
  135. Default                                  : No
  136. Forced                                   : No

  137. Audio #6
  138. ID                                       : 7
  139. Format                                   : AC-3
  140. Format/Info                              : Audio Coding 3
  141. Commercial name                          : Dolby Digital
  142. Codec ID                                 : A_AC3
  143. Duration                                 : 1 h 24 min
  144. Bit rate mode                            : Constant
  145. Bit rate                                 : 576 kb/s
  146. Channel(s)                               : 6 channels
  147. Channel layout                           : L R C LFE Ls Rs
  148. Sampling rate                            : 48.0 kHz
  149. Frame rate                               : 31.250 FPS (1536 SPF)
  150. Bit depth                                : 16 bits
  151. Compression mode                         : Lossy
  152. Stream size                              : 350 MiB (1%)
  153. Title                                    : Beauty.and.the.Beast.1991.2160p.BluRay.REMUX.HEVC.DTS-HD.MA.TrueHD.7.1.Atmos-FGT
  154. Language                                 : French
  155. Service kind                             : Complete Main
  156. Default                                  : No
  157. Forced                                   : No

  158. Audio #7
  159. ID                                       : 8
  160. Format                                   : AC-3
  161. Format/Info                              : Audio Coding 3
  162. Commercial name                          : Dolby Digital
  163. Codec ID                                 : A_AC3
  164. Duration                                 : 1 h 24 min
  165. Bit rate mode                            : Constant
  166. Bit rate                                 : 640 kb/s
  167. Channel(s)                               : 6 channels
  168. Channel layout                           : L R C LFE Ls Rs
  169. Sampling rate                            : 48.0 kHz
  170. Frame rate                               : 31.250 FPS (1536 SPF)
  171. Bit depth                                : 16 bits
  172. Compression mode                         : Lossy
  173. Stream size                              : 389 MiB (1%)
  174. Title                                    : Beauty.and.the.Beast.1991.2160p.BluRay.REMUX.HEVC.DTS-HD.MA.TrueHD.7.1.Atmos-FGT
  175. Language                                 : Spanish
  176. Service kind                             : Complete Main
  177. Default                                  : No
  178. Forced                                   : No

  179. Text #1
  180. ID                                       : 9
  181. Format                                   : UTF-8
  182. Codec ID                                 : S_TEXT/UTF8
  183. Codec ID/Info                            : UTF-8 Plain Text
  184. Duration                                 : 1 h 23 min
  185. Bit rate                                 : 60 b/s
  186. Count of elements                        : 1172
  187. Stream size                              : 36.6 KiB (0%)
  188. Title                                    : English-SRT
  189. Language                                 : English
  190. Default                                  : Yes
  191. Forced                                   : No

  192. Text #2
  193. ID                                       : 10
  194. Format                                   : PGS
  195. Muxing mode                              : zlib
  196. Codec ID                                 : S_HDMV/PGS
  197. Codec ID/Info                            : Picture based subtitle format used on BDs/HD-DVDs
  198. Duration                                 : 1 h 23 min
  199. Bit rate                                 : 42.8 kb/s
  200. Count of elements                        : 2702
  201. Stream size                              : 25.5 MiB (0%)
  202. Title                                    : English-PGS
  203. Language                                 : English
  204. Default                                  : No
  205. Forced                                   : No

  206. Text #3
  207. ID                                       : 11
  208. Format                                   : PGS
  209. Muxing mode                              : zlib
  210. Codec ID                                 : S_HDMV/PGS
  211. Codec ID/Info                            : Picture based subtitle format used on BDs/HD-DVDs
  212. Duration                                 : 1 h 18 min
  213. Bit rate                                 : 36.4 kb/s
  214. Count of elements                        : 2176
  215. Stream size                              : 20.5 MiB (0%)
  216. Title                                    : French-PGS
  217. Language                                 : French
  218. Default                                  : No
  219. Forced                                   : No

  220. Text #4
  221. ID                                       : 12
  222. Format                                   : PGS
  223. Muxing mode                              : zlib
  224. Codec ID                                 : S_HDMV/PGS
  225. Codec ID/Info                            : Picture based subtitle format used on BDs/HD-DVDs
  226. Duration                                 : 1 h 23 min
  227. Bit rate                                 : 32.9 kb/s
  228. Count of elements                        : 2198
  229. Stream size                              : 19.6 MiB (0%)
  230. Title                                    : Spanish-PGS
  231. Language                                 : Spanish
  232. Default                                  : No
  233. Forced                                   : No

  234. Text #5
  235. ID                                       : 13
  236. Format                                   : PGS
  237. Muxing mode                              : zlib
  238. Codec ID                                 : S_HDMV/PGS
  239. Codec ID/Info                            : Picture based subtitle format used on BDs/HD-DVDs
  240. Duration                                 : 4 s 609 ms
  241. Bit rate                                 : 19.3 kb/s
  242. Count of elements                        : 2
  243. Stream size                              : 10.9 KiB (0%)
  244. Title                                    : French-FORCED-PGS
  245. Language                                 : French
  246. Default                                  : No
  247. Forced                                   : No

  248. Text #6
  249. ID                                       : 14
  250. Format                                   : PGS
  251. Muxing mode                              : zlib
  252. Codec ID                                 : S_HDMV/PGS
  253. Codec ID/Info                            : Picture based subtitle format used on BDs/HD-DVDs
  254. Duration                                 : 1 h 21 min
  255. Bit rate                                 : 188 b/s
  256. Count of elements                        : 8
  257. Stream size                              : 112 KiB (0%)
  258. Title                                    : Spanish-FORCED-PGS
  259. Language                                 : Spanish
  260. Default                                  : No
  261. Forced                                   : No

  262. Menu
  263. 00:00:00.000                             : en:Chapter 01
  264. 00:03:19.490                             : en:Chapter 02
  265. 00:08:24.629                             : en:Chapter 03
  266. 00:13:50.830                             : en:Chapter 04
  267. 00:17:34.762                             : en:Chapter 05
  268. 00:20:53.710                             : en:Chapter 06
  269. 00:25:33.782                             : en:Chapter 07
  270. 00:27:04.623                             : en:Chapter 08
  271. 00:34:58.387                             : en:Chapter 09
  272. 00:38:28.723                             : en:Chapter 10
  273. 00:43:50.419                             : en:Chapter 11
  274. 00:49:25.504                             : en:Chapter 12
  275. 00:51:58.949                             : en:Chapter 13
  276. 00:53:59.527                             : en:Chapter 14
  277. 00:57:34.868                             : en:Chapter 15
  278. 01:04:10.179                             : en:Chapter 16
  279. 01:05:56.243                             : en:Chapter 17
  280. 01:08:50.251                             : en:Chapter 18
  281. 01:11:43.173                             : en:Chapter 19
  282. 01:16:16.697                             : en:Chapter 20
  283. 01:20:28.698                             : en:Chapter 21
复制代码

美女与野兽/美女与野兽3D Beauty.and.the.Beast.1991.2160p.BluRay.REMUX.HEVC.DTS-HD.MA.TrueHD.7.1.Atmos-FGT 55.26GB-2.png 美女与野兽/美女与野兽3D Beauty.and.the.Beast.1991.2160p.BluRay.REMUX.HEVC.DTS-HD.MA.TrueHD.7.1.Atmos-FGT 55.26GB-3.png 美女与野兽/美女与野兽3D Beauty.and.the.Beast.1991.2160p.BluRay.REMUX.HEVC.DTS-HD.MA.TrueHD.7.1.Atmos-FGT 55.26GB-4.png






回复

使用道具 举报

发表于 2020-3-2 06:22:20 | 显示全部楼层
楼主发贴辛苦了,谢谢楼主分享!我觉得蓝光电影网是注册对了!
回复 支持 反对

使用道具 举报

 成长值: 2440

发表于 2020-3-2 10:10:43 | 显示全部楼层
谢谢楼主无私分享。
回复 支持 反对

使用道具 举报

发表于 2020-3-18 15:01:54 | 显示全部楼层
早期版本的和新版本的都要看,感谢分享
回复 支持 反对

使用道具 举报

懒得打字嘛,点击右侧快捷回复 【右侧内容,后台自定义】
您需要登录后才可以回帖 登录 | 立即加入

本版积分规则

现在加入蓝光电影网,注册一个账号
上个主题 下个主题 快速回复 收藏帖子 返回列表 客服中心 搜索

手机版|小黑屋| 蓝光电影网 |网站地图 

Copyright © 2015-2019 Comsenz Inc.  Template by 蓝光电影论坛 All Rights Reserved.

Powered by 蓝光电影网 X3.4

特别声明:本站所有资源均由网上收集而来,版权归原影音公司所有,如果侵犯了你的权益,请通知我们,我们会及时删除侵权内容.

快速回复 返回顶部 返回列表