找回密码

蓝光电影网

查看: 412|回复: 12

[REMUX.HEVC] X战警:天启/变种特攻:天启灭世战 X-Men.Apocalypse.2016.2160p.BluRay.REMUX.HEVC.DTS-HD.MA.TrueHD.7.1.Atmos-FGT 50.69GB

[复制链接]

 成长值: 25360

发表于 2020-2-28 23:17:42 | 显示全部楼层 |阅读模式
X战警:天启/变种特攻:天启灭世战 X-Men.Apocalypse.2016.2160p.BluRay.REMUX.HEVC.DTS-HD.MA.TrueHD.7.1.Atmos-FGT 50.69GB-1.jpg
◎译  名 X战警:天启 / 变种特攻:天启灭世战 / X战警:启示录
◎片  名 X战警:天启 X-Men: Apocalypse
◎年  代 2016
◎国  家 美国
◎类  别 动作 / 科幻 / 奇幻 / 冒险
◎语  言 英语 / 德语 / 阿拉伯语 / 波兰语 / 古埃及语
◎上映日期 2016-06-03(中国大陆) / 2016-05-09(伦敦首映) / 2016-05-27(美国)
◎IMDb评分  7.0/10 from 299,601 users
◎IMDb链接  http://www.imdb.com/title/tt3385516/
◎豆瓣评分 7.8/10 from 192414 users
◎豆瓣链接 https://movie.douban.com/subject/25786060/
◎片  长 144分钟
◎导  演 布莱恩·辛格
◎主  演 詹姆斯·麦卡沃伊 James McAvoy
      迈克尔·法斯宾德 Michael Fassbender
      詹妮弗·劳伦斯 Jennifer Lawrence
      尼古拉斯·霍尔特 Nicholas Hoult
      奥斯卡·伊萨克 Oscar Isaac
      萝丝·拜恩 Rose Byrne
      埃文·彼得斯 Evan Peters
      休·杰克曼 Hugh Jackman
      乔什·赫尔曼 Josh Helman
      苏菲·特纳 Sophie Turner
      泰伊·谢里丹 Tye Sheridan
      卢卡斯·提尔 Lucas Till
      柯蒂·斯密特-麦菲 Kodi Smit-McPhee
      本·哈迪 Ben Hardy
      亚历山德拉·希普 Alexandra Shipp
      陈东兰 Lana Condor
      奥立薇娅·玛恩 Olivia Munn

◎简  介 

  变种人天启(奥斯卡·伊萨克 Oscar Isaac 饰)诞生于人类文明的最开端,被人类当做神一般敬仰膜拜,然而,这样的他,却遭到了他最蔑视的人类的背叛,被埋葬于废墟石砾之下,一晃眼就是数千年过去。
  一场意外使得沉睡千年的天启从混沌中醒来,重返人间的他却发现曾经高贵的变种人,如今境遇十分糟糕。为了创造一个属于变种人的新世界,他找到了暴风女(亚历山德拉·西普 Alexandra Shipp 饰)、灵蝶(奥立薇娅·玛恩 Olivia Munn 饰),天使(本·哈迪 Ben Hardy 饰),还有想要过平凡生活却依旧遭到人类驱逐的万磁王(迈克尔·法斯宾德 Michael Fassbender 饰)组成了天启四骑士。在察觉到天启的动向后,X教授(詹姆斯·麦卡沃伊 James McAvoy 饰)带领着魔形女(詹妮弗·劳伦斯 Jennifer Lawrence 饰)、野兽(尼古拉斯·霍尔特 Nicholas Hoult 饰)和凤凰(索菲·特纳 Sophie Turner 饰)等人,发誓要粉碎天启的阴谋。

◎获奖情况 

  第15届美国视觉效果协会奖 (2017)
  最佳电影视觉效果合成(提名)



  1. Video
  2. ID                                       : 1
  3. Format                                   : HEVC
  4. Format/Info                              : High Efficiency Video Coding
  5. Format profile                           : Main [url=mailto:10@L5.1]10@L5.1[/url]@High
  6. Codec ID                                 : V_MPEGH/ISO/HEVC
  7. Duration                                 : 2 h 23 min
  8. Bit rate                                 : 35.0 Mb/s
  9. Width                                    : 3 840 pixels
  10. Height                                   : 2 160 pixels
  11. Display aspect ratio                     : 16:9
  12. Frame rate mode                          : Constant
  13. Frame rate                               : 23.976 (24000/1001/39027) FPS
  14. Color space                              : YUV
  15. Chroma subsampling                       : 4:2:0 (Type 2)
  16. Bit depth                                : 10 bits
  17. Bits/(Pixel*Frame)                       : 0.176
  18. Stream size                              : 35.2GB (69%)
  19. Title                                    : X-Men.Apocalypse.2016.2160p.BluRay.REMUX.HEVC.DTS-HD.MA.TrueHD.7.1.Atmos-FGT
  20. Writing library                          : ATEME Titan File 3.7.6 (4.7.6.101)
  21. Default                                  : Yes
  22. Forced                                   : No
  23. Color range                              : Limited
  24. Color primaries                          : BT.2020
  25. Transfer characteristics                 : SMPTE ST 2084
  26. Matrix coefficients                      : BT.2020 non-constant
  27. Mastering display color primaries        : R: x=0.680000 y=0.320000, G: x=0.265000 y=0.690000, B: x=0.150000 y=0.060000, White point: x=0.312700 y=0.329000
  28. Mastering display luminance              : min: 0.0000 cd/m2, max: 1000.0000 cd/m2

  29. Audio #1
  30. ID                                       : 2
  31. Format                                   : TrueHD
  32. Format profile                           : TrueHD+Atmos / TrueHD
  33. Codec ID                                 : A_TRUEHD
  34. Duration                                 : 2 h 23 min
  35. Bit rate mode                            : Variable
  36. Bit rate                                 : 5 352 kb/s
  37. Maximum bit rate                         : 10.0 Mb/s
  38. Channel(s)                               : Object Based / 8 channels
  39. Channel positions                        : Object Based / Front: L C R, Side: L R, Back: L R, LFE
  40. Sampling rate                            :  / 48.0 kHz
  41. Frame rate                               : 1 200.000 FPS (40 spf)
  42. Compression mode                         : Lossless
  43. Stream size                              : 5.38GB (11%)
  44. Title                                    : X-Men.Apocalypse.2016.2160p.BluRay.REMUX.HEVC.DTS-HD.MA.TrueHD.7.1.Atmos-FGT
  45. Language                                 : English
  46. Default                                  : Yes
  47. Forced                                   : No

  48. Audio #2
  49. ID                                       : 3
  50. Format                                   : DTS
  51. Format/Info                              : Digital Theater Systems
  52. Format profile                           : MA / Core
  53. Mode                                     : 16
  54. Format settings, Endianness              : Big
  55. Codec ID                                 : A_DTS
  56. Duration                                 : 2 h 23 min
  57. Bit rate mode                            : Variable / Constant
  58. Bit rate                                 : 4 042 kb/s / 1 509 kb/s
  59. Channel(s)                               : 8 channels / 6 channels
  60. Channel positions                        : Front: L C R, Side: L R, Back: L R, LFE / Front: L C R, Side: L R, LFE
  61. Sampling rate                            : 48.0 kHz
  62. Frame rate                               : 93.750 FPS (512 spf)
  63. Bit depth                                : 24 bits
  64. Compression mode                         : Lossless / Lossy
  65. Stream size                              : 4.06GB (8%)
  66. Title                                    : X-Men.Apocalypse.2016.2160p.BluRay.REMUX.HEVC.DTS-HD.MA.TrueHD.7.1.Atmos-FGT
  67. Language                                 : English
  68. Default                                  : No
  69. Forced                                   : No

  70. Audio #3
  71. ID                                       : 4
  72. Format                                   : AC-3
  73. Format/Info                              : Audio Coding 3
  74. Format settings, Endianness              : Big
  75. Codec ID                                 : A_AC3
  76. Duration                                 : 2 h 23 min
  77. Bit rate mode                            : Constant
  78. Bit rate                                 : 640 kb/s
  79. Channel(s)                               : 6 channels
  80. Channel positions                        : Front: L C R, Side: L R, LFE
  81. Sampling rate                            : 48.0 kHz
  82. Frame rate                               : 31.250 FPS (1536 spf)
  83. Bit depth                                : 16 bits
  84. Compression mode                         : Lossy
  85. Stream size                              : 659 MiB (1%)
  86. Title                                    : X-Men.Apocalypse.2016.2160p.BluRay.REMUX.HEVC.DTS-HD.MA.TrueHD.7.1.Atmos-FGT
  87. Language                                 : English
  88. Service kind                             : Complete Main
  89. Default                                  : No
  90. Forced                                   : No

  91. Audio #4
  92. ID                                       : 5
  93. Format                                   : AC-3
  94. Format/Info                              : Audio Coding 3
  95. Format settings, Endianness              : Big
  96. Codec ID                                 : A_AC3
  97. Duration                                 : 2 h 23 min
  98. Bit rate mode                            : Constant
  99. Bit rate                                 : 448 kb/s
  100. Channel(s)                               : 6 channels
  101. Channel positions                        : Front: L C R, Side: L R, LFE
  102. Sampling rate                            : 48.0 kHz
  103. Frame rate                               : 31.250 FPS (1536 spf)
  104. Bit depth                                : 16 bits
  105. Compression mode                         : Lossy
  106. Stream size                              : 461 MiB (1%)
  107. Title                                    : X-Men.Apocalypse.2016.2160p.BluRay.REMUX.HEVC.DTS-HD.MA.TrueHD.7.1.Atmos-FGT
  108. Language                                 : English
  109. Service kind                             : Complete Main
  110. Default                                  : No
  111. Forced                                   : No

  112. Audio #5
  113. ID                                       : 6
  114. Format                                   : AC-3
  115. Format/Info                              : Audio Coding 3
  116. Format settings, Endianness              : Big
  117. Codec ID                                 : A_AC3
  118. Duration                                 : 2 h 23 min
  119. Bit rate mode                            : Constant
  120. Bit rate                                 : 448 kb/s
  121. Channel(s)                               : 6 channels
  122. Channel positions                        : Front: L C R, Side: L R, LFE
  123. Sampling rate                            : 48.0 kHz
  124. Frame rate                               : 31.250 FPS (1536 spf)
  125. Bit depth                                : 16 bits
  126. Compression mode                         : Lossy
  127. Stream size                              : 461 MiB (1%)
  128. Title                                    : X-Men.Apocalypse.2016.2160p.BluRay.REMUX.HEVC.DTS-HD.MA.TrueHD.7.1.Atmos-FGT
  129. Language                                 : Spanish
  130. Service kind                             : Complete Main
  131. Default                                  : No
  132. Forced                                   : No

  133. Audio #6
  134. ID                                       : 7
  135. Format                                   : DTS
  136. Format/Info                              : Digital Theater Systems
  137. Mode                                     : 16
  138. Format settings, Endianness              : Big
  139. Codec ID                                 : A_DTS
  140. Duration                                 : 2 h 23 min
  141. Bit rate mode                            : Constant
  142. Bit rate                                 : 768 kb/s
  143. Channel(s)                               : 6 channels
  144. Channel positions                        : Front: L C R, Side: L R, LFE
  145. Sampling rate                            : 48.0 kHz
  146. Frame rate                               : 93.750 FPS (512 spf)
  147. Bit depth                                : 24 bits
  148. Compression mode                         : Lossy
  149. Stream size                              : 791 MiB (2%)
  150. Title                                    : X-Men.Apocalypse.2016.2160p.BluRay.REMUX.HEVC.DTS-HD.MA.TrueHD.7.1.Atmos-FGT
  151. Language                                 : French
  152. Default                                  : No
  153. Forced                                   : No

  154. Audio #7
  155. ID                                       : 8
  156. Format                                   : DTS
  157. Format/Info                              : Digital Theater Systems
  158. Mode                                     : 16
  159. Format settings, Endianness              : Big
  160. Codec ID                                 : A_DTS
  161. Duration                                 : 2 h 23 min
  162. Bit rate mode                            : Constant
  163. Bit rate                                 : 768 kb/s
  164. Channel(s)                               : 6 channels
  165. Channel positions                        : Front: L C R, Side: L R, LFE
  166. Sampling rate                            : 48.0 kHz
  167. Frame rate                               : 93.750 FPS (512 spf)
  168. Bit depth                                : 24 bits
  169. Compression mode                         : Lossy
  170. Stream size                              : 791 MiB (2%)
  171. Title                                    : X-Men.Apocalypse.2016.2160p.BluRay.REMUX.HEVC.DTS-HD.MA.TrueHD.7.1.Atmos-FGT
  172. Language                                 : Spanish
  173. Default                                  : No
  174. Forced                                   : No

  175. Audio #8
  176. ID                                       : 9
  177. Format                                   : DTS
  178. Format/Info                              : Digital Theater Systems
  179. Mode                                     : 16
  180. Format settings, Endianness              : Big
  181. Codec ID                                 : A_DTS
  182. Duration                                 : 2 h 23 min
  183. Bit rate mode                            : Constant
  184. Bit rate                                 : 768 kb/s
  185. Channel(s)                               : 6 channels
  186. Channel positions                        : Front: L C R, Side: L R, LFE
  187. Sampling rate                            : 48.0 kHz
  188. Frame rate                               : 93.750 FPS (512 spf)
  189. Bit depth                                : 24 bits
  190. Compression mode                         : Lossy
  191. Stream size                              : 791 MiB (2%)
  192. Title                                    : X-Men.Apocalypse.2016.2160p.BluRay.REMUX.HEVC.DTS-HD.MA.TrueHD.7.1.Atmos-FGT
  193. Language                                 : German
  194. Default                                  : No
  195. Forced                                   : No

  196. Audio #9
  197. ID                                       : 10
  198. Format                                   : DTS
  199. Format/Info                              : Digital Theater Systems
  200. Mode                                     : 16
  201. Format settings, Endianness              : Big
  202. Codec ID                                 : A_DTS
  203. Duration                                 : 2 h 23 min
  204. Bit rate mode                            : Constant
  205. Bit rate                                 : 768 kb/s
  206. Channel(s)                               : 6 channels
  207. Channel positions                        : Front: L C R, Side: L R, LFE
  208. Sampling rate                            : 48.0 kHz
  209. Frame rate                               : 93.750 FPS (512 spf)
  210. Bit depth                                : 24 bits
  211. Compression mode                         : Lossy
  212. Stream size                              : 791 MiB (2%)
  213. Title                                    : X-Men.Apocalypse.2016.2160p.BluRay.REMUX.HEVC.DTS-HD.MA.TrueHD.7.1.Atmos-FGT
  214. Language                                 : Italian
  215. Default                                  : No
  216. Forced                                   : No

  217. Audio #10
  218. ID                                       : 11
  219. Format                                   : AC-3
  220. Format/Info                              : Audio Coding 3
  221. Format settings, Endianness              : Big
  222. Codec ID                                 : A_AC3
  223. Duration                                 : 2 h 23 min
  224. Bit rate mode                            : Constant
  225. Bit rate                                 : 224 kb/s
  226. Channel(s)                               : 2 channels
  227. Channel positions                        : Front: L R
  228. Sampling rate                            : 48.0 kHz
  229. Frame rate                               : 31.250 FPS (1536 spf)
  230. Bit depth                                : 16 bits
  231. Compression mode                         : Lossy
  232. Stream size                              : 231 MiB (0%)
  233. Title                                    : X-Men.Apocalypse.2016.2160p.BluRay.REMUX.HEVC.DTS-HD.MA.TrueHD.7.1.Atmos-FGT
  234. Language                                 : English
  235. Service kind                             : Complete Main
  236. Default                                  : No
  237. Forced                                   : No

  238. Audio #11
  239. ID                                       : 12
  240. Format                                   : DTS
  241. Format/Info                              : Digital Theater Systems
  242. Mode                                     : 16
  243. Format settings, Endianness              : Big
  244. Codec ID                                 : A_DTS
  245. Duration                                 : 2 h 23 min
  246. Bit rate mode                            : Constant
  247. Bit rate                                 : 768 kb/s
  248. Channel(s)                               : 6 channels
  249. Channel positions                        : Front: L C R, Side: L R, LFE
  250. Sampling rate                            : 48.0 kHz
  251. Frame rate                               : 93.750 FPS (512 spf)
  252. Bit depth                                : 24 bits
  253. Compression mode                         : Lossy
  254. Stream size                              : 791 MiB (2%)
  255. Title                                    : X-Men.Apocalypse.2016.2160p.BluRay.REMUX.HEVC.DTS-HD.MA.TrueHD.7.1.Atmos-FGT
  256. Language                                 : Japanese
  257. Default                                  : No
  258. Forced                                   : No

  259. Text #1
  260. ID                                       : 13
  261. Format                                   : PGS
  262. Muxing mode                              : zlib
  263. Codec ID                                 : S_HDMV/PGS
  264. Codec ID/Info                            : Picture based subtitle format used on BDs/HD-DVDs
  265. Duration                                 : 2 h 21 min
  266. Bit rate                                 : 29.9 kb/s
  267. Count of elements                        : 3818
  268. Stream size                              : 30.3 MiB (0%)
  269. Title                                    : English-PGS
  270. Language                                 : English
  271. Default                                  : Yes
  272. Forced                                   : No

  273. Text #2
  274. ID                                       : 14
  275. Format                                   : PGS
  276. Muxing mode                              : zlib
  277. Codec ID                                 : S_HDMV/PGS
  278. Codec ID/Info                            : Picture based subtitle format used on BDs/HD-DVDs
  279. Duration                                 : 2 h 22 min
  280. Bit rate                                 : 21.5 kb/s
  281. Count of elements                        : 2816
  282. Stream size                              : 22.0 MiB (0%)
  283. Title                                    : Spanish-PGS
  284. Language                                 : Spanish
  285. Default                                  : No
  286. Forced                                   : No

  287. Text #3
  288. ID                                       : 15
  289. Format                                   : PGS
  290. Muxing mode                              : zlib
  291. Codec ID                                 : S_HDMV/PGS
  292. Codec ID/Info                            : Picture based subtitle format used on BDs/HD-DVDs
  293. Duration                                 : 2 h 22 min
  294. Bit rate                                 : 22.1 kb/s
  295. Count of elements                        : 2934
  296. Stream size                              : 22.6 MiB (0%)
  297. Title                                    : French-PGS
  298. Language                                 : French
  299. Default                                  : No
  300. Forced                                   : No

  301. Text #4
  302. ID                                       : 16
  303. Format                                   : PGS
  304. Muxing mode                              : zlib
  305. Codec ID                                 : S_HDMV/PGS
  306. Codec ID/Info                            : Picture based subtitle format used on BDs/HD-DVDs
  307. Duration                                 : 2 h 22 min
  308. Bit rate                                 : 17.8 kb/s
  309. Count of elements                        : 2612
  310. Stream size                              : 18.2 MiB (0%)
  311. Title                                    : French-PGS
  312. Language                                 : French
  313. Default                                  : No
  314. Forced                                   : No

  315. Text #5
  316. ID                                       : 17
  317. Format                                   : PGS
  318. Muxing mode                              : zlib
  319. Codec ID                                 : S_HDMV/PGS
  320. Codec ID/Info                            : Picture based subtitle format used on BDs/HD-DVDs
  321. Duration                                 : 2 h 22 min
  322. Bit rate                                 : 21.3 kb/s
  323. Count of elements                        : 2912
  324. Stream size                              : 21.7 MiB (0%)
  325. Title                                    : Spanish-PGS
  326. Language                                 : Spanish
  327. Default                                  : No
  328. Forced                                   : No

  329. Text #6
  330. ID                                       : 18
  331. Format                                   : PGS
  332. Muxing mode                              : zlib
  333. Codec ID                                 : S_HDMV/PGS
  334. Codec ID/Info                            : Picture based subtitle format used on BDs/HD-DVDs
  335. Duration                                 : 2 h 22 min
  336. Bit rate                                 : 19.8 kb/s
  337. Count of elements                        : 2272
  338. Stream size                              : 20.2 MiB (0%)
  339. Title                                    : Danish-PGS
  340. Language                                 : Danish
  341. Default                                  : No
  342. Forced                                   : No

  343. Text #7
  344. ID                                       : 19
  345. Format                                   : PGS
  346. Muxing mode                              : zlib
  347. Codec ID                                 : S_HDMV/PGS
  348. Codec ID/Info                            : Picture based subtitle format used on BDs/HD-DVDs
  349. Duration                                 : 2 h 22 min
  350. Bit rate                                 : 19.3 kb/s
  351. Count of elements                        : 2478
  352. Stream size                              : 19.7 MiB (0%)
  353. Title                                    : Dutch-PGS
  354. Language                                 : Dutch
  355. Default                                  : No
  356. Forced                                   : No

  357. Text #8
  358. ID                                       : 20
  359. Format                                   : PGS
  360. Muxing mode                              : zlib
  361. Codec ID                                 : S_HDMV/PGS
  362. Codec ID/Info                            : Picture based subtitle format used on BDs/HD-DVDs
  363. Duration                                 : 2 h 22 min
  364. Bit rate                                 : 19.2 kb/s
  365. Count of elements                        : 2890
  366. Stream size                              : 19.6 MiB (0%)
  367. Title                                    : Finnish-PGS
  368. Language                                 : Finnish
  369. Default                                  : No
  370. Forced                                   : No

  371. Text #9
  372. ID                                       : 21
  373. Format                                   : PGS
  374. Muxing mode                              : zlib
  375. Codec ID                                 : S_HDMV/PGS
  376. Codec ID/Info                            : Picture based subtitle format used on BDs/HD-DVDs
  377. Duration                                 : 2 h 22 min
  378. Bit rate                                 : 22.2 kb/s
  379. Count of elements                        : 2830
  380. Stream size                              : 22.6 MiB (0%)
  381. Title                                    : German-PGS
  382. Language                                 : German
  383. Default                                  : No
  384. Forced                                   : No

  385. Text #10
  386. ID                                       : 22
  387. Format                                   : PGS
  388. Muxing mode                              : zlib
  389. Codec ID                                 : S_HDMV/PGS
  390. Codec ID/Info                            : Picture based subtitle format used on BDs/HD-DVDs
  391. Duration                                 : 2 h 22 min
  392. Bit rate                                 : 21.7 kb/s
  393. Count of elements                        : 2934
  394. Stream size                              : 22.2 MiB (0%)
  395. Title                                    : Italian-PGS
  396. Language                                 : Italian
  397. Default                                  : No
  398. Forced                                   : No

  399. Text #11
  400. ID                                       : 23
  401. Format                                   : PGS
  402. Muxing mode                              : zlib
  403. Codec ID                                 : S_HDMV/PGS
  404. Codec ID/Info                            : Picture based subtitle format used on BDs/HD-DVDs
  405. Duration                                 : 2 h 22 min
  406. Bit rate                                 : 21.4 kb/s
  407. Count of elements                        : 2934
  408. Stream size                              : 21.8 MiB (0%)
  409. Title                                    : Norwegian-PGS
  410. Language                                 : Norwegian
  411. Default                                  : No
  412. Forced                                   : No

  413. Text #12
  414. ID                                       : 24
  415. Format                                   : PGS
  416. Muxing mode                              : zlib
  417. Codec ID                                 : S_HDMV/PGS
  418. Codec ID/Info                            : Picture based subtitle format used on BDs/HD-DVDs
  419. Duration                                 : 2 h 22 min
  420. Bit rate                                 : 20.8 kb/s
  421. Count of elements                        : 2942
  422. Stream size                              : 21.3 MiB (0%)
  423. Title                                    : Swedish-PGS
  424. Language                                 : Swedish
  425. Default                                  : No
  426. Forced                                   : No

  427. Text #13
  428. ID                                       : 25
  429. Format                                   : PGS
  430. Muxing mode                              : zlib
  431. Codec ID                                 : S_HDMV/PGS
  432. Codec ID/Info                            : Picture based subtitle format used on BDs/HD-DVDs
  433. Duration                                 : 2 h 22 min
  434. Bit rate                                 : 16.2 kb/s
  435. Count of elements                        : 2950
  436. Stream size                              : 16.5 MiB (0%)
  437. Title                                    : Chinese-PGS
  438. Language                                 : Chinese
  439. Default                                  : No
  440. Forced                                   : No

  441. Text #14
  442. ID                                       : 26
  443. Format                                   : PGS
  444. Muxing mode                              : zlib
  445. Codec ID                                 : S_HDMV/PGS
  446. Codec ID/Info                            : Picture based subtitle format used on BDs/HD-DVDs
  447. Duration                                 : 2 h 22 min
  448. Bit rate                                 : 17.4 kb/s
  449. Count of elements                        : 2948
  450. Stream size                              : 17.7 MiB (0%)
  451. Title                                    : Chinese-PGS
  452. Language                                 : Chinese
  453. Default                                  : No
  454. Forced                                   : No

  455. Text #15
  456. ID                                       : 27
  457. Format                                   : PGS
  458. Muxing mode                              : zlib
  459. Codec ID                                 : S_HDMV/PGS
  460. Codec ID/Info                            : Picture based subtitle format used on BDs/HD-DVDs
  461. Duration                                 : 1 h 26 min
  462. Bit rate                                 : 1 968 b/s
  463. Count of elements                        : 186
  464. Stream size                              : 1.22 MiB (0%)
  465. Title                                    : English-FORCED-PGS
  466. Language                                 : English
  467. Default                                  : No
  468. Forced                                   : No

  469. Text #16
  470. ID                                       : 28
  471. Format                                   : PGS
  472. Muxing mode                              : zlib
  473. Codec ID                                 : S_HDMV/PGS
  474. Codec ID/Info                            : Picture based subtitle format used on BDs/HD-DVDs
  475. Duration                                 : 2 h 23 min
  476. Bit rate                                 : 68.7 kb/s
  477. Count of elements                        : 5098
  478. Stream size                              : 70.6 MiB (0%)
  479. Title                                    : English-COMMENTARY-PGS
  480. Language                                 : English
  481. Default                                  : No
  482. Forced                                   : No

  483. Text #17
  484. ID                                       : 29
  485. Format                                   : PGS
  486. Muxing mode                              : zlib
  487. Codec ID                                 : S_HDMV/PGS
  488. Codec ID/Info                            : Picture based subtitle format used on BDs/HD-DVDs
  489. Duration                                 : 2 h 23 min
  490. Bit rate                                 : 56.0 kb/s
  491. Count of elements                        : 4860
  492. Stream size                              : 57.6 MiB (0%)
  493. Title                                    : Spanish-COMMENTARY-PGS
  494. Language                                 : Spanish
  495. Default                                  : No
  496. Forced                                   : No

  497. Text #18
  498. ID                                       : 30
  499. Format                                   : PGS
  500. Muxing mode                              : zlib
  501. Codec ID                                 : S_HDMV/PGS
  502. Codec ID/Info                            : Picture based subtitle format used on BDs/HD-DVDs
  503. Duration                                 : 2 h 23 min
  504. Bit rate                                 : 58.8 kb/s
  505. Count of elements                        : 4864
  506. Stream size                              : 60.6 MiB (0%)
  507. Title                                    : French-COMMENTARY-PGS
  508. Language                                 : French
  509. Default                                  : No
  510. Forced                                   : No

  511. Text #19
  512. ID                                       : 31
  513. Format                                   : PGS
  514. Muxing mode                              : zlib
  515. Codec ID                                 : S_HDMV/PGS
  516. Codec ID/Info                            : Picture based subtitle format used on BDs/HD-DVDs
  517. Duration                                 : 2 h 23 min
  518. Bit rate                                 : 52.0 kb/s
  519. Count of elements                        : 4782
  520. Stream size                              : 53.5 MiB (0%)
  521. Title                                    : French-COMMENTARY-PGS
  522. Language                                 : French
  523. Default                                  : No
  524. Forced                                   : No

  525. Text #20
  526. ID                                       : 32
  527. Format                                   : PGS
  528. Muxing mode                              : zlib
  529. Codec ID                                 : S_HDMV/PGS
  530. Codec ID/Info                            : Picture based subtitle format used on BDs/HD-DVDs
  531. Duration                                 : 2 h 23 min
  532. Bit rate                                 : 57.5 kb/s
  533. Count of elements                        : 4862
  534. Stream size                              : 59.2 MiB (0%)
  535. Title                                    : Spanish-COMMENTARY-PGS
  536. Language                                 : Spanish
  537. Default                                  : No
  538. Forced                                   : No

  539. Text #21
  540. ID                                       : 33
  541. Format                                   : PGS
  542. Muxing mode                              : zlib
  543. Codec ID                                 : S_HDMV/PGS
  544. Codec ID/Info                            : Picture based subtitle format used on BDs/HD-DVDs
  545. Duration                                 : 2 h 23 min
  546. Bit rate                                 : 57.0 kb/s
  547. Count of elements                        : 4812
  548. Stream size                              : 58.7 MiB (0%)
  549. Title                                    : Danish-COMMENTARY-PGS
  550. Language                                 : Danish
  551. Default                                  : No
  552. Forced                                   : No

  553. Text #22
  554. ID                                       : 34
  555. Format                                   : PGS
  556. Muxing mode                              : zlib
  557. Codec ID                                 : S_HDMV/PGS
  558. Codec ID/Info                            : Picture based subtitle format used on BDs/HD-DVDs
  559. Duration                                 : 2 h 23 min
  560. Bit rate                                 : 60.6 kb/s
  561. Count of elements                        : 4796
  562. Stream size                              : 62.4 MiB (0%)
  563. Title                                    : Dutch-COMMENTARY-PGS
  564. Language                                 : Dutch
  565. Default                                  : No
  566. Forced                                   : No

  567. Text #23
  568. ID                                       : 35
  569. Format                                   : PGS
  570. Muxing mode                              : zlib
  571. Codec ID                                 : S_HDMV/PGS
  572. Codec ID/Info                            : Picture based subtitle format used on BDs/HD-DVDs
  573. Duration                                 : 2 h 23 min
  574. Bit rate                                 : 59.8 kb/s
  575. Count of elements                        : 4862
  576. Stream size                              : 61.5 MiB (0%)
  577. Title                                    : Finnish-COMMENTARY-PGS
  578. Language                                 : Finnish
  579. Default                                  : No
  580. Forced                                   : No

  581. Text #24
  582. ID                                       : 36
  583. Format                                   : PGS
  584. Muxing mode                              : zlib
  585. Codec ID                                 : S_HDMV/PGS
  586. Codec ID/Info                            : Picture based subtitle format used on BDs/HD-DVDs
  587. Duration                                 : 2 h 23 min
  588. Bit rate                                 : 61.4 kb/s
  589. Count of elements                        : 4856
  590. Stream size                              : 63.2 MiB (0%)
  591. Title                                    : German-COMMENTARY-PGS
  592. Language                                 : German
  593. Default                                  : No
  594. Forced                                   : No

  595. Text #25
  596. ID                                       : 37
  597. Format                                   : PGS
  598. Muxing mode                              : zlib
  599. Codec ID                                 : S_HDMV/PGS
  600. Codec ID/Info                            : Picture based subtitle format used on BDs/HD-DVDs
  601. Duration                                 : 2 h 23 min
  602. Bit rate                                 : 54.9 kb/s
  603. Count of elements                        : 4864
  604. Stream size                              : 56.5 MiB (0%)
  605. Title                                    : Italian-COMMENTARY-PGS
  606. Language                                 : Italian
  607. Default                                  : No
  608. Forced                                   : No

  609. Text #26
  610. ID                                       : 38
  611. Format                                   : PGS
  612. Muxing mode                              : zlib
  613. Codec ID                                 : S_HDMV/PGS
  614. Codec ID/Info                            : Picture based subtitle format used on BDs/HD-DVDs
  615. Duration                                 : 2 h 23 min
  616. Bit rate                                 : 32.9 kb/s
  617. Count of elements                        : 3028
  618. Stream size                              : 33.9 MiB (0%)
  619. Title                                    : Japanese-COMMENTARY-PGS
  620. Language                                 : Japanese
  621. Default                                  : No
  622. Forced                                   : No

  623. Text #27
  624. ID                                       : 39
  625. Format                                   : PGS
  626. Muxing mode                              : zlib
  627. Codec ID                                 : S_HDMV/PGS
  628. Codec ID/Info                            : Picture based subtitle format used on BDs/HD-DVDs
  629. Duration                                 : 2 h 23 min
  630. Bit rate                                 : 56.8 kb/s
  631. Count of elements                        : 4862
  632. Stream size                              : 58.4 MiB (0%)
  633. Title                                    : Norwegian-COMMENTARY-PGS
  634. Language                                 : Norwegian
  635. Default                                  : No
  636. Forced                                   : No

  637. Text #28
  638. ID                                       : 40
  639. Format                                   : PGS
  640. Muxing mode                              : zlib
  641. Codec ID                                 : S_HDMV/PGS
  642. Codec ID/Info                            : Picture based subtitle format used on BDs/HD-DVDs
  643. Duration                                 : 2 h 23 min
  644. Bit rate                                 : 54.9 kb/s
  645. Count of elements                        : 4862
  646. Stream size                              : 56.5 MiB (0%)
  647. Title                                    : Swedish-COMMENTARY-PGS
  648. Language                                 : Swedish
  649. Default                                  : No
  650. Forced                                   : No

  651. Menu
  652. 00:00:00.000                             : en:Chapter 1
  653. 00:08:18.789                             : en:Chapter 2
  654. 00:14:13.185                             : en:Chapter 3
  655. 00:18:07.086                             : en:Chapter 4
  656. 00:24:55.494                             : en:Chapter 5
  657. 00:30:45.343                             : en:Chapter 6
  658. 00:36:35.234                             : en:Chapter 7
  659. 00:41:00.082                             : en:Chapter 8
  660. 00:45:56.503                             : en:Chapter 9
  661. 00:49:24.294                             : en:Chapter 10
  662. 00:55:22.610                             : en:Chapter 11
  663. 00:59:36.823                             : en:Chapter 12
  664. 01:04:43.671                             : en:Chapter 13
  665. 01:12:35.851                             : en:Chapter 14
  666. 01:17:32.898                             : en:Chapter 15
  667. 01:22:18.516                             : en:Chapter 16
  668. 01:27:45.593                             : en:Chapter 17
  669. 01:34:05.806                             : en:Chapter 18
  670. 01:36:46.634                             : en:Chapter 19
  671. 01:39:50.901                             : en:Chapter 20
  672. 01:43:34.374                             : en:Chapter 21
  673. 01:49:57.382                             : en:Chapter 22
  674. 01:55:08.359                             : en:Chapter 23
  675. 01:57:21.659                             : en:Chapter 24
  676. 02:03:50.548                             : en:Chapter 25
  677. 02:07:56.710                             : en:Chapter 26
  678. 02:10:59.101                             : en:Chapter 27
  679. 02:12:54.091                             : en:Chapter 28



复制代码


X战警:天启/变种特攻:天启灭世战 X-Men.Apocalypse.2016.2160p.BluRay.REMUX.HEVC.DTS-HD.MA.TrueHD.7.1.Atmos-FGT 50.69GB-2.png X战警:天启/变种特攻:天启灭世战 X-Men.Apocalypse.2016.2160p.BluRay.REMUX.HEVC.DTS-HD.MA.TrueHD.7.1.Atmos-FGT 50.69GB-3.png X战警:天启/变种特攻:天启灭世战 X-Men.Apocalypse.2016.2160p.BluRay.REMUX.HEVC.DTS-HD.MA.TrueHD.7.1.Atmos-FGT 50.69GB-4.png X战警:天启/变种特攻:天启灭世战 X-Men.Apocalypse.2016.2160p.BluRay.REMUX.HEVC.DTS-HD.MA.TrueHD.7.1.Atmos-FGT 50.69GB-5.png X战警:天启/变种特攻:天启灭世战 X-Men.Apocalypse.2016.2160p.BluRay.REMUX.HEVC.DTS-HD.MA.TrueHD.7.1.Atmos-FGT 50.69GB-6.png X战警:天启/变种特攻:天启灭世战 X-Men.Apocalypse.2016.2160p.BluRay.REMUX.HEVC.DTS-HD.MA.TrueHD.7.1.Atmos-FGT 50.69GB-7.png






回复

使用道具 举报

 成长值: 2440

发表于 2020-2-29 09:21:47 | 显示全部楼层
谢谢楼主无私分享。
回复 支持 反对

使用道具 举报

发表于 2020-2-29 12:25:22 | 显示全部楼层
有版权下不了吧???
回复 支持 反对

使用道具 举报

发表于 2020-2-29 13:01:19 | 显示全部楼层

谢谢楼主无私分享。
回复 支持 反对

使用道具 举报

发表于 2020-2-29 13:16:04 | 显示全部楼层

既然你诚信诚意的推荐了,那我就勉为其难的看看吧!蓝光电影网不走平凡路。
回复 支持 反对

使用道具 举报

发表于 2020-2-29 13:29:32 | 显示全部楼层
谢谢发片。
回复

使用道具 举报

发表于 2020-2-29 19:12:48 | 显示全部楼层

这东西我收了!谢谢楼主!蓝光电影网真好!
回复 支持 反对

使用道具 举报

发表于 2020-3-1 06:55:52 | 显示全部楼层
楼主发贴辛苦了,谢谢楼主分享!我觉得蓝光电影网是注册对了!
回复 支持 反对

使用道具 举报

发表于 2020-3-1 14:52:32 | 显示全部楼层
感谢楼主分享
回复 支持 反对

使用道具 举报

发表于 2020-3-1 17:02:39 | 显示全部楼层

楼主太厉害了!楼主,电影应该很好看我觉得蓝光电影网真是个好地方!
回复 支持 反对

使用道具 举报

懒得打字嘛,点击右侧快捷回复 【右侧内容,后台自定义】
您需要登录后才可以回帖 登录 | 立即加入

本版积分规则

现在加入蓝光电影网,注册一个账号
上个主题 下个主题 快速回复 收藏帖子 返回列表 客服中心 搜索

手机版|小黑屋| 蓝光电影网 |网站地图 

Copyright © 2015-2019 Comsenz Inc.  Template by 蓝光电影论坛 All Rights Reserved.

Powered by 蓝光电影网 X3.4

特别声明:本站所有资源均由网上收集而来,版权归原影音公司所有,如果侵犯了你的权益,请通知我们,我们会及时删除侵权内容.

快速回复 返回顶部 返回列表