找回密码

蓝光电影网

查看: 391|回复: 10

[10bit.SDR] X战警:天启/变种特攻:天启灭世战 X-Men.Apocalypse.2016.2160p.BluRay.x265.10bit.SDR.DTS-HD.MA.TrueHD.7.1.Atmos-SWTYBLZ 37.03GB

[复制链接]

 成长值: 25360

发表于 2020-2-28 23:16:04 | 显示全部楼层 |阅读模式
X战警:天启/变种特攻:天启灭世战 X-Men.Apocalypse.2016.2160p.BluRay.x265.10bit.SDR.DTS-HD.MA.TrueHD.7.1.Atmos-SWTYBLZ 37.03GB-1.jpg
◎译  名 X战警:天启 / 变种特攻:天启灭世战 / X战警:启示录
◎片  名 X战警:天启 X-Men: Apocalypse
◎年  代 2016
◎国  家 美国
◎类  别 动作 / 科幻 / 奇幻 / 冒险
◎语  言 英语 / 德语 / 阿拉伯语 / 波兰语 / 古埃及语
◎上映日期 2016-06-03(中国大陆) / 2016-05-09(伦敦首映) / 2016-05-27(美国)
◎IMDb评分  7.0/10 from 299,603 users
◎IMDb链接  http://www.imdb.com/title/tt3385516/
◎豆瓣评分 7.8/10 from 192414 users
◎豆瓣链接 https://movie.douban.com/subject/25786060/
◎片  长 144分钟
◎导  演 布莱恩·辛格
◎主  演 詹姆斯·麦卡沃伊 James McAvoy
      迈克尔·法斯宾德 Michael Fassbender
      詹妮弗·劳伦斯 Jennifer Lawrence
      尼古拉斯·霍尔特 Nicholas Hoult
      奥斯卡·伊萨克 Oscar Isaac
      萝丝·拜恩 Rose Byrne
      埃文·彼得斯 Evan Peters
      休·杰克曼 Hugh Jackman
      乔什·赫尔曼 Josh Helman
      苏菲·特纳 Sophie Turner
      泰伊·谢里丹 Tye Sheridan
      卢卡斯·提尔 Lucas Till
      柯蒂·斯密特-麦菲 Kodi Smit-McPhee
      本·哈迪 Ben Hardy
      亚历山德拉·希普 Alexandra Shipp
      陈东兰 Lana Condor
      奥立薇娅·玛恩 Olivia Munn

◎简  介 

  变种人天启(奥斯卡·伊萨克 Oscar Isaac 饰)诞生于人类文明的最开端,被人类当做神一般敬仰膜拜,然而,这样的他,却遭到了他最蔑视的人类的背叛,被埋葬于废墟石砾之下,一晃眼就是数千年过去。
  一场意外使得沉睡千年的天启从混沌中醒来,重返人间的他却发现曾经高贵的变种人,如今境遇十分糟糕。为了创造一个属于变种人的新世界,他找到了暴风女(亚历山德拉·西普 Alexandra Shipp 饰)、灵蝶(奥立薇娅·玛恩 Olivia Munn 饰),天使(本·哈迪 Ben Hardy 饰),还有想要过平凡生活却依旧遭到人类驱逐的万磁王(迈克尔·法斯宾德 Michael Fassbender 饰)组成了天启四骑士。在察觉到天启的动向后,X教授(詹姆斯·麦卡沃伊 James McAvoy 饰)带领着魔形女(詹妮弗·劳伦斯 Jennifer Lawrence 饰)、野兽(尼古拉斯·霍尔特 Nicholas Hoult 饰)和凤凰(索菲·特纳 Sophie Turner 饰)等人,发誓要粉碎天启的阴谋。

◎获奖情况 

  第15届美国视觉效果协会奖 (2017)
  最佳电影视觉效果合成(提名)




  1. Video
  2. ID                                       : 1
  3. Format                                   : HEVC
  4. Format/Info                              : High Efficiency Video Coding
  5. Format profile                           : Main [url=mailto:10@L5.1]10@L5.1[/url]@High
  6. Codec ID                                 : V_MPEGH/ISO/HEVC
  7. Duration                                 : 2 h 23 min
  8. Bit rate                                 : 26.4 Mb/s
  9. Width                                    : 3 840 pixels
  10. Height                                   : 1 600 pixels
  11. Display aspect ratio                     : 2.40:1
  12. Frame rate mode                          : Constant
  13. Frame rate                               : 23.976 (24000/1001/39027) FPS
  14. Color space                              : YUV
  15. Chroma subsampling                       : 4:2:0
  16. Bit depth                                : 10 bits
  17. Bits/(Pixel*Frame)                       : 0.179
  18. Stream size                              : 26.5GB (72%)
  19. Title                                    : X-Men.Apocalypse.2016.2160p.BluRay.x265.10bit.SDR.DTS-HD.MA.TrueHD.7.1.Atmos-SWTYBLZ
  20. Writing library                          : x265 2.5+4-b4a5bcfe29c7:[Windows][GCC 4.9.3][64 bit] 10bit
  21. Encoding settings                        : cpuid=1173503 / frame-threads=16 / numa-pools=24,24,24,24 / wpp / no-pmode / no-pme / no-psnr / no-ssim / log-level=2 / input-csp=1 / input-res=3840x1600 / interlace=0 / total-frames=0 / level-idc=51 / high-tier=1 / uhd-bd=0 / ref=3 / no-allow-non-conformance / repeat-headers / annexb / aud / hrd / info / hash=0 / no-temporal-layers / no-open-gop / min-keyint=1 / keyint=24 / bframes=4 / b-adapt=2 / b-pyramid / bframe-bias=0 / rc-lookahead=25 / lookahead-slices=4 / scenecut=40 / no-intra-refresh / ctu=64 / min-cu-size=8 / no-rect / no-amp / max-tu-size=32 / tu-inter-depth=1 / tu-intra-depth=1 / limit-tu=0 / rdoq-level=0 / dynamic-rd=0.00 / no-ssim-rd / signhide / no-tskip / nr-intra=0 / nr-inter=0 / no-constrained-intra / strong-intra-smoothing / max-merge=2 / limit-refs=3 / no-limit-modes / me=1 / subme=2 / merange=57 / temporal-mvp / weightp / no-weightb / no-analyze-src-pics / deblock=0:0 / no-sao / no-sao-non-deblock / rd=3 / no-early-skip / rskip / no-fast-intra / no-tskip-fast / no-cu-lossless / no-b-intra / rdpenalty=0 / psy-rd=2.00 / psy-rdoq=0.00 / no-rd-refine / analysis-reuse-mode=0 / no-lossless / cbqpoffs=0 / crqpoffs=0 / rc=crf / crf=16.0 / qcomp=0.60 / qpstep=4 / stats-write=0 / stats-read=0 / vbv-maxrate=160000 / vbv-bufsize=160000 / vbv-init=0.9 / crf-max=0.0 / crf-min=0.0 / ipratio=1.40 / pbratio=1.30 / aq-mode=1 / aq-strength=1.00 / cutree / zone-count=0 / no-strict-cbr / qg-size=32 / no-rc-grain / qpmax=69 / qpmin=0 / no-const-vbv / sar=1 / overscan=0 / videoformat=5 / range=0 / colorprim=2 / transfer=2 / colormatrix=2 / chromaloc=0 / display-window=0 / max-cll=0,0 / min-luma=0 / max-luma=1023 / log2-max-poc-lsb=8 / vui-timing-info / vui-hrd-info / slices=1 / opt-qp-pps / opt-ref-list-length-pps / no-multi-pass-opt-rps / scenecut-bias=0.05 / no-opt-cu-delta-qp / no-aq-motion / no-hdr / no-hdr-opt / no-dhdr10-opt / analysis-reuse-level=5 / scale-factor=0 / refine-intra=0 / refine-inter=0 / refine-mv=0 / no-limit-sao / ctu-info=0
  22. Language                                 : English
  23. Default                                  : Yes
  24. Forced                                   : No

  25. Audio #1
  26. ID                                       : 2
  27. Format                                   : TrueHD
  28. Format profile                           : TrueHD+Atmos / TrueHD
  29. Codec ID                                 : A_TRUEHD
  30. Duration                                 : 2 h 23 min
  31. Bit rate mode                            : Variable
  32. Bit rate                                 : 5 352 kb/s
  33. Maximum bit rate                         : 10.0 Mb/s
  34. Channel(s)                               : Object Based / 8 channels
  35. Channel positions                        : Object Based / Front: L C R, Side: L R, Back: L R, LFE
  36. Sampling rate                            :  / 48.0 kHz
  37. Frame rate                               : 1 200.000 FPS (40 spf)
  38. Compression mode                         : Lossless
  39. Stream size                              : 5.38GB (15%)
  40. Title                                    : X-Men.Apocalypse.2016.2160p.BluRay.x265.10bit.SDR.DTS-HD.MA.TrueHD.7.1.Atmos-SWTYBLZ
  41. Language                                 : English
  42. Default                                  : Yes
  43. Forced                                   : No

  44. Audio #2
  45. ID                                       : 3
  46. Format                                   : DTS
  47. Format/Info                              : Digital Theater Systems
  48. Format profile                           : MA / Core
  49. Mode                                     : 16
  50. Format settings, Endianness              : Big
  51. Codec ID                                 : A_DTS
  52. Duration                                 : 2 h 23 min
  53. Bit rate mode                            : Variable / Constant
  54. Bit rate                                 : 4 042 kb/s / 1 509 kb/s
  55. Channel(s)                               : 8 channels / 6 channels
  56. Channel positions                        : Front: L C R, Side: L R, Back: L R, LFE / Front: L C R, Side: L R, LFE
  57. Sampling rate                            : 48.0 kHz
  58. Frame rate                               : 93.750 FPS (512 spf)
  59. Bit depth                                : 24 bits
  60. Compression mode                         : Lossless / Lossy
  61. Stream size                              : 4.06GB (11%)
  62. Title                                    : X-Men.Apocalypse.2016.2160p.BluRay.x265.10bit.SDR.DTS-HD.MA.TrueHD.7.1.Atmos-SWTYBLZ
  63. Language                                 : English
  64. Default                                  : No
  65. Forced                                   : No

  66. Audio #3
  67. ID                                       : 4
  68. Format                                   : AC-3
  69. Format/Info                              : Audio Coding 3
  70. Format settings, Endianness              : Big
  71. Codec ID                                 : A_AC3
  72. Duration                                 : 2 h 23 min
  73. Bit rate mode                            : Constant
  74. Bit rate                                 : 640 kb/s
  75. Channel(s)                               : 6 channels
  76. Channel positions                        : Front: L C R, Side: L R, LFE
  77. Sampling rate                            : 48.0 kHz
  78. Frame rate                               : 31.250 FPS (1536 spf)
  79. Bit depth                                : 16 bits
  80. Compression mode                         : Lossy
  81. Stream size                              : 659 MiB (2%)
  82. Title                                    : X-Men.Apocalypse.2016.2160p.BluRay.x265.10bit.SDR.DTS-HD.MA.TrueHD.7.1.Atmos-SWTYBLZ
  83. Language                                 : English
  84. Service kind                             : Complete Main
  85. Default                                  : No
  86. Forced                                   : No

  87. Text #1
  88. ID                                       : 5
  89. Format                                   : UTF-8
  90. Codec ID                                 : S_TEXT/UTF8
  91. Codec ID/Info                            : UTF-8 Plain Text
  92. Duration                                 : 2 h 12 min
  93. Bit rate                                 : 40 b/s
  94. Count of elements                        : 1489
  95. Stream size                              : 39.2 KiB (0%)
  96. Title                                    : English-SRT
  97. Language                                 : English
  98. Default                                  : Yes
  99. Forced                                   : No

  100. Text #2
  101. ID                                       : 6
  102. Format                                   : PGS
  103. Muxing mode                              : zlib
  104. Codec ID                                 : S_HDMV/PGS
  105. Codec ID/Info                            : Picture based subtitle format used on BDs/HD-DVDs
  106. Duration                                 : 2 h 21 min
  107. Bit rate                                 : 29.9 kb/s
  108. Count of elements                        : 3818
  109. Stream size                              : 30.3 MiB (0%)
  110. Title                                    : English-PGS
  111. Language                                 : English
  112. Default                                  : No
  113. Forced                                   : No

  114. Text #3
  115. ID                                       : 7
  116. Format                                   : PGS
  117. Muxing mode                              : zlib
  118. Codec ID                                 : S_HDMV/PGS
  119. Codec ID/Info                            : Picture based subtitle format used on BDs/HD-DVDs
  120. Duration                                 : 2 h 22 min
  121. Bit rate                                 : 21.5 kb/s
  122. Count of elements                        : 2816
  123. Stream size                              : 22.0 MiB (0%)
  124. Title                                    : Spanish-PGS
  125. Language                                 : Spanish
  126. Default                                  : No
  127. Forced                                   : No

  128. Text #4
  129. ID                                       : 8
  130. Format                                   : PGS
  131. Muxing mode                              : zlib
  132. Codec ID                                 : S_HDMV/PGS
  133. Codec ID/Info                            : Picture based subtitle format used on BDs/HD-DVDs
  134. Duration                                 : 2 h 22 min
  135. Bit rate                                 : 22.1 kb/s
  136. Count of elements                        : 2934
  137. Stream size                              : 22.6 MiB (0%)
  138. Title                                    : French-PGS
  139. Language                                 : French
  140. Default                                  : No
  141. Forced                                   : No

  142. Text #5
  143. ID                                       : 9
  144. Format                                   : PGS
  145. Muxing mode                              : zlib
  146. Codec ID                                 : S_HDMV/PGS
  147. Codec ID/Info                            : Picture based subtitle format used on BDs/HD-DVDs
  148. Duration                                 : 2 h 22 min
  149. Bit rate                                 : 17.8 kb/s
  150. Count of elements                        : 2612
  151. Stream size                              : 18.2 MiB (0%)
  152. Title                                    : French-PGS
  153. Language                                 : French
  154. Default                                  : No
  155. Forced                                   : No

  156. Text #6
  157. ID                                       : 10
  158. Format                                   : PGS
  159. Muxing mode                              : zlib
  160. Codec ID                                 : S_HDMV/PGS
  161. Codec ID/Info                            : Picture based subtitle format used on BDs/HD-DVDs
  162. Duration                                 : 2 h 22 min
  163. Bit rate                                 : 21.3 kb/s
  164. Count of elements                        : 2912
  165. Stream size                              : 21.7 MiB (0%)
  166. Title                                    : Spanish-PGS
  167. Language                                 : Spanish
  168. Default                                  : No
  169. Forced                                   : No

  170. Text #7
  171. ID                                       : 11
  172. Format                                   : PGS
  173. Muxing mode                              : zlib
  174. Codec ID                                 : S_HDMV/PGS
  175. Codec ID/Info                            : Picture based subtitle format used on BDs/HD-DVDs
  176. Duration                                 : 2 h 22 min
  177. Bit rate                                 : 19.8 kb/s
  178. Count of elements                        : 2272
  179. Stream size                              : 20.2 MiB (0%)
  180. Title                                    : Danish-PGS
  181. Language                                 : Danish
  182. Default                                  : No
  183. Forced                                   : No

  184. Text #8
  185. ID                                       : 12
  186. Format                                   : PGS
  187. Muxing mode                              : zlib
  188. Codec ID                                 : S_HDMV/PGS
  189. Codec ID/Info                            : Picture based subtitle format used on BDs/HD-DVDs
  190. Duration                                 : 2 h 22 min
  191. Bit rate                                 : 19.3 kb/s
  192. Count of elements                        : 2478
  193. Stream size                              : 19.7 MiB (0%)
  194. Title                                    : Dutch-PGS
  195. Language                                 : Dutch
  196. Default                                  : No
  197. Forced                                   : No

  198. Text #9
  199. ID                                       : 13
  200. Format                                   : PGS
  201. Muxing mode                              : zlib
  202. Codec ID                                 : S_HDMV/PGS
  203. Codec ID/Info                            : Picture based subtitle format used on BDs/HD-DVDs
  204. Duration                                 : 2 h 22 min
  205. Bit rate                                 : 19.2 kb/s
  206. Count of elements                        : 2890
  207. Stream size                              : 19.6 MiB (0%)
  208. Title                                    : Finnish-PGS
  209. Language                                 : Finnish
  210. Default                                  : No
  211. Forced                                   : No

  212. Text #10
  213. ID                                       : 14
  214. Format                                   : PGS
  215. Muxing mode                              : zlib
  216. Codec ID                                 : S_HDMV/PGS
  217. Codec ID/Info                            : Picture based subtitle format used on BDs/HD-DVDs
  218. Duration                                 : 2 h 22 min
  219. Bit rate                                 : 22.2 kb/s
  220. Count of elements                        : 2830
  221. Stream size                              : 22.6 MiB (0%)
  222. Title                                    : German-PGS
  223. Language                                 : German
  224. Default                                  : No
  225. Forced                                   : No

  226. Text #11
  227. ID                                       : 15
  228. Format                                   : PGS
  229. Muxing mode                              : zlib
  230. Codec ID                                 : S_HDMV/PGS
  231. Codec ID/Info                            : Picture based subtitle format used on BDs/HD-DVDs
  232. Duration                                 : 2 h 22 min
  233. Bit rate                                 : 21.7 kb/s
  234. Count of elements                        : 2934
  235. Stream size                              : 22.2 MiB (0%)
  236. Title                                    : Italian-PGS
  237. Language                                 : Italian
  238. Default                                  : No
  239. Forced                                   : No

  240. Text #12
  241. ID                                       : 16
  242. Format                                   : PGS
  243. Muxing mode                              : zlib
  244. Codec ID                                 : S_HDMV/PGS
  245. Codec ID/Info                            : Picture based subtitle format used on BDs/HD-DVDs
  246. Duration                                 : 2 h 22 min
  247. Bit rate                                 : 21.4 kb/s
  248. Count of elements                        : 2934
  249. Stream size                              : 21.8 MiB (0%)
  250. Title                                    : Norwegian-PGS
  251. Language                                 : Norwegian
  252. Default                                  : No
  253. Forced                                   : No

  254. Text #13
  255. ID                                       : 17
  256. Format                                   : PGS
  257. Muxing mode                              : zlib
  258. Codec ID                                 : S_HDMV/PGS
  259. Codec ID/Info                            : Picture based subtitle format used on BDs/HD-DVDs
  260. Duration                                 : 2 h 22 min
  261. Bit rate                                 : 20.8 kb/s
  262. Count of elements                        : 2942
  263. Stream size                              : 21.3 MiB (0%)
  264. Title                                    : Swedish-PGS
  265. Language                                 : Swedish
  266. Default                                  : No
  267. Forced                                   : No

  268. Text #14
  269. ID                                       : 18
  270. Format                                   : PGS
  271. Muxing mode                              : zlib
  272. Codec ID                                 : S_HDMV/PGS
  273. Codec ID/Info                            : Picture based subtitle format used on BDs/HD-DVDs
  274. Duration                                 : 2 h 22 min
  275. Bit rate                                 : 16.2 kb/s
  276. Count of elements                        : 2950
  277. Stream size                              : 16.5 MiB (0%)
  278. Title                                    : Chinese-PGS
  279. Language                                 : Chinese
  280. Default                                  : No
  281. Forced                                   : No

  282. Text #15
  283. ID                                       : 19
  284. Format                                   : PGS
  285. Muxing mode                              : zlib
  286. Codec ID                                 : S_HDMV/PGS
  287. Codec ID/Info                            : Picture based subtitle format used on BDs/HD-DVDs
  288. Duration                                 : 2 h 22 min
  289. Bit rate                                 : 17.4 kb/s
  290. Count of elements                        : 2948
  291. Stream size                              : 17.7 MiB (0%)
  292. Title                                    : Chinese-PGS
  293. Language                                 : Chinese
  294. Default                                  : No
  295. Forced                                   : No

  296. Text #16
  297. ID                                       : 20
  298. Format                                   : PGS
  299. Muxing mode                              : zlib
  300. Codec ID                                 : S_HDMV/PGS
  301. Codec ID/Info                            : Picture based subtitle format used on BDs/HD-DVDs
  302. Duration                                 : 1 h 26 min
  303. Bit rate                                 : 1 968 b/s
  304. Count of elements                        : 186
  305. Stream size                              : 1.22 MiB (0%)
  306. Title                                    : English-FORCED-PGS
  307. Language                                 : English
  308. Default                                  : No
  309. Forced                                   : No

  310. Menu
  311. 00:00:00.000                             : en:Chapter 1
  312. 00:08:18.789                             : en:Chapter 2
  313. 00:14:13.185                             : en:Chapter 3
  314. 00:18:07.086                             : en:Chapter 4
  315. 00:24:55.494                             : en:Chapter 5
  316. 00:30:45.343                             : en:Chapter 6
  317. 00:36:35.234                             : en:Chapter 7
  318. 00:41:00.082                             : en:Chapter 8
  319. 00:45:56.503                             : en:Chapter 9
  320. 00:49:24.294                             : en:Chapter 10
  321. 00:55:22.610                             : en:Chapter 11
  322. 00:59:36.823                             : en:Chapter 12
  323. 01:04:43.671                             : en:Chapter 13
  324. 01:12:35.851                             : en:Chapter 14
  325. 01:17:32.898                             : en:Chapter 15
  326. 01:22:18.516                             : en:Chapter 16
  327. 01:27:45.593                             : en:Chapter 17
  328. 01:34:05.806                             : en:Chapter 18
  329. 01:36:46.634                             : en:Chapter 19
  330. 01:39:50.901                             : en:Chapter 20
  331. 01:43:34.374                             : en:Chapter 21
  332. 01:49:57.382                             : en:Chapter 22
  333. 01:55:08.359                             : en:Chapter 23
  334. 01:57:21.659                             : en:Chapter 24
  335. 02:03:50.548                             : en:Chapter 25
  336. 02:07:56.710                             : en:Chapter 26
  337. 02:10:59.101                             : en:Chapter 27
  338. 02:12:54.091                             : en:Chapter 28

复制代码



X战警:天启/变种特攻:天启灭世战 X-Men.Apocalypse.2016.2160p.BluRay.x265.10bit.SDR.DTS-HD.MA.TrueHD.7.1.Atmos-SWTYBLZ 37.03GB-2.png X战警:天启/变种特攻:天启灭世战 X-Men.Apocalypse.2016.2160p.BluRay.x265.10bit.SDR.DTS-HD.MA.TrueHD.7.1.Atmos-SWTYBLZ 37.03GB-3.png X战警:天启/变种特攻:天启灭世战 X-Men.Apocalypse.2016.2160p.BluRay.x265.10bit.SDR.DTS-HD.MA.TrueHD.7.1.Atmos-SWTYBLZ 37.03GB-4.png X战警:天启/变种特攻:天启灭世战 X-Men.Apocalypse.2016.2160p.BluRay.x265.10bit.SDR.DTS-HD.MA.TrueHD.7.1.Atmos-SWTYBLZ 37.03GB-5.png X战警:天启/变种特攻:天启灭世战 X-Men.Apocalypse.2016.2160p.BluRay.x265.10bit.SDR.DTS-HD.MA.TrueHD.7.1.Atmos-SWTYBLZ 37.03GB-6.png X战警:天启/变种特攻:天启灭世战 X-Men.Apocalypse.2016.2160p.BluRay.x265.10bit.SDR.DTS-HD.MA.TrueHD.7.1.Atmos-SWTYBLZ 37.03GB-7.png






回复

使用道具 举报

发表于 2020-2-29 20:20:10 | 显示全部楼层

既然你诚信诚意的推荐了,那我就勉为其难的看看吧!蓝光电影网不走平凡路。
回复 支持 反对

使用道具 举报

发表于 2020-2-29 23:36:03 | 显示全部楼层
蓝光电影网
回复 支持 反对

使用道具 举报

发表于 2020-3-1 09:34:05 | 显示全部楼层

这个帖子不回对不起自己!我想我是一天也不能离开蓝光电影网
回复 支持 反对

使用道具 举报

发表于 2020-3-1 13:08:56 | 显示全部楼层
楼主发贴辛苦了,谢谢楼主分享!我觉得蓝光电影网是注册对了!
回复 支持 反对

使用道具 举报

发表于 2020-3-1 17:12:41 | 显示全部楼层

楼主太厉害了!楼主,电影应该很好看我觉得蓝光电影网真是个好地方!
回复 支持 反对

使用道具 举报

发表于 2020-3-1 22:54:54 | 显示全部楼层

这个帖子不回对不起自己!我想我是一天也不能离开蓝光电影网
回复 支持 反对

使用道具 举报

发表于 2020-3-3 19:09:54 | 显示全部楼层
谢谢分享,支持了
回复 支持 反对

使用道具 举报

发表于 2020-3-23 04:41:24 | 显示全部楼层
楼主发贴辛苦了,谢谢楼主分享!我觉得蓝光电影网是注册对了!
回复 支持 反对

使用道具 举报

发表于 2020-3-23 12:08:20 | 显示全部楼层

感谢楼主的无私分享!要想蓝光电影网好 就靠你我他
回复 支持 反对

使用道具 举报

懒得打字嘛,点击右侧快捷回复 【右侧内容,后台自定义】
您需要登录后才可以回帖 登录 | 立即加入

本版积分规则

现在加入蓝光电影网,注册一个账号
上个主题 下个主题 快速回复 收藏帖子 返回列表 客服中心 搜索

手机版|小黑屋| 蓝光电影网 |网站地图 

Copyright © 2015-2019 Comsenz Inc.  Template by 蓝光电影论坛 All Rights Reserved.

Powered by 蓝光电影网 X3.4

特别声明:本站所有资源均由网上收集而来,版权归原影音公司所有,如果侵犯了你的权益,请通知我们,我们会及时删除侵权内容.

快速回复 返回顶部 返回列表