找回密码

蓝光电影网

查看: 468|回复: 9

[10bit.HDR] X战警:天启 X-Men.Apocalypse.2016.2160p.BluRay.x265.10bit.HDR.TrueHD.7.1.Atmos-TERMiNAL 21.88GB

[复制链接]

 成长值: 25285

发表于 2020-2-28 23:14:02 | 显示全部楼层 |阅读模式
154502l7ixv7mibmtzhhja.jpg

◎译  名 X战警:天启/X战警:启示录/变种特攻:天启灭世战
◎片  名 X-Men: Apocalypse
◎年  代 2015
◎国  家 美国
◎类  别 动作/冒险/科幻
◎语  言 英语
◎字  幕 英文...
◎IMDb评分  7.3/10 from 148,655 users
◎IMDB链接 http://www.imdb.com/title/tt3385516/
◎文件格式  x264+ DTS
◎视频尺寸  3840x1600
◎文件大小  1CD 21.88GB
◎片  长 2h 23mn
◎导  演 布莱恩·辛格 Bryan Singer
◎主  演 詹姆斯·麦卡沃伊 James McAvoy
      迈克尔·法斯宾德 Michael Fassbender
      詹妮弗·劳伦斯 Jennifer Lawrence
      尼古拉斯·霍尔特 Nicholas Hoult
      奥斯卡·伊萨克 Oscar Isaac
      萝丝·拜恩 Rose Byrne
      泰伊·谢里丹 Tye Sheridan
      苏菲·特纳 Sophie Turner
      奥立薇娅·玛恩 Olivia Munn
      埃文·彼得斯 Evan Peters
      休·杰克曼 Hugh Jackman
      柯蒂·斯密特-麦菲 Kodi Smit-McPhee
      本·哈迪 Ben Hardy
      卢卡斯·提尔 Lucas Till
      拉娜·康多 Lana Condor
      亚历山德拉·希普 Alexandra Shipp


◎简  介

  “天启”是漫威X战警世界里,能力最强大并且是史上首位变种人,自人类文明开始以来,便为世人当作天神来膜拜,他汲取多位变种人的超能力,演变成一位永生不死且无人能敌的超级变种人,历经数千年后,他再度觉醒,集结了多位强大的变种人意欲毁灭一切,重建世界秩序,当中包含失志的万磁王(迈克尔法斯宾德 饰)。当地球面临未知的巨大危机之际,瑞雯(詹妮弗劳伦斯 饰)在X教授(詹姆斯麦卡沃伊 饰)的协助之下,必须领导年轻的X战警们力抗这史上最强大的敌人,并扭转人类命运。

花絮

.汤姆·哈迪和伊德瑞斯·艾尔巴都曾是天启扮演者的候选。

.为了扮演该片中的X教授,詹姆斯·麦卡沃伊剃了光头。他在之前的X战警系列电影中就想这么干了。

.片名本打算和漫画书的片名一致:天启时代,但为了让片名显得更有凶兆,也为了避免和《复仇者联盟2:奥创纪元》以及《变形金刚4:绝迹重生》雷同,改成了天启。

.快银在变种人学校奔跑的戏有三分钟,但拍摄这场戏花了三个半月,伊万·彼得斯比任何其他演员待在片场的时间都长。这场戏是用高速摄影机以50英里每小时的速度移动,每秒3100帧的速度拍摄的。

.先行版预告片中,X教授的轮椅和《X战警》(2000)中帕特里克·斯图尔特用的那把是一样的。

  1. Video
  2. ID                                       : 1
  3. Format                                   : HEVC
  4. Format/Info                              : High Efficiency Video Coding
  5. Format profile                           : Main [url=mailto:10@L5.1]10@L5.1[/url]@High
  6. Codec ID                                 : V_MPEGH/ISO/HEVC
  7. Duration                                 : 2 h 23 min
  8. Bit rate                                 : 15.2 Mb/s
  9. Width                                    : 3 840 pixels
  10. Height                                   : 1 600 pixels
  11. Display aspect ratio                     : 2.40:1
  12. Frame rate mode                          : Constant
  13. Frame rate                               : 23.976 (24000/1001/39027) FPS
  14. Color space                              : YUV
  15. Chroma subsampling                       : 4:2:0 (Type 2)
  16. Bit depth                                : 10 bits
  17. Bits/(Pixel*Frame)                       : 0.103
  18. Stream size                              : 15.3GB (70%)
  19. Writing library                          : x265 2.5+24-0cdb464618ee:[Windows][GCC 6.2.1][64 bit] 10bit
  20. Encoding settings                        : cpuid=1173503 / frame-threads=4 / numa-pools=20 / wpp / no-pmode / no-pme / no-psnr / no-ssim / log-level=2 / input-csp=1 / input-res=3840x1600 / interlace=0 / total-frames=207112 / level-idc=51 / high-tier=1 / uhd-bd=0 / ref=4 / no-allow-non-conformance / repeat-headers / annexb / aud / hrd / info / hash=0 / no-temporal-layers / no-open-gop / min-keyint=1 / keyint=24 / bframes=4 / b-adapt=2 / b-pyramid / bframe-bias=0 / rc-lookahead=25 / lookahead-slices=4 / scenecut=40 / no-intra-refresh / ctu=64 / min-cu-size=8 / rect / no-amp / max-tu-size=32 / tu-inter-depth=1 / tu-intra-depth=1 / limit-tu=0 / rdoq-level=2 / dynamic-rd=0.00 / no-ssim-rd / signhide / no-tskip / nr-intra=0 / nr-inter=0 / no-constrained-intra / no-strong-intra-smoothing / max-merge=3 / limit-refs=3 / limit-modes / me=3 / subme=3 / merange=57 / temporal-mvp / weightp / no-weightb / no-analyze-src-pics / deblock=-2:-2 / no-sao / no-sao-non-deblock / rd=4 / no-early-skip / rskip / no-fast-intra / no-tskip-fast / no-cu-lossless / no-b-intra / no-splitrd-skip / rdpenalty=0 / psy-rd=2.00 / psy-rdoq=1.00 / no-rd-refine / analysis-reuse-mode=0 / no-lossless / cbqpoffs=0 / crqpoffs=0 / rc=crf / crf=17.0 / qcomp=0.60 / qpstep=4 / stats-write=0 / stats-read=0 / vbv-maxrate=160000 / vbv-bufsize=160000 / vbv-init=0.9 / crf-max=0.0 / crf-min=0.0 / ipratio=1.40 / pbratio=1.30 / aq-mode=1 / aq-strength=1.00 / cutree / zone-count=0 / no-strict-cbr / qg-size=32 / no-rc-grain / qpmax=69 / qpmin=0 / no-const-vbv / sar=1 / overscan=0 / videoformat=5 / range=0 / colorprim=9 / transfer=16 / colormatrix=9 / chromaloc=1 / chromaloc-top=2 / chromaloc-bottom=2 / display-window=0 / master-display=G(13250,34500)B(7500,3000)R(34000,16000)WP(15635,16450)L(10000000,0) / max-cll=0,0 / min-luma=0 / max-luma=1023 / log2-max-poc-lsb=8 / vui-timing-info / vui-hrd-info / slices=1 / opt-qp-pps / opt-ref-list-length-pps / no-multi-pass-opt-rps / scenecut-bias=0.05 / no-opt-cu-delta-qp / no-aq-motion / hdr / hdr-opt / no-dhdr10-opt / analysis-reuse-level=5 / scale-factor=0 / refine-intra=0 / refine-inter=0 / refine-mv=0 / no-limit-sao / ctu-info=0
  21. Default                                  : Yes
  22. Forced                                   : No
  23. Color range                              : Limited
  24. Color primaries                          : BT.2020
  25. Transfer characteristics                 : SMPTE ST 2084
  26. Matrix coefficients                      : BT.2020 non-constant
  27. Mastering display color primaries        : R: x=0.680000 y=0.320000, G: x=0.265000 y=0.690000, B: x=0.150000 y=0.060000, White point: x=0.312700 y=0.329000
  28. Mastering display luminance              : min: 0.0000 cd/m2, max: 1000.0000 cd/m2

  29. Audio #1
  30. ID                                       : 2
  31. Format                                   : TrueHD
  32. Format profile                           : TrueHD+Atmos / TrueHD
  33. Codec ID                                 : A_TRUEHD
  34. Duration                                 : 2 h 23 min
  35. Bit rate mode                            : Variable
  36. Bit rate                                 : 5 352 kb/s
  37. Maximum bit rate                         : 10.0 Mb/s
  38. Channel(s)                               : Object Based / 8 channels
  39. Channel positions                        : Object Based / Front: L C R, Side: L R, Back: L R, LFE
  40. Sampling rate                            :  / 48.0 kHz
  41. Frame rate                               : 1 200.000 FPS (40 spf)
  42. Compression mode                         : Lossless
  43. Stream size                              : 5.38GB (25%)
  44. Language                                 : English
  45. Default                                  : Yes
  46. Forced                                   : No

  47. Audio #2
  48. ID                                       : 3
  49. Format                                   : AC-3
  50. Format/Info                              : Audio Coding 3
  51. Format settings, Endianness              : Big
  52. Codec ID                                 : A_AC3
  53. Duration                                 : 2 h 23 min
  54. Bit rate mode                            : Constant
  55. Bit rate                                 : 640 kb/s
  56. Channel(s)                               : 6 channels
  57. Channel positions                        : Front: L C R, Side: L R, LFE
  58. Sampling rate                            : 48.0 kHz
  59. Frame rate                               : 31.250 FPS (1536 spf)
  60. Bit depth                                : 16 bits
  61. Compression mode                         : Lossy
  62. Stream size                              : 659 MiB (3%)
  63. Language                                 : English
  64. Service kind                             : Complete Main
  65. Default                                  : No
  66. Forced                                   : No

  67. Audio #3
  68. ID                                       : 4
  69. Format                                   : AAC
  70. Format/Info                              : Advanced Audio Codec
  71. Format profile                           : LC
  72. Codec ID                                 : A_AAC
  73. Duration                                 : 2 h 23 min
  74. Bit rate                                 : 118 kb/s
  75. Channel(s)                               : 2 channels
  76. Channel positions                        : Front: L R
  77. Sampling rate                            : 48.0 kHz
  78. Frame rate                               : 46.875 FPS (1024 spf)
  79. Compression mode                         : Lossy
  80. Delay relative to video                  : 9 ms
  81. Stream size                              : 122 MiB (1%)
  82. Title                                    : Commentary with director Bryan Singer and writer Simon Kinberg
  83. Language                                 : English
  84. Default                                  : No
  85. Forced                                   : No

  86. Text #1
  87. ID                                       : 5
  88. Format                                   : PGS
  89. Muxing mode                              : zlib
  90. Codec ID                                 : S_HDMV/PGS
  91. Codec ID/Info                            : Picture based subtitle format used on BDs/HD-DVDs
  92. Duration                                 : 1 h 26 min
  93. Bit rate                                 : 1 968 b/s
  94. Count of elements                        : 186
  95. Stream size                              : 1.22 MiB (0%)
  96. Title                                    : Forced
  97. Language                                 : English
  98. Default                                  : Yes
  99. Forced                                   : No

  100. Text #2
  101. ID                                       : 6
  102. Format                                   : PGS
  103. Muxing mode                              : zlib
  104. Codec ID                                 : S_HDMV/PGS
  105. Codec ID/Info                            : Picture based subtitle format used on BDs/HD-DVDs
  106. Duration                                 : 2 h 21 min
  107. Bit rate                                 : 29.9 kb/s
  108. Count of elements                        : 3818
  109. Stream size                              : 30.3 MiB (0%)
  110. Title                                    : SDH
  111. Language                                 : English
  112. Default                                  : No
  113. Forced                                   : No

  114. Text #3
  115. ID                                       : 7
  116. Format                                   : PGS
  117. Muxing mode                              : zlib
  118. Codec ID                                 : S_HDMV/PGS
  119. Codec ID/Info                            : Picture based subtitle format used on BDs/HD-DVDs
  120. Duration                                 : 2 h 22 min
  121. Bit rate                                 : 21.5 kb/s
  122. Count of elements                        : 2816
  123. Stream size                              : 22.0 MiB (0%)
  124. Language                                 : Spanish
  125. Default                                  : No
  126. Forced                                   : No

  127. Text #4
  128. ID                                       : 8
  129. Format                                   : PGS
  130. Muxing mode                              : zlib
  131. Codec ID                                 : S_HDMV/PGS
  132. Codec ID/Info                            : Picture based subtitle format used on BDs/HD-DVDs
  133. Duration                                 : 2 h 22 min
  134. Bit rate                                 : 22.1 kb/s
  135. Count of elements                        : 2934
  136. Stream size                              : 22.6 MiB (0%)
  137. Language                                 : French
  138. Default                                  : No
  139. Forced                                   : No

  140. Text #5
  141. ID                                       : 9
  142. Format                                   : PGS
  143. Muxing mode                              : zlib
  144. Codec ID                                 : S_HDMV/PGS
  145. Codec ID/Info                            : Picture based subtitle format used on BDs/HD-DVDs
  146. Duration                                 : 2 h 22 min
  147. Bit rate                                 : 17.8 kb/s
  148. Count of elements                        : 2612
  149. Stream size                              : 18.2 MiB (0%)
  150. Language                                 : French
  151. Default                                  : No
  152. Forced                                   : No

  153. Text #6
  154. ID                                       : 10
  155. Format                                   : PGS
  156. Muxing mode                              : zlib
  157. Codec ID                                 : S_HDMV/PGS
  158. Codec ID/Info                            : Picture based subtitle format used on BDs/HD-DVDs
  159. Duration                                 : 2 h 22 min
  160. Bit rate                                 : 21.3 kb/s
  161. Count of elements                        : 2912
  162. Stream size                              : 21.7 MiB (0%)
  163. Language                                 : Spanish
  164. Default                                  : No
  165. Forced                                   : No

  166. Text #7
  167. ID                                       : 11
  168. Format                                   : PGS
  169. Muxing mode                              : zlib
  170. Codec ID                                 : S_HDMV/PGS
  171. Codec ID/Info                            : Picture based subtitle format used on BDs/HD-DVDs
  172. Duration                                 : 2 h 22 min
  173. Bit rate                                 : 19.8 kb/s
  174. Count of elements                        : 2272
  175. Stream size                              : 20.2 MiB (0%)
  176. Language                                 : Danish
  177. Default                                  : No
  178. Forced                                   : No

  179. Text #8
  180. ID                                       : 12
  181. Format                                   : PGS
  182. Muxing mode                              : zlib
  183. Codec ID                                 : S_HDMV/PGS
  184. Codec ID/Info                            : Picture based subtitle format used on BDs/HD-DVDs
  185. Duration                                 : 2 h 22 min
  186. Bit rate                                 : 19.3 kb/s
  187. Count of elements                        : 2478
  188. Stream size                              : 19.7 MiB (0%)
  189. Language                                 : Dutch
  190. Default                                  : No
  191. Forced                                   : No

  192. Text #9
  193. ID                                       : 13
  194. Format                                   : PGS
  195. Muxing mode                              : zlib
  196. Codec ID                                 : S_HDMV/PGS
  197. Codec ID/Info                            : Picture based subtitle format used on BDs/HD-DVDs
  198. Duration                                 : 2 h 22 min
  199. Bit rate                                 : 19.2 kb/s
  200. Count of elements                        : 2890
  201. Stream size                              : 19.6 MiB (0%)
  202. Language                                 : Finnish
  203. Default                                  : No
  204. Forced                                   : No

  205. Text #10
  206. ID                                       : 14
  207. Format                                   : PGS
  208. Muxing mode                              : zlib
  209. Codec ID                                 : S_HDMV/PGS
  210. Codec ID/Info                            : Picture based subtitle format used on BDs/HD-DVDs
  211. Duration                                 : 2 h 22 min
  212. Bit rate                                 : 22.2 kb/s
  213. Count of elements                        : 2830
  214. Stream size                              : 22.6 MiB (0%)
  215. Language                                 : German
  216. Default                                  : No
  217. Forced                                   : No

  218. Text #11
  219. ID                                       : 15
  220. Format                                   : PGS
  221. Muxing mode                              : zlib
  222. Codec ID                                 : S_HDMV/PGS
  223. Codec ID/Info                            : Picture based subtitle format used on BDs/HD-DVDs
  224. Duration                                 : 2 h 22 min
  225. Bit rate                                 : 21.7 kb/s
  226. Count of elements                        : 2934
  227. Stream size                              : 22.2 MiB (0%)
  228. Language                                 : Italian
  229. Default                                  : No
  230. Forced                                   : No

  231. Text #12
  232. ID                                       : 16
  233. Format                                   : PGS
  234. Muxing mode                              : zlib
  235. Codec ID                                 : S_HDMV/PGS
  236. Codec ID/Info                            : Picture based subtitle format used on BDs/HD-DVDs
  237. Duration                                 : 2 h 22 min
  238. Bit rate                                 : 21.4 kb/s
  239. Count of elements                        : 2934
  240. Stream size                              : 21.8 MiB (0%)
  241. Language                                 : Norwegian
  242. Default                                  : No
  243. Forced                                   : No

  244. Text #13
  245. ID                                       : 17
  246. Format                                   : PGS
  247. Muxing mode                              : zlib
  248. Codec ID                                 : S_HDMV/PGS
  249. Codec ID/Info                            : Picture based subtitle format used on BDs/HD-DVDs
  250. Duration                                 : 2 h 22 min
  251. Bit rate                                 : 20.8 kb/s
  252. Count of elements                        : 2942
  253. Stream size                              : 21.3 MiB (0%)
  254. Language                                 : Swedish
  255. Default                                  : No
  256. Forced                                   : No

  257. Text #14
  258. ID                                       : 18
  259. Format                                   : PGS
  260. Muxing mode                              : zlib
  261. Codec ID                                 : S_HDMV/PGS
  262. Codec ID/Info                            : Picture based subtitle format used on BDs/HD-DVDs
  263. Duration                                 : 2 h 22 min
  264. Bit rate                                 : 16.2 kb/s
  265. Count of elements                        : 2950
  266. Stream size                              : 16.5 MiB (0%)
  267. Language                                 : Chinese
  268. Default                                  : No
  269. Forced                                   : No

  270. Text #15
  271. ID                                       : 19
  272. Format                                   : PGS
  273. Muxing mode                              : zlib
  274. Codec ID                                 : S_HDMV/PGS
  275. Codec ID/Info                            : Picture based subtitle format used on BDs/HD-DVDs
  276. Duration                                 : 2 h 22 min
  277. Bit rate                                 : 17.4 kb/s
  278. Count of elements                        : 2948
  279. Stream size                              : 17.7 MiB (0%)
  280. Language                                 : Chinese
  281. Default                                  : No
  282. Forced                                   : No

  283. Text #16
  284. ID                                       : 20
  285. Format                                   : PGS
  286. Muxing mode                              : zlib
  287. Codec ID                                 : S_HDMV/PGS
  288. Codec ID/Info                            : Picture based subtitle format used on BDs/HD-DVDs
  289. Duration                                 : 2 h 22 min
  290. Bit rate                                 : 15.4 kb/s
  291. Count of elements                        : 2628
  292. Stream size                              : 15.7 MiB (0%)
  293. Language                                 : Japanese
  294. Default                                  : No
  295. Forced                                   : No

  296. Text #17
  297. ID                                       : 21
  298. Format                                   : PGS
  299. Muxing mode                              : zlib
  300. Codec ID                                 : S_HDMV/PGS
  301. Codec ID/Info                            : Picture based subtitle format used on BDs/HD-DVDs
  302. Duration                                 : 2 h 23 min
  303. Bit rate                                 : 68.7 kb/s
  304. Count of elements                        : 5098
  305. Stream size                              : 70.6 MiB (0%)
  306. Title                                    : Commentary
  307. Language                                 : English
  308. Default                                  : No
  309. Forced                                   : No

  310. Text #18
  311. ID                                       : 22
  312. Format                                   : PGS
  313. Muxing mode                              : zlib
  314. Codec ID                                 : S_HDMV/PGS
  315. Codec ID/Info                            : Picture based subtitle format used on BDs/HD-DVDs
  316. Duration                                 : 2 h 23 min
  317. Bit rate                                 : 56.0 kb/s
  318. Count of elements                        : 4860
  319. Stream size                              : 57.6 MiB (0%)
  320. Title                                    : Commentary
  321. Language                                 : Spanish
  322. Default                                  : No
  323. Forced                                   : No

  324. Text #19
  325. ID                                       : 23
  326. Format                                   : PGS
  327. Muxing mode                              : zlib
  328. Codec ID                                 : S_HDMV/PGS
  329. Codec ID/Info                            : Picture based subtitle format used on BDs/HD-DVDs
  330. Duration                                 : 2 h 23 min
  331. Bit rate                                 : 58.8 kb/s
  332. Count of elements                        : 4864
  333. Stream size                              : 60.6 MiB (0%)
  334. Title                                    : Commentary
  335. Language                                 : French
  336. Default                                  : No
  337. Forced                                   : No

  338. Text #20
  339. ID                                       : 24
  340. Format                                   : PGS
  341. Muxing mode                              : zlib
  342. Codec ID                                 : S_HDMV/PGS
  343. Codec ID/Info                            : Picture based subtitle format used on BDs/HD-DVDs
  344. Duration                                 : 2 h 23 min
  345. Bit rate                                 : 52.0 kb/s
  346. Count of elements                        : 4782
  347. Stream size                              : 53.5 MiB (0%)
  348. Title                                    : Commentary
  349. Language                                 : French
  350. Default                                  : No
  351. Forced                                   : No

  352. Text #21
  353. ID                                       : 25
  354. Format                                   : PGS
  355. Muxing mode                              : zlib
  356. Codec ID                                 : S_HDMV/PGS
  357. Codec ID/Info                            : Picture based subtitle format used on BDs/HD-DVDs
  358. Duration                                 : 2 h 23 min
  359. Bit rate                                 : 57.5 kb/s
  360. Count of elements                        : 4862
  361. Stream size                              : 59.2 MiB (0%)
  362. Title                                    : Commentary
  363. Language                                 : Spanish
  364. Default                                  : No
  365. Forced                                   : No

  366. Text #22
  367. ID                                       : 26
  368. Format                                   : PGS
  369. Muxing mode                              : zlib
  370. Codec ID                                 : S_HDMV/PGS
  371. Codec ID/Info                            : Picture based subtitle format used on BDs/HD-DVDs
  372. Duration                                 : 2 h 23 min
  373. Bit rate                                 : 57.0 kb/s
  374. Count of elements                        : 4812
  375. Stream size                              : 58.7 MiB (0%)
  376. Title                                    : Commentary
  377. Language                                 : Danish
  378. Default                                  : No
  379. Forced                                   : No

  380. Text #23
  381. ID                                       : 27
  382. Format                                   : PGS
  383. Muxing mode                              : zlib
  384. Codec ID                                 : S_HDMV/PGS
  385. Codec ID/Info                            : Picture based subtitle format used on BDs/HD-DVDs
  386. Duration                                 : 2 h 23 min
  387. Bit rate                                 : 60.6 kb/s
  388. Count of elements                        : 4796
  389. Stream size                              : 62.4 MiB (0%)
  390. Title                                    : Commentary
  391. Language                                 : Dutch
  392. Default                                  : No
  393. Forced                                   : No

  394. Text #24
  395. ID                                       : 28
  396. Format                                   : PGS
  397. Muxing mode                              : zlib
  398. Codec ID                                 : S_HDMV/PGS
  399. Codec ID/Info                            : Picture based subtitle format used on BDs/HD-DVDs
  400. Duration                                 : 2 h 23 min
  401. Bit rate                                 : 59.8 kb/s
  402. Count of elements                        : 4862
  403. Stream size                              : 61.5 MiB (0%)
  404. Title                                    : Commentary
  405. Language                                 : Finnish
  406. Default                                  : No
  407. Forced                                   : No

  408. Text #25
  409. ID                                       : 29
  410. Format                                   : PGS
  411. Muxing mode                              : zlib
  412. Codec ID                                 : S_HDMV/PGS
  413. Codec ID/Info                            : Picture based subtitle format used on BDs/HD-DVDs
  414. Duration                                 : 2 h 23 min
  415. Bit rate                                 : 61.4 kb/s
  416. Count of elements                        : 4856
  417. Stream size                              : 63.2 MiB (0%)
  418. Title                                    : Commentary
  419. Language                                 : German
  420. Default                                  : No
  421. Forced                                   : No

  422. Text #26
  423. ID                                       : 30
  424. Format                                   : PGS
  425. Muxing mode                              : zlib
  426. Codec ID                                 : S_HDMV/PGS
  427. Codec ID/Info                            : Picture based subtitle format used on BDs/HD-DVDs
  428. Duration                                 : 2 h 23 min
  429. Bit rate                                 : 54.9 kb/s
  430. Count of elements                        : 4864
  431. Stream size                              : 56.5 MiB (0%)
  432. Title                                    : Commentary
  433. Language                                 : Italian
  434. Default                                  : No
  435. Forced                                   : No

  436. Text #27
  437. ID                                       : 31
  438. Format                                   : PGS
  439. Muxing mode                              : zlib
  440. Codec ID                                 : S_HDMV/PGS
  441. Codec ID/Info                            : Picture based subtitle format used on BDs/HD-DVDs
  442. Duration                                 : 2 h 23 min
  443. Bit rate                                 : 32.9 kb/s
  444. Count of elements                        : 3028
  445. Stream size                              : 33.9 MiB (0%)
  446. Title                                    : Commentary
  447. Language                                 : Japanese
  448. Default                                  : No
  449. Forced                                   : No

  450. Text #28
  451. ID                                       : 32
  452. Format                                   : PGS
  453. Muxing mode                              : zlib
  454. Codec ID                                 : S_HDMV/PGS
  455. Codec ID/Info                            : Picture based subtitle format used on BDs/HD-DVDs
  456. Duration                                 : 2 h 23 min
  457. Bit rate                                 : 56.8 kb/s
  458. Count of elements                        : 4862
  459. Stream size                              : 58.4 MiB (0%)
  460. Title                                    : Commentary
  461. Language                                 : Norwegian
  462. Default                                  : No
  463. Forced                                   : No

  464. Text #29
  465. ID                                       : 33
  466. Format                                   : PGS
  467. Muxing mode                              : zlib
  468. Codec ID                                 : S_HDMV/PGS
  469. Codec ID/Info                            : Picture based subtitle format used on BDs/HD-DVDs
  470. Duration                                 : 2 h 23 min
  471. Bit rate                                 : 54.9 kb/s
  472. Count of elements                        : 4862
  473. Stream size                              : 56.5 MiB (0%)
  474. Title                                    : Commentary
  475. Language                                 : Swedish
  476. Default                                  : No
  477. Forced                                   : No

  478. Menu
  479. 00:00:00.000                             : en:0:00:00.000
  480. 00:08:18.789                             : en:0:08:18.789
  481. 00:14:13.185                             : en:0:14:13.185
  482. 00:18:07.086                             : en:0:18:07.086
  483. 00:24:55.494                             : en:0:24:55.494
  484. 00:30:45.343                             : en:0:30:45.343
  485. 00:36:35.234                             : en:0:36:35.234
  486. 00:41:00.082                             : en:0:41:00.082
  487. 00:45:56.503                             : en:0:45:56.503
  488. 00:49:24.294                             : en:0:49:24.294
  489. 00:55:22.610                             : en:0:55:22.610
  490. 00:59:36.823                             : en:0:59:36.823
  491. 01:04:43.671                             : en:1:04:43.671
  492. 01:12:35.851                             : en:1:12:35.851
  493. 01:17:32.898                             : en:1:17:32.898
  494. 01:22:18.516                             : en:1:22:18.516
  495. 01:27:45.593                             : en:1:27:45.593
  496. 01:34:05.806                             : en:1:34:05.806
  497. 01:36:46.634                             : en:1:36:46.634
  498. 01:39:50.901                             : en:1:39:50.901
  499. 01:43:34.374                             : en:1:43:34.374
  500. 01:49:57.382                             : en:1:49:57.382
  501. 01:55:08.359                             : en:1:55:08.359
  502. 01:57:21.659                             : en:1:57:21.659
  503. 02:03:50.548                             : en:2:03:50.548
  504. 02:07:56.710                             : en:2:07:56.710
  505. 02:10:59.101                             : en:2:10:59.101
  506. 02:12:54.091                             : en:2:12:54.091
复制代码


X战警:天启 X-Men.Apocalypse.2016.2160p.BluRay.x265.10bit.HDR.TrueHD.7.1.Atmos-TERMiNAL 21.88GB-1.png
X战警:天启 X-Men.Apocalypse.2016.2160p.BluRay.x265.10bit.HDR.TrueHD.7.1.Atmos-TERMiNAL 21.88GB-2.png
X战警:天启 X-Men.Apocalypse.2016.2160p.BluRay.x265.10bit.HDR.TrueHD.7.1.Atmos-TERMiNAL 21.88GB-3.png
X战警:天启 X-Men.Apocalypse.2016.2160p.BluRay.x265.10bit.HDR.TrueHD.7.1.Atmos-TERMiNAL 21.88GB-4.png
X战警:天启 X-Men.Apocalypse.2016.2160p.BluRay.x265.10bit.HDR.TrueHD.7.1.Atmos-TERMiNAL 21.88GB-5.png
X战警:天启 X-Men.Apocalypse.2016.2160p.BluRay.x265.10bit.HDR.TrueHD.7.1.Atmos-TERMiNAL 21.88GB-6.png




回复

使用道具 举报

发表于 2020-2-29 09:12:29 | 显示全部楼层
新手必看:资源下载常见问题
回复 支持 反对

使用道具 举报

发表于 2020-2-29 09:15:57 | 显示全部楼层
第4届豆瓣电影年度榜单(2017)
回复 支持 反对

使用道具 举报

发表于 2020-2-29 09:17:50 | 显示全部楼层
第4届豆瓣电影年度榜单(2017)
回复 支持 反对

使用道具 举报

发表于 2020-2-29 09:20:07 | 显示全部楼层

我看不错噢 谢谢楼主!蓝光电影网越来越好!
回复 支持 反对

使用道具 举报

发表于 2020-2-29 09:20:09 | 显示全部楼层

楼主太厉害了!楼主,电影应该很好看我觉得蓝光电影网真是个好地方!
回复 支持 反对

使用道具 举报

发表于 2020-2-29 10:21:45 | 显示全部楼层

怀念以前被蓝光币砸的感觉!要想蓝光电影网好 就靠你我他
回复 支持 反对

使用道具 举报

发表于 2020-2-29 13:42:30 | 显示全部楼层
不能下载,被骗了金币。
回复 支持 反对

使用道具 举报

发表于 2020-3-2 14:41:06 | 显示全部楼层
楼主发贴辛苦了,谢谢楼主分享!我觉得蓝光电影网是注册对了!
回复 支持 反对

使用道具 举报

发表于 2020-3-23 19:19:20 | 显示全部楼层
楼主发贴辛苦了,谢谢楼主分享!我觉得蓝光电影网是注册对了!
回复 支持 反对

使用道具 举报

懒得打字嘛,点击右侧快捷回复 【右侧内容,后台自定义】
您需要登录后才可以回帖 登录 | 立即加入

本版积分规则

现在加入蓝光电影网,注册一个账号
上个主题 下个主题 快速回复 收藏帖子 返回列表 客服中心 搜索

手机版|小黑屋| 蓝光电影网 |网站地图 

Copyright © 2015-2019 Comsenz Inc.  Template by 蓝光电影论坛 All Rights Reserved.

Powered by 蓝光电影网 X3.4

特别声明:本站所有资源均由网上收集而来,版权归原影音公司所有,如果侵犯了你的权益,请通知我们,我们会及时删除侵权内容.

快速回复 返回顶部 返回列表