找回密码

蓝光电影网

查看: 1392|回复: 56

[10bit.SDR] 寄生虫 Parasite.2019.KOREAN.2160p.BluRay.x265.10bit.SDR.DTS-HD.MA.TrueHD.7.1.Atmos-SWTYBLZ 78.26GB

  [复制链接]

 成长值: 25360

发表于 2020-2-27 16:52:47 | 显示全部楼层 |阅读模式
寄生虫 Parasite.2019.KOREAN.2160p.BluRay.x265.10bit.SDR.DTS-HD.MA.TrueHD.7.1.Atmos-SWTYBLZ 78.26GB-1.png

译  名 寄生虫 / Gisaengchung / Parasite / 上流寄生族(港) / 寄生上流(台) / ?????
片  名 ???
年  代 2019
产  地 韩国
类  别 剧情 / 喜剧
语  言 韩语 / 英语
上映日期 2019-05-21(戛纳电影节) / 2019-05-30(韩国)
IMDb评分  8.6/10 from 276321 users
IMDb链接  https://www.imdb.com/title/tt6751668
豆瓣评分 8.7/10 from 815036 users
豆瓣链接 https://movie.douban.com/subject/27010768/
片  长 132分钟
导  演 奉俊昊 Joon-ho Bong
编  剧 奉俊昊 Joon-ho Bong / 韩进元  Jin-won Han
主  演 宋康昊 Kang-ho Song
       李善均 Seon-gyun Lee
       赵汝贞 Yeo-Jeong Jo
       崔宇植 Woo-Sik Choi
       朴素丹 So dam Park
       李静恩 Jung-eun Lee
       张慧珍 Hye-jin Jang
       郑知晓 Ji-So Jeong
       朴明勋 Myeong-hoon Park
       朴叙俊 Seo-Joon Park
       朴根祿 Keun-rok Park
       郑贤俊 Hyun-joon Jung
       朴孝新 Pak Hyo-Shin
       安德烈亚斯·弗龙克 Andreas Fronk


标  签 人性 | 韩国 | 社会 | 黑色幽默 | 剧情 | 犯罪 | 2019 | 金棕榈

简  介  

  基宇(崔宇植 饰)出生在一个贫穷的家庭之中,和妹妹基婷(朴素丹 饰)以及父母在狭窄的地下室里过着相依为命的日子。一天,基宇的同学上门拜访,他告诉基宇,自己在一个有钱人家里给他们的女儿做家教,太太是一个头脑简单出手又阔绰的女人,因为自己要出国留学,所以将家教的职位暂时转交给基宇。
  就这样,基宇来到了朴社长(李善均 饰)家中,并且见到了他的太太(赵汝贞 饰),没过多久,基宇的妹妹和父母也如同寄生虫一般的进入了朴社长家里工作。然而,他们的野心并没有止步于此,基宇更是和大小姐坠入了爱河。随着时间的推移,朴社长家里隐藏的秘密渐渐浮出了水面。

获奖情况  

  第92届奥斯卡金像奖(2020)
  最佳影片 郭信爱 / 奉俊昊
  最佳导演 奉俊昊
  最佳原创剧本 韩进元 / 奉俊昊
  最佳国际影片
  最佳剪辑(提名) 杨劲莫
  最佳艺术指导(提名)

  第72届戛纳电影节(2019)
  主竞赛单元 金棕榈奖 奉俊昊

  第77届金球奖(2020)
  电影类 最佳导演(提名) 奉俊昊
  电影类 最佳编剧(提名) 韩进元 / 奉俊昊
  电影类 最佳外语片

  第73届英国电影学院奖(2020)
  电影奖 最佳影片(提名)
  电影奖 最佳导演(提名) 奉俊昊
  电影奖 最佳原创剧本 韩进元 / 奉俊昊
  电影奖 最佳非英语片

  第40届韩国电影青龙奖(2019)
  最佳影片 奉俊昊
  最佳导演 奉俊昊
  最佳男主角(提名) 宋康昊
  最佳女主角 赵汝贞
  最佳男配角(提名) 朴明勋
  最佳女配角 李静恩
  最佳女配角(提名) 朴素丹
  最佳剧本(提名)
  最佳摄影(提名)
  最佳剪辑(提名)
  最佳美术
  最佳配乐(提名)

  第44届多伦多国际电影节(2019)
  观众选择奖(提名) 奉俊昊

  第49届鹿特丹国际电影节(2020)
  观众奖 奉俊昊

  第72届美国导演工会奖(2020)
  最佳电影导演(提名) 奉俊昊

  第26届美国演员工会奖(2020)
  电影奖 最佳群戏

  第72届美国编剧工会奖(2020)
  电影奖 最佳原创剧本 韩进元 / 奉俊昊

  第31届美国制片人工会奖(2020)
  最佳电影制片人奖(提名)

  第70届美国剪辑工会奖(2020)
  剧情片最佳剪辑 杨劲莫

  第24届美国艺术指导工会奖(2020)
  电影奖 最佳当代电影艺术指导(提名) 李河俊

  第67届美国音效剪辑协会奖(2020)
  金卷轴奖 最佳外语片音效剪辑

  第85届纽约影评人协会奖(2019)
  最佳外语片

  第91届美国国家评论协会奖(2019)
  最佳外语片

  第25届美国评论家选择电影奖(2020)
  最佳影片(提名)
  最佳导演 奉俊昊
  最佳群戏(提名)
  最佳外语片
  最佳原创剧本(提名) 韩进元 / 奉俊昊
  最佳剪辑(提名)
  最佳美术指导(提名)

  第35届美国独立精神奖(2020)
  最佳国际电影

  第22届英国独立电影奖(2019)
  最佳外国独立电影

  第20届美国电影学会奖(2019)
  特别表彰

  第24届金卫星奖(2020)
  电影部门 最佳导演(提名) 奉俊昊
  电影部门 最佳外语片(提名)
  电影部门 最佳原创剧本(提名) 奉俊昊

  第23届好莱坞电影奖(2019)
  年度制片 奉俊昊

  第54届美国国家影评人协会奖(2020)
  最佳影片
  最佳导演(提名) 奉俊昊
  最佳男配角(提名) 宋康昊
  最佳剧本 韩进元 / 奉俊昊

  第18届华盛顿影评人协会奖(2019)
  最佳影片
  最佳导演 奉俊昊
  最佳外语片

  第40届伦敦影评人协会奖(2020)
  年度电影(提名)
  年度外语片(提名)
  年度导演(提名) 奉俊昊
  年度编剧(提名) 韩进元 / 奉俊昊
  技术成就奖(提名) 李河俊

  第40届波士顿影评人协会奖(2019)
  最佳导演 奉俊昊
  最佳外语片
  最佳群像表演(提名)

  第45届洛杉矶影评人协会奖(2019)
  最佳影片
  最佳导演 奉俊昊
  最佳男配角 宋康昊
  最佳剧本(提名) 韩进元 / 奉俊昊
  最佳艺术指导(提名)

  第32届芝加哥影评人协会奖(2019)
  最佳影片(提名)
  最佳导演(提名) 奉俊昊
  最佳女配角(提名) 赵汝贞
  最佳原创剧本(提名) 韩进元 / 奉俊昊
  最佳外语片(提名)
  最佳摄影(提名) 洪坰杓
  最佳艺术指导(提名)

  第13届底特律影评人协会奖(2019)
  最佳影片

  第4届亚特兰大影评人协会奖(2019)
  十佳影片
  最佳导演 奉俊昊
  最佳编剧 韩进元 / 奉俊昊
  最佳外语片

  第23届美国在线影评人协会奖(2020)
  最佳影片
  最佳导演 奉俊昊
  最佳男配角(提名) 宋康昊
  最佳原创剧本 韩进元 / 奉俊昊
  最佳剪辑 杨劲莫
  最佳非英语片

  第6届豆瓣电影年度榜单(2019)
  评分最高的外语电影(提名)
  最受关注的非院线电影
  评分最高的韩国电影
  评分最高的喜剧片(提名)
  1. Video
  2. ID                                       : 1
  3. Format                                   : HEVC
  4. Format/Info                              : High Efficiency Video Coding
  5. Format profile                           : Main High@L4@High
  6. Codec ID                                 : V_MPEGH/ISO/HEVC
  7. Duration                                 : 2 h 11 min
  8. Bit rate                                 : 75.5 Mb/s
  9. Width                                    : 3 840 pixels
  10. Height                                   : 1 606 pixels
  11. Display aspect ratio                     : 2.40:1
  12. Frame rate mode                          : Constant
  13. Frame rate                               : 23.976 (24000/1001) FPS
  14. Color space                              : YUV
  15. Chroma subsampling                       : 4:2:0
  16. Bit depth                                : 10 bits
  17. Bits/(Pixel*Frame)                       : 0.511
  18. Stream size                              : 69.6 GiB (89%)
  19. Title                                    : Parasite.2019.KOREAN.2160p.BluRay.x265.10bit.SDR.DTS-HD.MA.TrueHD.7.1.Atmos-SWTYBLZ
  20. Writing library                          : x265 3.0ed72af837053:[Windows][GCC 8.2.0][64 bit] 10bit
  21. Encoding settings                        : cpuid=1111039 / frame-threads=6 / numa-pools=40 / wpp / no-pmode / no-pme / no-psnr / no-ssim / log-level=2 / input-csp=1 / input-res=3840x1606 / interlace=0 / total-frames=189764 / level-idc=51 / high-tier=1 / uhd-bd=0 / ref=3 / no-allow-non-conformance / repeat-headers / annexb / aud / hrd / info / hash=0 / no-temporal-layers / no-open-gop / min-keyint=1 / keyint=24 / gop-lookahead=0 / bframes=4 / b-adapt=2 / b-pyramid / bframe-bias=0 / rc-lookahead=25 / lookahead-slices=4 / scenecut=40 / radl=0 / no-splice / no-intra-refresh / ctu=64 / min-cu-size=8 / no-rect / no-amp / max-tu-size=32 / tu-inter-depth=1 / tu-intra-depth=1 / limit-tu=0 / rdoq-level=0 / dynamic-rd=0.00 / no-ssim-rd / signhide / no-tskip / nr-intra=0 / nr-inter=0 / no-constrained-intra / strong-intra-smoothing / max-merge=2 / limit-refs=3 / no-limit-modes / me=1 / subme=2 / merange=57 / temporal-mvp / weightp / no-weightb / no-analyze-src-pics / deblock=0:0 / no-sao / no-sao-non-deblock / rd=3 / no-early-skip / rskip / no-fast-intra / no-tskip-fast / no-cu-lossless / no-b-intra / no-splitrd-skip / rdpenalty=0 / psy-rd=2.00 / psy-rdoq=0.00 / no-rd-refine / no-lossless / cbqpoffs=0 / crqpoffs=0 / rc=crf / crf=16.0 / qcomp=0.60 / qpstep=4 / stats-write=0 / stats-read=0 / vbv-maxrate=160000 / vbv-bufsize=160000 / vbv-init=0.9 / crf-max=0.0 / crf-min=0.0 / ipratio=1.40 / pbratio=1.30 / aq-mode=1 / aq-strength=1.00 / cutree / zone-count=0 / no-strict-cbr / qg-size=32 / no-rc-grain / qpmax=69 / qpmin=0 / no-const-vbv / sar=1 / overscan=0 / videoformat=5 / range=0 / colorprim=2 / transfer=2 / colormatrix=2 / chromaloc=0 / display-window=0 / max-cll=0,0 / min-luma=0 / max-luma=1023 / log2-max-poc-lsb=8 / vui-timing-info / vui-hrd-info / slices=1 / opt-qp-pps / opt-ref-list-length-pps / no-multi-pass-opt-rps / scenecut-bias=0.05 / no-opt-cu-delta-qp / no-aq-motion / no-hdr / no-hdr-opt / no-dhdr10-opt / no-idr-recovery-sei / analysis-reuse-level=5 / scale-factor=0 / refine-intra=0 / refine-inter=0 / refine-mv=0 / refine-ctu-distortion=0 / no-limit-sao / ctu-info=0 / no-lowpass-dct / refine-analysis-type=0 / copy-pic=1 / max-ausize-factor=1.0 / no-dynamic-refine / no-single-sei / no-hevc-aq / qp-adaptation-range=1.00
  22. Default                                  : Yes
  23. Forced                                   : No

  24. Audio #1
  25. ID                                       : 2
  26. Format                                   : MLP FBA 16-ch
  27. Format/Info                              : Meridian Lossless Packing FBA with 16-channel presentation
  28. Commercial name                          : Dolby TrueHD with Dolby Atmos
  29. Codec ID                                 : A_TRUEHD
  30. Duration                                 : 2 h 11 min
  31. Bit rate mode                            : Variable
  32. Bit rate                                 : 4 044 kb/s
  33. Maximum bit rate                         : 6 816 kb/s
  34. Channel(s)                               : 8 channels
  35. Channel layout                           : L R C LFE Ls Rs Lb Rb
  36. Sampling rate                            : 48.0 kHz
  37. Frame rate                               : 1 200.000 FPS (40 SPF)
  38. Compression mode                         : Lossless
  39. Stream size                              : 3.73 GiB (5%)
  40. Title                                    : Parasite.2019.KOREAN.2160p.BluRay.x265.10bit.SDR.DTS-HD.MA.TrueHD.7.1.Atmos-SWTYBLZ
  41. Language                                 : Korean
  42. Default                                  : Yes
  43. Forced                                   : No
  44. Number of dynamic objects                : 11
  45. Bed channel count                        : 1 channel
  46. Bed channel configuration                : LFE

  47. Audio #2
  48. ID                                       : 3
  49. Format                                   : DTS XLL
  50. Format/Info                              : Digital Theater Systems
  51. Commercial name                          : DTS-HD Master Audio
  52. Codec ID                                 : A_DTS
  53. Duration                                 : 2 h 11 min
  54. Bit rate mode                            : Variable
  55. Bit rate                                 : 4 108 kb/s
  56. Channel(s)                               : 8 channels
  57. Channel layout                           : C L R LFE Lb Rb Lss Rss
  58. Sampling rate                            : 48.0 kHz
  59. Frame rate                               : 93.750 FPS (512 SPF)
  60. Bit depth                                : 24 bits
  61. Compression mode                         : Lossless
  62. Stream size                              : 3.79 GiB (5%)
  63. Title                                    : Parasite.2019.KOREAN.2160p.BluRay.x265.10bit.SDR.DTS-HD.MA.TrueHD.7.1.Atmos-SWTYBLZ
  64. Language                                 : Korean
  65. Default                                  : No
  66. Forced                                   : No

  67. Audio #3
  68. ID                                       : 4
  69. Format                                   : AC-3
  70. Format/Info                              : Audio Coding 3
  71. Commercial name                          : Dolby Digital
  72. Codec ID                                 : A_AC3
  73. Duration                                 : 2 h 11 min
  74. Bit rate mode                            : Constant
  75. Bit rate                                 : 640 kb/s
  76. Channel(s)                               : 6 channels
  77. Channel layout                           : L R C LFE Ls Rs
  78. Sampling rate                            : 48.0 kHz
  79. Frame rate                               : 31.250 FPS (1536 SPF)
  80. Compression mode                         : Lossy
  81. Stream size                              : 604 MiB (1%)
  82. Title                                    : Parasite.2019.KOREAN.2160p.BluRay.x265.10bit.SDR.DTS-HD.MA.TrueHD.7.1.Atmos-SWTYBLZ
  83. Language                                 : Korean
  84. Service kind                             : Complete Main
  85. Default                                  : No
  86. Forced                                   : No

  87. Text #1
  88. ID                                       : 5
  89. Format                                   : UTF-8
  90. Codec ID                                 : S_TEXT/UTF8
  91. Codec ID/Info                            : UTF-8 Plain Text
  92. Duration                                 : 2 h 5 min
  93. Bit rate                                 : 54 b/s
  94. Count of elements                        : 1659
  95. Stream size                              : 49.9 KiB (0%)
  96. Title                                    : English-SRT
  97. Language                                 : English
  98. Default                                  : Yes
  99. Forced                                   : Yes

  100. Text #2
  101. ID                                       : 6
  102. Format                                   : PGS
  103. Muxing mode                              : zlib
  104. Codec ID                                 : S_HDMV/PGS
  105. Codec ID/Info                            : Picture based subtitle format used on BDs/HD-DVDs
  106. Duration                                 : 2 h 10 min
  107. Bit rate                                 : 27.8 kb/s
  108. Count of elements                        : 3548
  109. Stream size                              : 26.0 MiB (0%)
  110. Title                                    : French-PGS
  111. Language                                 : French
  112. Default                                  : No
  113. Forced                                   : No

  114. Text #3
  115. ID                                       : 7
  116. Format                                   : PGS
  117. Muxing mode                              : zlib
  118. Codec ID                                 : S_HDMV/PGS
  119. Codec ID/Info                            : Picture based subtitle format used on BDs/HD-DVDs
  120. Duration                                 : 2 h 11 min
  121. Bit rate                                 : 38.7 kb/s
  122. Count of elements                        : 5100
  123. Stream size                              : 36.3 MiB (0%)
  124. Title                                    : French-SDH-PGS
  125. Language                                 : French
  126. Default                                  : No
  127. Forced                                   : No

  128. Menu
  129. 00:00:00.000                             : en:Chapter 00
  130. 00:05:45.803                             : en:Chapter 01
  131. 00:12:17.236                             : en:Chapter 02
  132. 00:20:36.485                             : en:Chapter 03
  133. 00:29:22.844                             : en:Chapter 04
  134. 00:37:06.224                             : en:Chapter 05
  135. 00:46:20.652                             : en:Chapter 06
  136. 00:53:54.481                             : en:Chapter 07
  137. 01:02:56.647                             : en:Chapter 08
  138. 01:12:10.993                             : en:Chapter 09
  139. 01:23:26.793                             : en:Chapter 10
  140. 01:32:20.368                             : en:Chapter 11
  141. 01:41:23.285                             : en:Chapter 12
  142. 01:48:22.537                             : en:Chapter 13
  143. 01:56:09.003                             : en:Chapter 14
  144. 02:07:08.203                             : en:Chapter 15
复制代码

寄生虫 Parasite.2019.KOREAN.2160p.BluRay.x265.10bit.SDR.DTS-HD.MA.TrueHD.7.1.Atmos-SWTYBLZ 78.26GB-2.png 寄生虫 Parasite.2019.KOREAN.2160p.BluRay.x265.10bit.SDR.DTS-HD.MA.TrueHD.7.1.Atmos-SWTYBLZ 78.26GB-3.png 寄生虫 Parasite.2019.KOREAN.2160p.BluRay.x265.10bit.SDR.DTS-HD.MA.TrueHD.7.1.Atmos-SWTYBLZ 78.26GB-4.png 寄生虫 Parasite.2019.KOREAN.2160p.BluRay.x265.10bit.SDR.DTS-HD.MA.TrueHD.7.1.Atmos-SWTYBLZ 78.26GB-5.png 寄生虫 Parasite.2019.KOREAN.2160p.BluRay.x265.10bit.SDR.DTS-HD.MA.TrueHD.7.1.Atmos-SWTYBLZ 78.26GB-6.png 寄生虫 Parasite.2019.KOREAN.2160p.BluRay.x265.10bit.SDR.DTS-HD.MA.TrueHD.7.1.Atmos-SWTYBLZ 78.26GB-7.png 寄生虫 Parasite.2019.KOREAN.2160p.BluRay.x265.10bit.SDR.DTS-HD.MA.TrueHD.7.1.Atmos-SWTYBLZ 78.26GB-8.png 寄生虫 Parasite.2019.KOREAN.2160p.BluRay.x265.10bit.SDR.DTS-HD.MA.TrueHD.7.1.Atmos-SWTYBLZ 78.26GB-9.png







回复

使用道具 举报

发表于 2020-2-27 17:11:03 | 显示全部楼层
好电影,谢谢分享
回复 支持 反对

使用道具 举报

发表于 2020-2-27 17:33:54 | 显示全部楼层
感谢楼主分享
回复 支持 反对

使用道具 举报

发表于 2020-2-27 18:16:23 | 显示全部楼层
获奖电影,感谢楼主分享
回复 支持 反对

使用道具 举报

发表于 2020-2-27 18:33:46 | 显示全部楼层
飘零絮邀请您访问蓝光电影网
https://www.1080.cn/?fromuid=344731
回复 支持 反对

使用道具 举报

发表于 2020-2-27 18:49:28 | 显示全部楼层

我看不错噢 谢谢楼主!蓝光电影网越来越好!
回复 支持 反对

使用道具 举报

发表于 2020-2-27 18:55:39 | 显示全部楼层
楼主发贴辛苦了,谢谢楼主分享!我觉得蓝光电影网是注册对了!
回复 支持 反对

使用道具 举报

 成长值: 2785

发表于 2020-2-27 19:03:37 | 显示全部楼层
太好啦&萬分感謝版主的無私發佈分享%
回复 支持 反对

使用道具 举报

发表于 2020-2-27 19:39:02 | 显示全部楼层
今年的奧斯卡大獲全勝,優秀的電影值得收藏。
回复 支持 反对

使用道具 举报

发表于 2020-2-27 19:46:40 | 显示全部楼层
感谢分享,楼主辛苦了!
回复 支持 反对

使用道具 举报

懒得打字嘛,点击右侧快捷回复 【右侧内容,后台自定义】
您需要登录后才可以回帖 登录 | 立即加入

本版积分规则

现在加入蓝光电影网,注册一个账号
上个主题 下个主题 快速回复 收藏帖子 返回列表 客服中心 搜索

手机版|小黑屋| 蓝光电影网 |网站地图 

Copyright © 2015-2019 Comsenz Inc.  Template by 蓝光电影论坛 All Rights Reserved.

Powered by 蓝光电影网 X3.4

特别声明:本站所有资源均由网上收集而来,版权归原影音公司所有,如果侵犯了你的权益,请通知我们,我们会及时删除侵权内容.

快速回复 返回顶部 返回列表