找回密码

蓝光电影网

查看: 604|回复: 15

[8bit.SDR] 机器人总动员 WALL-E.2008.2160p.BluRay.x264.8bit.SDR.DTS-HD.MA.TrueHD.7.1.Atmos-SWTYBLZ 22.35GB

[复制链接]

 成长值: 25285

发表于 2020-2-27 15:58:24 | 显示全部楼层 |阅读模式
机器人总动员 WALL-E.2008.2160p.BluRay.x264.8bit.SDR.DTS-HD.MA.TrueHD.7.1.Atmos-SWTYBLZ 22.35GB-1.png

译  名 机器人总动员 / walle / 地球废品分装员 / 太空奇兵·威E(港) / 星际总动员 / 机器人瓦力 / 瓦力(台)
片  名 WALL·E
年  代 2008
产  地 美国
类  别 科幻 / 动画 / 冒险
语  言 英语
上映日期 2008-06-27(美国)
IMDb评分  8.4/10 from 945831 users
IMDb链接  https://www.imdb.com/title/tt0910970
豆瓣评分 9.3/10 from 912055 users
豆瓣链接 https://movie.douban.com/subject/2131459/
片  长 98分钟
导  演 安德鲁·斯坦顿 Andrew Stanton
编  剧 安德鲁·斯坦顿 Andrew Stanton / 吉姆·里尔顿 Jim Reardon / 彼特·道格特 Pete Docter
主  演 本·贝尔特 Ben Burtt
       艾丽莎·奈特 Elissa Knight
       杰夫·格尔林 Jeff Garlin
       佛莱德·威拉特 Fred Willard
       西格妮·韦弗 Sigourney Weaver
       MacInTalk
       约翰·拉岑贝格 John Ratzenberger
       凯茜·纳基麦 Kathy Najimy
       泰迪·牛顿 Teddy Newton
       鲍伯·伯根 Bob Bergen
       洛丽·理查德森 Lori Richardson
       吉姆·瓦德 Jim Ward
       彼特·道格特 Pete Docter
       安德鲁·斯坦顿 Andrew Stanton
       杰夫·皮金  Jeff Pidgeon
       约翰·齐甘 John Cygan
       米凯·麦高万 Mickie McGowan
       雪莉·琳恩 Sherry Lynn
       克莱特·惠特克 Colette Whitaker
       唐纳德·富利洛夫 Donald Fullilove
       罗里·艾伦 Lori Alan
       杰斯·哈梅尔 Jess Harnell
       拉瑞恩·纽曼 Laraine Newman
       扬·拉布森 Jan Rabson
       保罗·伊丁 Paul Eiding


标  签 动画 | 科幻 | 感人 | 美国 | 皮克斯 | 爱情 | 环保 | 迪斯尼

简  介  

  公元2805年,人类文明高度发展,却因污染和生活垃圾大量增加使得地球不再适于人类居住。地球人被迫乘坐飞船离开故乡,进行一次漫长无边的宇宙之旅。临行前他们委托Buynlarge的公司对地球垃圾进行清理,该公司开发了名为WALL·E(Waste Allocation Loa d Lifters – Earth 地球废品分装员)的机器人担当此重任。
  这些机器人按照程序日复一日、年复一年辛勤工作,但随着时间的流逝和恶劣环境的侵蚀,WALL·E们接连损坏、停止运动。最后只有一个仍在进行这项似乎永无止境的工作。经历了漫长的岁月,它开始拥有了自己的意识。它喜欢将收集来的宝贝小心翼翼藏起,喜欢收工后看看几百年前的歌舞片,此外还有一只蟑螂朋友作伴。直到有一天,一艘来自宇宙的飞船打破了它一成不变的生活……
  本片荣获2009年第81届奥斯卡最佳动画长片奖。

获奖情况  

  第81届奥斯卡金像奖(2009)
  最佳原创剧本(提名) 彼特·道格特 / 安德鲁·斯坦顿 / 吉姆·里尔顿
  最佳动画长片 安德鲁·斯坦顿
  最佳混音(提名) 本·贝尔特 / Tom Myers / 迈克尔·斯曼内科
  最佳音效剪辑(提名) 本·贝尔特 / 马修·伍德
  最佳原创配乐(提名) 托马斯·纽曼
  最佳原创歌曲(提名) 彼特·加布埃尔 / 托马斯·纽曼

  第66届金球奖(2009)
  电影类 最佳动画长片
  电影类 最佳原创歌曲(提名) 彼特·加布埃尔 / 托马斯·纽曼

  第36届动画安妮奖(2009)
  最佳动画长片(提名)
  最佳导演(提名) 安德鲁·斯坦顿
  最佳配音(提名) 本·贝尔特
  最佳分镜(提名) 罗纳尔多·德尔·卡门
  最佳艺术指导(提名) 拉夫·埃格尔斯顿
  最佳动画角色(提名) Victor Navone
  最佳动画效果(提名) Enrique Vila

  第9届美国电影学会奖(2008)
  年度佳片
  1. Video
  2. ID                                       : 1
  3. Format                                   : AVC
  4. Format/Info                              : Advanced Video Codec
  5. Format profile                           : High@L4
  6. Format settings                          : CABAC / 7 Ref Frames
  7. Format settings, CABAC                   : Yes
  8. Format settings, Reference frames        : 7 frames
  9. Codec ID                                 : V_MPEG4/ISO/AVC
  10. Duration                                 : 1 h 38 min
  11. Bit rate                                 : 20.3 Mb/s
  12. Width                                    : 3 840 pixels
  13. Height                                   : 1 606 pixels
  14. Display aspect ratio                     : 2.40:1
  15. Frame rate mode                          : Constant
  16. Frame rate                               : 23.976 (24000/1001) FPS
  17. Color space                              : YUV
  18. Chroma subsampling                       : 4:2:0
  19. Bit depth                                : 8 bits
  20. Scan type                                : Progressive
  21. Bits/(Pixel*Frame)                       : 0.138
  22. Stream size                              : 14.0 GiB (63%)
  23. Title                                    : WALL-E.2008.2160p.BluRay.x264.8bit.SDR.DTS-HD.MA.TrueHD.7.1.Atmos-SWTYBLZ
  24. Writing library                          : x264 core 157 r2935 545de2f
  25. Encoding settings                        : cabac=1 / ref=7 / deblock=1:1:1 / analyse=0x3:0x113 / me=umh / subme=10 / psy=1 / psy_rd=0.40:0.00 / mixed_ref=1 / me_range=48 / chroma_me=1 / trellis=2 / 8x8dct=1 / cqm=0 / deadzone=21,11 / fast_pskip=1 / chroma_qp_offset=-2 / threads=48 / lookahead_threads=5 / sliced_threads=0 / nr=0 / decimate=0 / interlaced=0 / bluray_compat=0 / constrained_intra=0 / bframes=5 / b_pyramid=2 / b_adapt=2 / b_bias=0 / direct=3 / weightb=1 / open_gop=0 / weightp=2 / keyint=250 / keyint_min=23 / scenecut=40 / intra_refresh=0 / rc_lookahead=50 / rc=crf / mbtree=1 / crf=14.0 / qcomp=0.60 / qpmin=0 / qpmax=69 / qpstep=4 / ip_ratio=1.40 / aq=1:0.60
  26. Default                                  : Yes
  27. Forced                                   : No

  28. Audio #1
  29. ID                                       : 2
  30. Format                                   : MLP FBA 16-ch
  31. Format/Info                              : Meridian Lossless Packing FBA with 16-channel presentation
  32. Commercial name                          : Dolby TrueHD with Dolby Atmos
  33. Codec ID                                 : A_TRUEHD
  34. Duration                                 : 1 h 38 min
  35. Bit rate mode                            : Variable
  36. Bit rate                                 : 7 244 kb/s
  37. Maximum bit rate                         : 8 217 kb/s
  38. Channel(s)                               : 8 channels
  39. Channel layout                           : L R C LFE Ls Rs Lb Rb
  40. Sampling rate                            : 48.0 kHz
  41. Frame rate                               : 1 200.000 FPS (40 SPF)
  42. Compression mode                         : Lossless
  43. Stream size                              : 4.97 GiB (22%)
  44. Title                                    : WALL-E.2008.2160p.BluRay.x264.8bit.SDR.DTS-HD.MA.TrueHD.7.1.Atmos-SWTYBLZ
  45. Language                                 : English
  46. Default                                  : Yes
  47. Forced                                   : No
  48. Number of dynamic objects                : 13
  49. Bed channel count                        : 1 channel
  50. Bed channel configuration                : LFE

  51. Audio #2
  52. ID                                       : 3
  53. Format                                   : DTS XLL
  54. Format/Info                              : Digital Theater Systems
  55. Commercial name                          : DTS-HD Master Audio
  56. Codec ID                                 : A_DTS
  57. Duration                                 : 1 h 38 min
  58. Bit rate mode                            : Variable
  59. Bit rate                                 : 4 114 kb/s
  60. Channel(s)                               : 6 channels
  61. Channel layout                           : C L R Ls Rs LFE
  62. Sampling rate                            : 48.0 kHz
  63. Frame rate                               : 93.750 FPS (512 SPF)
  64. Bit depth                                : 24 bits
  65. Compression mode                         : Lossless
  66. Stream size                              : 2.82 GiB (13%)
  67. Title                                    : WALL-E.2008.2160p.BluRay.x264.8bit.SDR.DTS-HD.MA.TrueHD.7.1.Atmos-SWTYBLZ
  68. Language                                 : English
  69. Default                                  : No
  70. Forced                                   : No

  71. Audio #3
  72. ID                                       : 4
  73. Format                                   : AC-3
  74. Format/Info                              : Audio Coding 3
  75. Commercial name                          : Dolby Digital
  76. Codec ID                                 : A_AC3
  77. Duration                                 : 1 h 38 min
  78. Bit rate mode                            : Constant
  79. Bit rate                                 : 640 kb/s
  80. Channel(s)                               : 6 channels
  81. Channel layout                           : L R C LFE Ls Rs
  82. Sampling rate                            : 48.0 kHz
  83. Frame rate                               : 31.250 FPS (1536 SPF)
  84. Bit depth                                : 16 bits
  85. Compression mode                         : Lossy
  86. Stream size                              : 450 MiB (2%)
  87. Title                                    : WALL-E.2008.2160p.BluRay.x264.8bit.SDR.DTS-HD.MA.TrueHD.7.1.Atmos-SWTYBLZ
  88. Language                                 : English
  89. Service kind                             : Complete Main
  90. Default                                  : No
  91. Forced                                   : No

  92. Text #1
  93. ID                                       : 5
  94. Format                                   : UTF-8
  95. Codec ID                                 : S_TEXT/UTF8
  96. Codec ID/Info                            : UTF-8 Plain Text
  97. Duration                                 : 1 h 35 min
  98. Bit rate                                 : 26 b/s
  99. Count of elements                        : 758
  100. Stream size                              : 18.7 KiB (0%)
  101. Title                                    : English-SRT
  102. Language                                 : English
  103. Default                                  : Yes
  104. Forced                                   : No

  105. Text #2
  106. ID                                       : 6
  107. Format                                   : PGS
  108. Muxing mode                              : zlib
  109. Codec ID                                 : S_HDMV/PGS
  110. Codec ID/Info                            : Picture based subtitle format used on BDs/HD-DVDs
  111. Duration                                 : 1 h 37 min
  112. Bit rate                                 : 29.0 kb/s
  113. Count of elements                        : 2726
  114. Stream size                              : 20.2 MiB (0%)
  115. Title                                    : English-PGS
  116. Language                                 : English
  117. Default                                  : No
  118. Forced                                   : No

  119. Text #3
  120. ID                                       : 7
  121. Format                                   : PGS
  122. Muxing mode                              : zlib
  123. Codec ID                                 : S_HDMV/PGS
  124. Codec ID/Info                            : Picture based subtitle format used on BDs/HD-DVDs
  125. Duration                                 : 1 h 37 min
  126. Bit rate                                 : 11.9 kb/s
  127. Count of elements                        : 994
  128. Stream size                              : 8.28 MiB (0%)
  129. Title                                    : French-PGS
  130. Language                                 : French
  131. Default                                  : No
  132. Forced                                   : No

  133. Text #4
  134. ID                                       : 8
  135. Format                                   : PGS
  136. Muxing mode                              : zlib
  137. Codec ID                                 : S_HDMV/PGS
  138. Codec ID/Info                            : Picture based subtitle format used on BDs/HD-DVDs
  139. Duration                                 : 1 h 37 min
  140. Bit rate                                 : 11.8 kb/s
  141. Count of elements                        : 1044
  142. Stream size                              : 8.24 MiB (0%)
  143. Title                                    : Spanish-PGS
  144. Language                                 : Spanish
  145. Default                                  : No
  146. Forced                                   : No

  147. Menu
  148. 00:00:00.000                             : en:Chapter 01
  149. 00:03:36.674                             : en:Chapter 02
  150. 00:05:50.350                             : en:Chapter 03
  151. 00:09:19.433                             : en:Chapter 04
  152. 00:12:03.848                             : en:Chapter 05
  153. 00:17:57.117                             : en:Chapter 06
  154. 00:19:34.047                             : en:Chapter 07
  155. 00:21:10.811                             : en:Chapter 08
  156. 00:23:47.342                             : en:Chapter 09
  157. 00:29:18.506                             : en:Chapter 10
  158. 00:31:25.758                             : en:Chapter 11
  159. 00:33:28.423                             : en:Chapter 12
  160. 00:35:20.785                             : en:Chapter 13
  161. 00:38:50.202                             : en:Chapter 14
  162. 00:42:53.946                             : en:Chapter 15
  163. 00:43:32.234                             : en:Chapter 16
  164. 00:51:09.608                             : en:Chapter 17
  165. 00:52:08.250                             : en:Chapter 18
  166. 00:54:47.826                             : en:Chapter 19
  167. 00:56:06.446                             : en:Chapter 20
  168. 00:57:58.683                             : en:Chapter 21
  169. 00:58:41.851                             : en:Chapter 22
  170. 01:02:15.565                             : en:Chapter 23
  171. 01:03:21.506                             : en:Chapter 24
  172. 01:05:50.363                             : en:Chapter 25
  173. 01:11:45.551                             : en:Chapter 26
  174. 01:15:54.883                             : en:Chapter 27
  175. 01:19:23.258                             : en:Chapter 28
  176. 01:20:15.060                             : en:Chapter 29
  177. 01:24:14.758                             : en:Chapter 30
  178. 01:25:46.432                             : en:Chapter 31
  179. 01:30:17.787                             : en:Chapter 32
复制代码

机器人总动员 WALL-E.2008.2160p.BluRay.x264.8bit.SDR.DTS-HD.MA.TrueHD.7.1.Atmos-SWTYBLZ 22.35GB-2.png 机器人总动员 WALL-E.2008.2160p.BluRay.x264.8bit.SDR.DTS-HD.MA.TrueHD.7.1.Atmos-SWTYBLZ 22.35GB-3.png 机器人总动员 WALL-E.2008.2160p.BluRay.x264.8bit.SDR.DTS-HD.MA.TrueHD.7.1.Atmos-SWTYBLZ 22.35GB-4.png 机器人总动员 WALL-E.2008.2160p.BluRay.x264.8bit.SDR.DTS-HD.MA.TrueHD.7.1.Atmos-SWTYBLZ 22.35GB-5.png 机器人总动员 WALL-E.2008.2160p.BluRay.x264.8bit.SDR.DTS-HD.MA.TrueHD.7.1.Atmos-SWTYBLZ 22.35GB-1.png






回复

使用道具 举报

已抛锚 成长值: 120

发表于 2020-2-27 16:28:19 | 显示全部楼层
感谢楼主给与这种怀旧电影的高清资源
回复 支持 反对

使用道具 举报

发表于 2020-2-27 16:54:42 | 显示全部楼层

感谢楼主的无私分享!要想蓝光电影网好 就靠你我他
回复 支持 反对

使用道具 举报

发表于 2020-2-27 16:56:20 | 显示全部楼层

这个帖子不回对不起自己!我想我是一天也不能离开蓝光电影网
回复 支持 反对

使用道具 举报

发表于 2020-2-27 17:58:34 | 显示全部楼层
感谢楼主的无私分享!要想蓝光电影网好 就靠你我他
回复 支持 反对

使用道具 举报

发表于 2020-2-27 21:09:51 | 显示全部楼层
楼主发贴辛苦了,谢谢楼主分享!我觉得蓝光电影网是注册对了!
回复 支持 反对

使用道具 举报

发表于 2020-2-27 21:15:38 | 显示全部楼层

我看不错噢 谢谢楼主!蓝光电影网越来越好!
回复 支持 反对

使用道具 举报

发表于 2020-2-28 07:00:16 | 显示全部楼层
楼主发贴辛苦了,谢谢楼主分享!我觉得蓝光电影网是注册对了!
回复 支持 反对

使用道具 举报

发表于 2020-2-28 09:11:32 | 显示全部楼层
2008年经典的片子
回复 支持 反对

使用道具 举报

发表于 2020-2-28 11:26:38 | 显示全部楼层
楼主发贴辛苦了,谢谢楼主分享!我觉得蓝光电影网是注册对了!
回复 支持 反对

使用道具 举报

懒得打字嘛,点击右侧快捷回复 【右侧内容,后台自定义】
您需要登录后才可以回帖 登录 | 立即加入

本版积分规则

现在加入蓝光电影网,注册一个账号
上个主题 下个主题 快速回复 收藏帖子 返回列表 客服中心 搜索

手机版|小黑屋| 蓝光电影网 |网站地图 

Copyright © 2015-2019 Comsenz Inc.  Template by 蓝光电影论坛 All Rights Reserved.

Powered by 蓝光电影网 X3.4

特别声明:本站所有资源均由网上收集而来,版权归原影音公司所有,如果侵犯了你的权益,请通知我们,我们会及时删除侵权内容.

快速回复 返回顶部 返回列表