找回密码

蓝光电影网

查看: 397|回复: 5

[10bit.SDR] 机器人总动员 WALL-E.2008.2160p.BluRay.x265.10bit.SDR.DTS-HD.MA.TrueHD.7.1.Atmos-SWTYBLZ 20.97GB

[复制链接]

 成长值: 25285

发表于 2020-2-27 15:57:04 | 显示全部楼层 |阅读模式
机器人总动员 WALL-E.2008.2160p.BluRay.x265.10bit.SDR.DTS-HD.MA.TrueHD.7.1.Atmos-SWTYBLZ 20.97GB-1.png

译  名 机器人总动员 / walle / 地球废品分装员 / 太空奇兵·威E(港) / 星际总动员 / 机器人瓦力 / 瓦力(台)
片  名 WALL·E
年  代 2008
产  地 美国
类  别 科幻 / 动画 / 冒险
语  言 英语
上映日期 2008-06-27(美国)
IMDb评分  8.4/10 from 945831 users
IMDb链接  https://www.imdb.com/title/tt0910970
豆瓣评分 9.3/10 from 912055 users
豆瓣链接 https://movie.douban.com/subject/2131459/
片  长 98分钟
导  演 安德鲁·斯坦顿 Andrew Stanton
编  剧 安德鲁·斯坦顿 Andrew Stanton / 吉姆·里尔顿 Jim Reardon / 彼特·道格特 Pete Docter
主  演 本·贝尔特 Ben Burtt
       艾丽莎·奈特 Elissa Knight
       杰夫·格尔林 Jeff Garlin
       佛莱德·威拉特 Fred Willard
       西格妮·韦弗 Sigourney Weaver
       MacInTalk
       约翰·拉岑贝格 John Ratzenberger
       凯茜·纳基麦 Kathy Najimy
       泰迪·牛顿 Teddy Newton
       鲍伯·伯根 Bob Bergen
       洛丽·理查德森 Lori Richardson
       吉姆·瓦德 Jim Ward
       彼特·道格特 Pete Docter
       安德鲁·斯坦顿 Andrew Stanton
       杰夫·皮金  Jeff Pidgeon
       约翰·齐甘 John Cygan
       米凯·麦高万 Mickie McGowan
       雪莉·琳恩 Sherry Lynn
       克莱特·惠特克 Colette Whitaker
       唐纳德·富利洛夫 Donald Fullilove
       罗里·艾伦 Lori Alan
       杰斯·哈梅尔 Jess Harnell
       拉瑞恩·纽曼 Laraine Newman
       扬·拉布森 Jan Rabson
       保罗·伊丁 Paul Eiding


标  签 动画 | 科幻 | 感人 | 美国 | 皮克斯 | 爱情 | 环保 | 迪斯尼

简  介  

  公元2805年,人类文明高度发展,却因污染和生活垃圾大量增加使得地球不再适于人类居住。地球人被迫乘坐飞船离开故乡,进行一次漫长无边的宇宙之旅。临行前他们委托Buynlarge的公司对地球垃圾进行清理,该公司开发了名为WALL·E(Waste Allocation Loa d Lifters – Earth 地球废品分装员)的机器人担当此重任。
  这些机器人按照程序日复一日、年复一年辛勤工作,但随着时间的流逝和恶劣环境的侵蚀,WALL·E们接连损坏、停止运动。最后只有一个仍在进行这项似乎永无止境的工作。经历了漫长的岁月,它开始拥有了自己的意识。它喜欢将收集来的宝贝小心翼翼藏起,喜欢收工后看看几百年前的歌舞片,此外还有一只蟑螂朋友作伴。直到有一天,一艘来自宇宙的飞船打破了它一成不变的生活……
  本片荣获2009年第81届奥斯卡最佳动画长片奖。

获奖情况  

  第81届奥斯卡金像奖(2009)
  最佳原创剧本(提名) 彼特·道格特 / 安德鲁·斯坦顿 / 吉姆·里尔顿
  最佳动画长片 安德鲁·斯坦顿
  最佳混音(提名) 本·贝尔特 / Tom Myers / 迈克尔·斯曼内科
  最佳音效剪辑(提名) 本·贝尔特 / 马修·伍德
  最佳原创配乐(提名) 托马斯·纽曼
  最佳原创歌曲(提名) 彼特·加布埃尔 / 托马斯·纽曼

  第66届金球奖(2009)
  电影类 最佳动画长片
  电影类 最佳原创歌曲(提名) 彼特·加布埃尔 / 托马斯·纽曼

  第36届动画安妮奖(2009)
  最佳动画长片(提名)
  最佳导演(提名) 安德鲁·斯坦顿
  最佳配音(提名) 本·贝尔特
  最佳分镜(提名) 罗纳尔多·德尔·卡门
  最佳艺术指导(提名) 拉夫·埃格尔斯顿
  最佳动画角色(提名) Victor Navone
  最佳动画效果(提名) Enrique Vila

  第9届美国电影学会奖(2008)
  年度佳片
  1. Video
  2. ID                                       : 1
  3. Format                                   : HEVC
  4. Format/Info                              : High Efficiency Video Coding
  5. Format profile                           : Main High@L4@High
  6. Codec ID                                 : V_MPEGH/ISO/HEVC
  7. Duration                                 : 1 h 38 min
  8. Bit rate                                 : 18.4 Mb/s
  9. Width                                    : 3 840 pixels
  10. Height                                   : 1 606 pixels
  11. Display aspect ratio                     : 2.40:1
  12. Frame rate mode                          : Constant
  13. Frame rate                               : 23.976 (24000/1001) FPS
  14. Color space                              : YUV
  15. Chroma subsampling                       : 4:2:0
  16. Bit depth                                : 10 bits
  17. Bits/(Pixel*Frame)                       : 0.124
  18. Stream size                              : 12.6 GiB (60%)
  19. Title                                    : WALL-E.2008.2160p.BluRay.x265.10bit.SDR.DTS-HD.MA.TrueHD.7.1.Atmos-SWTYBLZ
  20. Writing library                          : x265 3.0ed72af837053:[Windows][GCC 8.2.0][64 bit] 10bit
  21. Encoding settings                        : cpuid=1111039 / frame-threads=6 / numa-pools=40 / wpp / no-pmode / no-pme / no-psnr / no-ssim / log-level=2 / input-csp=1 / input-res=3840x1606 / interlace=0 / total-frames=141281 / level-idc=51 / high-tier=1 / uhd-bd=0 / ref=3 / no-allow-non-conformance / repeat-headers / annexb / aud / hrd / info / hash=0 / no-temporal-layers / no-open-gop / min-keyint=1 / keyint=24 / gop-lookahead=0 / bframes=6 / b-adapt=2 / b-pyramid / bframe-bias=0 / rc-lookahead=25 / lookahead-slices=4 / scenecut=40 / radl=0 / no-splice / no-intra-refresh / ctu=64 / min-cu-size=8 / no-rect / no-amp / max-tu-size=32 / tu-inter-depth=1 / tu-intra-depth=1 / limit-tu=0 / rdoq-level=0 / dynamic-rd=0.00 / no-ssim-rd / signhide / no-tskip / nr-intra=0 / nr-inter=0 / no-constrained-intra / strong-intra-smoothing / max-merge=2 / limit-refs=3 / no-limit-modes / me=1 / subme=2 / merange=57 / temporal-mvp / weightp / no-weightb / no-analyze-src-pics / deblock=1:1 / no-sao / no-sao-non-deblock / rd=3 / no-early-skip / rskip / no-fast-intra / no-tskip-fast / no-cu-lossless / no-b-intra / no-splitrd-skip / rdpenalty=0 / psy-rd=0.40 / psy-rdoq=0.00 / no-rd-refine / no-lossless / cbqpoffs=0 / crqpoffs=0 / rc=crf / crf=12.0 / qcomp=0.60 / qpstep=4 / stats-write=0 / stats-read=0 / vbv-maxrate=160000 / vbv-bufsize=160000 / vbv-init=0.9 / crf-max=0.0 / crf-min=0.0 / ipratio=1.40 / pbratio=1.30 / aq-mode=1 / aq-strength=0.40 / cutree / zone-count=0 / no-strict-cbr / qg-size=32 / no-rc-grain / qpmax=69 / qpmin=0 / no-const-vbv / sar=1 / overscan=0 / videoformat=5 / range=0 / colorprim=2 / transfer=2 / colormatrix=2 / chromaloc=0 / display-window=0 / max-cll=0,0 / min-luma=0 / max-luma=1023 / log2-max-poc-lsb=8 / vui-timing-info / vui-hrd-info / slices=1 / opt-qp-pps / opt-ref-list-length-pps / no-multi-pass-opt-rps / scenecut-bias=0.05 / no-opt-cu-delta-qp / no-aq-motion / no-hdr / no-hdr-opt / no-dhdr10-opt / no-idr-recovery-sei / analysis-reuse-level=5 / scale-factor=0 / refine-intra=0 / refine-inter=0 / refine-mv=0 / refine-ctu-distortion=0 / no-limit-sao / ctu-info=0 / no-lowpass-dct / refine-analysis-type=0 / copy-pic=1 / max-ausize-factor=1.0 / no-dynamic-refine / no-single-sei / no-hevc-aq / qp-adaptation-range=1.00
  22. Language                                 : English
  23. Default                                  : Yes
  24. Forced                                   : No

  25. Audio #1
  26. ID                                       : 2
  27. Format                                   : MLP FBA 16-ch
  28. Format/Info                              : Meridian Lossless Packing FBA with 16-channel presentation
  29. Commercial name                          : Dolby TrueHD with Dolby Atmos
  30. Codec ID                                 : A_TRUEHD
  31. Duration                                 : 1 h 38 min
  32. Bit rate mode                            : Variable
  33. Bit rate                                 : 7 244 kb/s
  34. Maximum bit rate                         : 8 217 kb/s
  35. Channel(s)                               : 8 channels
  36. Channel layout                           : L R C LFE Ls Rs Lb Rb
  37. Sampling rate                            : 48.0 kHz
  38. Frame rate                               : 1 200.000 FPS (40 SPF)
  39. Compression mode                         : Lossless
  40. Stream size                              : 4.97 GiB (24%)
  41. Title                                    : WALL-E.2008.2160p.BluRay.x265.10bit.SDR.DTS-HD.MA.TrueHD.7.1.Atmos-SWTYBLZ
  42. Language                                 : English
  43. Default                                  : Yes
  44. Forced                                   : No
  45. Number of dynamic objects                : 13
  46. Bed channel count                        : 1 channel
  47. Bed channel configuration                : LFE

  48. Audio #2
  49. ID                                       : 3
  50. Format                                   : DTS XLL
  51. Format/Info                              : Digital Theater Systems
  52. Commercial name                          : DTS-HD Master Audio
  53. Codec ID                                 : A_DTS
  54. Duration                                 : 1 h 38 min
  55. Bit rate mode                            : Variable
  56. Bit rate                                 : 4 114 kb/s
  57. Channel(s)                               : 6 channels
  58. Channel layout                           : C L R Ls Rs LFE
  59. Sampling rate                            : 48.0 kHz
  60. Frame rate                               : 93.750 FPS (512 SPF)
  61. Bit depth                                : 24 bits
  62. Compression mode                         : Lossless
  63. Stream size                              : 2.82 GiB (14%)
  64. Title                                    : WALL-E.2008.2160p.BluRay.x265.10bit.SDR.DTS-HD.MA.TrueHD.7.1.Atmos-SWTYBLZ
  65. Language                                 : English
  66. Default                                  : No
  67. Forced                                   : No

  68. Audio #3
  69. ID                                       : 4
  70. Format                                   : AC-3
  71. Format/Info                              : Audio Coding 3
  72. Commercial name                          : Dolby Digital
  73. Codec ID                                 : A_AC3
  74. Duration                                 : 1 h 38 min
  75. Bit rate mode                            : Constant
  76. Bit rate                                 : 640 kb/s
  77. Channel(s)                               : 6 channels
  78. Channel layout                           : L R C LFE Ls Rs
  79. Sampling rate                            : 48.0 kHz
  80. Frame rate                               : 31.250 FPS (1536 SPF)
  81. Bit depth                                : 16 bits
  82. Compression mode                         : Lossy
  83. Stream size                              : 450 MiB (2%)
  84. Title                                    : WALL-E.2008.2160p.BluRay.x265.10bit.SDR.DTS-HD.MA.TrueHD.7.1.Atmos-SWTYBLZ
  85. Language                                 : English
  86. Service kind                             : Complete Main
  87. Default                                  : No
  88. Forced                                   : No

  89. Text #1
  90. ID                                       : 5
  91. Format                                   : UTF-8
  92. Codec ID                                 : S_TEXT/UTF8
  93. Codec ID/Info                            : UTF-8 Plain Text
  94. Duration                                 : 1 h 35 min
  95. Bit rate                                 : 26 b/s
  96. Count of elements                        : 758
  97. Stream size                              : 18.7 KiB (0%)
  98. Title                                    : English-SRT
  99. Language                                 : English
  100. Default                                  : Yes
  101. Forced                                   : No

  102. Text #2
  103. ID                                       : 6
  104. Format                                   : PGS
  105. Muxing mode                              : zlib
  106. Codec ID                                 : S_HDMV/PGS
  107. Codec ID/Info                            : Picture based subtitle format used on BDs/HD-DVDs
  108. Duration                                 : 1 h 37 min
  109. Bit rate                                 : 29.0 kb/s
  110. Count of elements                        : 2726
  111. Stream size                              : 20.2 MiB (0%)
  112. Title                                    : English-PGS
  113. Language                                 : English
  114. Default                                  : No
  115. Forced                                   : No

  116. Text #3
  117. ID                                       : 7
  118. Format                                   : PGS
  119. Muxing mode                              : zlib
  120. Codec ID                                 : S_HDMV/PGS
  121. Codec ID/Info                            : Picture based subtitle format used on BDs/HD-DVDs
  122. Duration                                 : 1 h 37 min
  123. Bit rate                                 : 11.9 kb/s
  124. Count of elements                        : 994
  125. Stream size                              : 8.28 MiB (0%)
  126. Title                                    : French-PGS
  127. Language                                 : French
  128. Default                                  : No
  129. Forced                                   : No

  130. Text #4
  131. ID                                       : 8
  132. Format                                   : PGS
  133. Muxing mode                              : zlib
  134. Codec ID                                 : S_HDMV/PGS
  135. Codec ID/Info                            : Picture based subtitle format used on BDs/HD-DVDs
  136. Duration                                 : 1 h 37 min
  137. Bit rate                                 : 11.8 kb/s
  138. Count of elements                        : 1044
  139. Stream size                              : 8.24 MiB (0%)
  140. Title                                    : Spanish-PGS
  141. Language                                 : Spanish
  142. Default                                  : No
  143. Forced                                   : No

  144. Menu
  145. 00:00:00.000                             : en:Chapter 01
  146. 00:03:36.674                             : en:Chapter 02
  147. 00:05:50.350                             : en:Chapter 03
  148. 00:09:19.433                             : en:Chapter 04
  149. 00:12:03.848                             : en:Chapter 05
  150. 00:17:57.117                             : en:Chapter 06
  151. 00:19:34.047                             : en:Chapter 07
  152. 00:21:10.811                             : en:Chapter 08
  153. 00:23:47.342                             : en:Chapter 09
  154. 00:29:18.506                             : en:Chapter 10
  155. 00:31:25.758                             : en:Chapter 11
  156. 00:33:28.423                             : en:Chapter 12
  157. 00:35:20.785                             : en:Chapter 13
  158. 00:38:50.202                             : en:Chapter 14
  159. 00:42:53.946                             : en:Chapter 15
  160. 00:43:32.234                             : en:Chapter 16
  161. 00:51:09.608                             : en:Chapter 17
  162. 00:52:08.250                             : en:Chapter 18
  163. 00:54:47.826                             : en:Chapter 19
  164. 00:56:06.446                             : en:Chapter 20
  165. 00:57:58.683                             : en:Chapter 21
  166. 00:58:41.851                             : en:Chapter 22
  167. 01:02:15.565                             : en:Chapter 23
  168. 01:03:21.506                             : en:Chapter 24
  169. 01:05:50.363                             : en:Chapter 25
  170. 01:11:45.551                             : en:Chapter 26
  171. 01:15:54.883                             : en:Chapter 27
  172. 01:19:23.258                             : en:Chapter 28
  173. 01:20:15.060                             : en:Chapter 29
  174. 01:24:14.758                             : en:Chapter 30
  175. 01:25:46.432                             : en:Chapter 31
  176. 01:30:17.787                             : en:Chapter 32
复制代码

机器人总动员 WALL-E.2008.2160p.BluRay.x265.10bit.SDR.DTS-HD.MA.TrueHD.7.1.Atmos-SWTYBLZ 20.97GB-2.png 机器人总动员 WALL-E.2008.2160p.BluRay.x265.10bit.SDR.DTS-HD.MA.TrueHD.7.1.Atmos-SWTYBLZ 20.97GB-3.png 机器人总动员 WALL-E.2008.2160p.BluRay.x265.10bit.SDR.DTS-HD.MA.TrueHD.7.1.Atmos-SWTYBLZ 20.97GB-4.png 机器人总动员 WALL-E.2008.2160p.BluRay.x265.10bit.SDR.DTS-HD.MA.TrueHD.7.1.Atmos-SWTYBLZ 20.97GB-5.png 机器人总动员 WALL-E.2008.2160p.BluRay.x265.10bit.SDR.DTS-HD.MA.TrueHD.7.1.Atmos-SWTYBLZ 20.97GB-6.png






回复

使用道具 举报

发表于 2020-2-27 18:58:05 | 显示全部楼层
这个帖子不回对不起自己!我想我是一天也不能离开蓝光电影网。
回复 支持 反对

使用道具 举报

发表于 2020-2-28 00:25:30 | 显示全部楼层
感谢分享,楼主辛苦了!
回复 支持 反对

使用道具 举报

发表于 2020-2-28 22:04:46 | 显示全部楼层
感谢分享
回复

使用道具 举报

发表于 2020-2-29 22:21:14 | 显示全部楼层
下下来看看
回复 支持 反对

使用道具 举报

发表于 2020-2-29 23:13:43 | 显示全部楼层
楼主发贴辛苦了,谢谢楼主分享!我觉得蓝光电影网是注册对了!
回复 支持 反对

使用道具 举报

懒得打字嘛,点击右侧快捷回复 【右侧内容,后台自定义】
您需要登录后才可以回帖 登录 | 立即加入

本版积分规则

现在加入蓝光电影网,注册一个账号
上个主题 下个主题 快速回复 收藏帖子 返回列表 客服中心 搜索

手机版|小黑屋| 蓝光电影网 |网站地图 

Copyright © 2015-2019 Comsenz Inc.  Template by 蓝光电影论坛 All Rights Reserved.

Powered by 蓝光电影网 X3.4

特别声明:本站所有资源均由网上收集而来,版权归原影音公司所有,如果侵犯了你的权益,请通知我们,我们会及时删除侵权内容.

快速回复 返回顶部 返回列表