找回密码

蓝光电影网

查看: 561|回复: 6

[8bit.SDR] 皇后与瘦子/奎恩与斯里姆 Queen.and.Slim.2019.2160p.BluRay.x264.8bit.SDR.DTS-HD.MA.TrueHD.7.1.Atmos-SWTYBLZ 42.65GB

[复制链接]

 成长值: 25360

发表于 2020-2-27 15:35:16 | 显示全部楼层 |阅读模式
皇后与瘦子/奎恩与斯里姆 Queen.and.Slim.2019.2160p.BluRay.x264.8bit.SDR.DTS-HD.MA.TrueHD.7.1.Atmos-SWTYBLZ 42.65GB-1.png

译  名 皇后与瘦子 / 奎恩与斯里姆
片  名 Queen & Slim
年  代 2019
产  地 加拿大 / 美国
类  别 剧情
语  言 英语
上映日期 2019-11-27(美国)
IMDb评分  7.0/10 from 8192 users
IMDb链接  https://www.imdb.com/title/tt8722346
豆瓣评分 6.9/10 from 996 users
豆瓣链接 https://movie.douban.com/subject/30279172/
片  长 132分钟
导  演 梅丽娜·马苏卡斯 Melina Matsoukas
编  剧 丽娜·维特 Lena Waithe / 詹姆斯·弗雷 James Frey
主  演 朱迪·特纳-史密斯 Jodie Turner-Smith
       丹尼尔·卡卢亚 Daniel Kaluuya
       茵蒂娅·摩尔 Indya Moore
       科洛·塞维尼 Chlo? Sevigny
       博基姆·伍德拜因 Bokeem Woodbine
       弗利 Flea
       斯特吉尔·辛普森 Sturgill Simpson
       本尼托·马丁内斯 Benito Martinez
       贾西·迪阿洛·温斯顿 Jahi Di'Allo Winston
       格拉伦·布莱恩特·班克斯 Gralen Bryant Banks
       梅兰妮·哈夫肯尼 Melanie Halfkenny
       凯伦·凯亚·利韦尔斯 Karen Kaia Livers
       罗伯特·沃克·布兰乔德 Robert Walker Branchaud
       安迪·迪伦 Andy Dylan
       索莱达·奥布莱恩 Soledad O'Brien
       盖尔·金 Gayle King
       罗曼·阿姆斯特朗 Roman Armstrong
       贾斯汀·贾木什 Justin Carmouche


标  签 美国 | 犯罪 | 黑人 | 公路 | 2019 | 剧情 | 社会 | 惊悚

简  介  

  丹尼尔·卡卢亚(《逃出绝命镇》《黑豹》)将主演环球新片《皇后与瘦子》(Queen & Slim),已定档2019年11月27日北美上映,明年1月开拍。该片是一部复杂的剧情片,讲述一对黑人男女“皇后”和“瘦子”第一次约会,开车被警察叫停。之后的发展跟《逃出绝命镇》就不一样了:两人因自我防卫杀死了那名警察,随后没有自首,而是一起亡命天涯。希望藉由这个爱情故事探索美国的社会和政治。女主角皇后正在选演员,计划用新面孔。
  《无为大师》《头号玩家》的丽娜·维斯编剧,她的《无为大师》导演搭档Melina Matsoukas执导,这也是后者首次导演电影。剧本是基于《百万碎片》作者、争议作家詹姆斯·弗雷写的一版剧本进行改编,新电影公司Makeready注资。

获奖情况  

  第72届美国导演工会奖(2020)
  最佳新人导演奖(提名) 梅丽娜·马苏卡斯

  第22届美国服装设计工会奖(2020)
  现代电影最佳服装设计(提名) Shiona Turini

  第91届美国国家评论协会奖(2019)
  最佳导演处女作 梅丽娜·马苏卡斯

  第23届美国在线影评人协会奖(2020)
  最佳新导演(提名) 梅丽娜·马苏卡斯
  1. Video
  2. ID                                       : 1
  3. Format                                   : AVC
  4. Format/Info                              : Advanced Video Codec
  5. Format profile                           : High@L4
  6. Format settings                          : CABAC / 5 Ref Frames
  7. Format settings, CABAC                   : Yes
  8. Format settings, Reference frames        : 5 frames
  9. Codec ID                                 : V_MPEG4/ISO/AVC
  10. Duration                                 : 2 h 12 min
  11. Bit rate                                 : 38.2 Mb/s
  12. Width                                    : 3 840 pixels
  13. Height                                   : 1 608 pixels
  14. Display aspect ratio                     : 2.40:1
  15. Frame rate mode                          : Constant
  16. Frame rate                               : 23.976 (24000/1001) FPS
  17. Color space                              : YUV
  18. Chroma subsampling                       : 4:2:0
  19. Bit depth                                : 8 bits
  20. Scan type                                : Progressive
  21. Bits/(Pixel*Frame)                       : 0.258
  22. Stream size                              : 35.3 GiB (83%)
  23. Title                                    : Queen.and.Slim.2019.2160p.BluRay.x264.8bit.SDR.DTS-HD.MA.TrueHD.7.1.Atmos-SWTYBLZ
  24. Writing library                          : x264 core 157 r2935 545de2f
  25. Encoding settings                        : cabac=1 / ref=5 / deblock=1:-1:-1 / analyse=0x3:0x113 / me=umh / subme=10 / psy=1 / psy_rd=1.00:0.15 / mixed_ref=1 / me_range=48 / chroma_me=1 / trellis=2 / 8x8dct=1 / cqm=0 / deadzone=21,11 / fast_pskip=1 / chroma_qp_offset=-3 / threads=48 / lookahead_threads=4 / sliced_threads=0 / nr=0 / decimate=0 / interlaced=0 / bluray_compat=0 / constrained_intra=0 / bframes=3 / b_pyramid=2 / b_adapt=2 / b_bias=0 / direct=3 / weightb=1 / open_gop=0 / weightp=2 / keyint=250 / keyint_min=23 / scenecut=40 / intra_refresh=0 / rc_lookahead=50 / rc=crf / mbtree=1 / crf=18.0 / qcomp=0.60 / qpmin=0 / qpmax=69 / qpstep=4 / ip_ratio=1.40 / aq=1:1.00
  26. Language                                 : English
  27. Default                                  : Yes
  28. Forced                                   : No

  29. Audio #1
  30. ID                                       : 2
  31. Format                                   : MLP FBA 16-ch
  32. Format/Info                              : Meridian Lossless Packing FBA with 16-channel presentation
  33. Commercial name                          : Dolby TrueHD with Dolby Atmos
  34. Codec ID                                 : A_TRUEHD
  35. Duration                                 : 2 h 12 min
  36. Bit rate mode                            : Variable
  37. Bit rate                                 : 3 466 kb/s
  38. Maximum bit rate                         : 6 375 kb/s
  39. Channel(s)                               : 8 channels
  40. Channel layout                           : L R C LFE Ls Rs Lb Rb
  41. Sampling rate                            : 48.0 kHz
  42. Frame rate                               : 1 200.000 FPS (40 SPF)
  43. Compression mode                         : Lossless
  44. Stream size                              : 3.21 GiB (8%)
  45. Title                                    : Queen.and.Slim.2019.2160p.BluRay.x264.8bit.SDR.DTS-HD.MA.TrueHD.7.1.Atmos-SWTYBLZ
  46. Language                                 : English
  47. Default                                  : Yes
  48. Forced                                   : No
  49. Number of dynamic objects                : 11
  50. Bed channel count                        : 1 channel
  51. Bed channel configuration                : LFE

  52. Audio #2
  53. ID                                       : 3
  54. Format                                   : DTS XLL
  55. Format/Info                              : Digital Theater Systems
  56. Commercial name                          : DTS-HD Master Audio
  57. Codec ID                                 : A_DTS
  58. Duration                                 : 2 h 12 min
  59. Bit rate mode                            : Variable
  60. Bit rate                                 : 3 757 kb/s
  61. Channel(s)                               : 8 channels
  62. Channel layout                           : C L R LFE Lb Rb Lss Rss
  63. Sampling rate                            : 48.0 kHz
  64. Frame rate                               : 93.750 FPS (512 SPF)
  65. Bit depth                                : 24 bits
  66. Compression mode                         : Lossless
  67. Stream size                              : 3.47 GiB (8%)
  68. Title                                    : Queen.and.Slim.2019.2160p.BluRay.x264.8bit.SDR.DTS-HD.MA.TrueHD.7.1.Atmos-SWTYBLZ
  69. Language                                 : English
  70. Default                                  : No
  71. Forced                                   : No

  72. Audio #3
  73. ID                                       : 4
  74. Format                                   : AC-3
  75. Format/Info                              : Audio Coding 3
  76. Commercial name                          : Dolby Digital
  77. Codec ID                                 : A_AC3
  78. Duration                                 : 2 h 12 min
  79. Bit rate mode                            : Constant
  80. Bit rate                                 : 448 kb/s
  81. Channel(s)                               : 6 channels
  82. Channel layout                           : L R C LFE Ls Rs
  83. Sampling rate                            : 48.0 kHz
  84. Frame rate                               : 31.250 FPS (1536 SPF)
  85. Bit depth                                : 16 bits
  86. Compression mode                         : Lossy
  87. Stream size                              : 424 MiB (1%)
  88. Title                                    : Queen.and.Slim.2019.2160p.BluRay.x264.8bit.SDR.DTS-HD.MA.TrueHD.7.1.Atmos-SWTYBLZ
  89. Language                                 : English
  90. Service kind                             : Complete Main
  91. Default                                  : No
  92. Forced                                   : No

  93. Text #1
  94. ID                                       : 5
  95. Format                                   : UTF-8
  96. Codec ID                                 : S_TEXT/UTF8
  97. Codec ID/Info                            : UTF-8 Plain Text
  98. Duration                                 : 2 h 10 min
  99. Bit rate                                 : 53 b/s
  100. Count of elements                        : 1594
  101. Stream size                              : 50.9 KiB (0%)
  102. Title                                    : English-SRT
  103. Language                                 : English
  104. Default                                  : Yes
  105. Forced                                   : No

  106. Text #2
  107. ID                                       : 6
  108. Format                                   : PGS
  109. Muxing mode                              : zlib
  110. Codec ID                                 : S_HDMV/PGS
  111. Codec ID/Info                            : Picture based subtitle format used on BDs/HD-DVDs
  112. Duration                                 : 2 h 10 min
  113. Bit rate                                 : 40.0 kb/s
  114. Count of elements                        : 3660
  115. Stream size                              : 37.4 MiB (0%)
  116. Title                                    : English-PGS
  117. Language                                 : English
  118. Default                                  : No
  119. Forced                                   : No

  120. Text #3
  121. ID                                       : 7
  122. Format                                   : PGS
  123. Muxing mode                              : zlib
  124. Codec ID                                 : S_HDMV/PGS
  125. Codec ID/Info                            : Picture based subtitle format used on BDs/HD-DVDs
  126. Duration                                 : 2 h 11 min
  127. Bit rate                                 : 27.3 kb/s
  128. Count of elements                        : 2790
  129. Stream size                              : 25.6 MiB (0%)
  130. Title                                    : Spanish-PGS
  131. Language                                 : Spanish
  132. Default                                  : No
  133. Forced                                   : No

  134. Menu
  135. 00:00:00.000                             : en:Chapter 01
  136. 00:05:46.763                             : en:Chapter 02
  137. 00:14:20.109                             : en:Chapter 03
  138. 00:18:58.637                             : en:Chapter 04
  139. 00:24:56.662                             : en:Chapter 05
  140. 00:31:21.880                             : en:Chapter 06
  141. 00:36:06.039                             : en:Chapter 07
  142. 00:41:30.822                             : en:Chapter 08
  143. 00:50:09.924                             : en:Chapter 09
  144. 00:58:42.102                             : en:Chapter 10
  145. 01:05:56.703                             : en:Chapter 11
  146. 01:11:14.520                             : en:Chapter 12
  147. 01:16:44.725                             : en:Chapter 13
  148. 01:23:59.826                             : en:Chapter 14
  149. 01:28:45.612                             : en:Chapter 15
  150. 01:34:28.830                             : en:Chapter 16
  151. 01:42:10.291                             : en:Chapter 17
  152. 01:50:00.469                             : en:Chapter 18
  153. 01:56:02.247                             : en:Chapter 19
  154. 02:04:41.140                             : en:Chapter 20
复制代码

皇后与瘦子/奎恩与斯里姆 Queen.and.Slim.2019.2160p.BluRay.x264.8bit.SDR.DTS-HD.MA.TrueHD.7.1.Atmos-SWTYBLZ 42.65GB-2.png 皇后与瘦子/奎恩与斯里姆 Queen.and.Slim.2019.2160p.BluRay.x264.8bit.SDR.DTS-HD.MA.TrueHD.7.1.Atmos-SWTYBLZ 42.65GB-1.png 皇后与瘦子/奎恩与斯里姆 Queen.and.Slim.2019.2160p.BluRay.x264.8bit.SDR.DTS-HD.MA.TrueHD.7.1.Atmos-SWTYBLZ 42.65GB-4.png 皇后与瘦子/奎恩与斯里姆 Queen.and.Slim.2019.2160p.BluRay.x264.8bit.SDR.DTS-HD.MA.TrueHD.7.1.Atmos-SWTYBLZ 42.65GB-5.png 皇后与瘦子/奎恩与斯里姆 Queen.and.Slim.2019.2160p.BluRay.x264.8bit.SDR.DTS-HD.MA.TrueHD.7.1.Atmos-SWTYBLZ 42.65GB-6.png 皇后与瘦子/奎恩与斯里姆 Queen.and.Slim.2019.2160p.BluRay.x264.8bit.SDR.DTS-HD.MA.TrueHD.7.1.Atmos-SWTYBLZ 42.65GB-7.png 皇后与瘦子/奎恩与斯里姆 Queen.and.Slim.2019.2160p.BluRay.x264.8bit.SDR.DTS-HD.MA.TrueHD.7.1.Atmos-SWTYBLZ 42.65GB-8.png 皇后与瘦子/奎恩与斯里姆 Queen.and.Slim.2019.2160p.BluRay.x264.8bit.SDR.DTS-HD.MA.TrueHD.7.1.Atmos-SWTYBLZ 42.65GB-9.png







回复

使用道具 举报

发表于 2020-2-27 15:57:25 | 显示全部楼层
电影名字有些湖,打错字了,应该是朝。朝向的朝
回复 支持 反对

使用道具 举报

发表于 2020-2-27 22:40:02 | 显示全部楼层

这东西我收了!谢谢楼主!蓝光电影网真好!
回复 支持 反对

使用道具 举报

发表于 2020-2-28 23:49:23 | 显示全部楼层

楼主太厉害了!楼主,电影应该很好看我觉得蓝光电影网真是个好地方!
回复 支持 反对

使用道具 举报

发表于 2020-2-29 08:46:54 | 显示全部楼层

既然你诚信诚意的推荐了,那我就勉为其难的看看吧!蓝光电影网不走平凡路。
回复 支持 反对

使用道具 举报

发表于 2020-2-29 20:41:57 | 显示全部楼层
谢谢分享 谢谢分享 dd
回复 支持 反对

使用道具 举报

发表于 2020-3-1 12:33:46 | 显示全部楼层

楼主太厉害了!楼主,电影应该很好看我觉得蓝光电影网真是个好地方!
回复 支持 反对

使用道具 举报

懒得打字嘛,点击右侧快捷回复 【右侧内容,后台自定义】
您需要登录后才可以回帖 登录 | 立即加入

本版积分规则

现在加入蓝光电影网,注册一个账号
上个主题 下个主题 快速回复 收藏帖子 返回列表 客服中心 搜索

手机版|小黑屋| 蓝光电影网 |网站地图 

Copyright © 2015-2019 Comsenz Inc.  Template by 蓝光电影论坛 All Rights Reserved.

Powered by 蓝光电影网 X3.4

特别声明:本站所有资源均由网上收集而来,版权归原影音公司所有,如果侵犯了你的权益,请通知我们,我们会及时删除侵权内容.

快速回复 返回顶部 返回列表