找回密码

蓝光电影网

查看: 256|回复: 1

[10bit.SDR] 皇后与瘦子/奎恩与斯里姆 Queen.and.Slim.2019.2160p.BluRay.x265.10bit.SDR.DTS-HD.MA.TrueHD.7.1.Atmos-SWTYBLZ 37.94GB

[复制链接]

 成长值: 25360

发表于 2020-2-27 15:33:53 | 显示全部楼层 |阅读模式
皇后与瘦子/奎恩与斯里姆 Queen.and.Slim.2019.2160p.BluRay.x265.10bit.SDR.DTS-HD.MA.TrueHD.7.1.Atmos-SWTYBLZ 37.94GB-1.png

译  名 皇后与瘦子 / 奎恩与斯里姆
片  名 Queen & Slim
年  代 2019
产  地 加拿大 / 美国
类  别 剧情
语  言 英语
上映日期 2019-11-27(美国)
IMDb评分  7.0/10 from 8192 users
IMDb链接  https://www.imdb.com/title/tt8722346
豆瓣评分 6.9/10 from 996 users
豆瓣链接 https://movie.douban.com/subject/30279172/
片  长 132分钟
导  演 梅丽娜·马苏卡斯 Melina Matsoukas
编  剧 丽娜·维特 Lena Waithe / 詹姆斯·弗雷 James Frey
主  演 朱迪·特纳-史密斯 Jodie Turner-Smith
       丹尼尔·卡卢亚 Daniel Kaluuya
       茵蒂娅·摩尔 Indya Moore
       科洛·塞维尼 Chlo? Sevigny
       博基姆·伍德拜因 Bokeem Woodbine
       弗利 Flea
       斯特吉尔·辛普森 Sturgill Simpson
       本尼托·马丁内斯 Benito Martinez
       贾西·迪阿洛·温斯顿 Jahi Di'Allo Winston
       格拉伦·布莱恩特·班克斯 Gralen Bryant Banks
       梅兰妮·哈夫肯尼 Melanie Halfkenny
       凯伦·凯亚·利韦尔斯 Karen Kaia Livers
       罗伯特·沃克·布兰乔德 Robert Walker Branchaud
       安迪·迪伦 Andy Dylan
       索莱达·奥布莱恩 Soledad O'Brien
       盖尔·金 Gayle King
       罗曼·阿姆斯特朗 Roman Armstrong
       贾斯汀·贾木什 Justin Carmouche


标  签 美国 | 犯罪 | 黑人 | 公路 | 2019 | 剧情 | 社会 | 惊悚

简  介  

  丹尼尔·卡卢亚(《逃出绝命镇》《黑豹》)将主演环球新片《皇后与瘦子》(Queen & Slim),已定档2019年11月27日北美上映,明年1月开拍。该片是一部复杂的剧情片,讲述一对黑人男女“皇后”和“瘦子”第一次约会,开车被警察叫停。之后的发展跟《逃出绝命镇》就不一样了:两人因自我防卫杀死了那名警察,随后没有自首,而是一起亡命天涯。希望藉由这个爱情故事探索美国的社会和政治。女主角皇后正在选演员,计划用新面孔。
  《无为大师》《头号玩家》的丽娜·维斯编剧,她的《无为大师》导演搭档Melina Matsoukas执导,这也是后者首次导演电影。剧本是基于《百万碎片》作者、争议作家詹姆斯·弗雷写的一版剧本进行改编,新电影公司Makeready注资。

获奖情况  

  第72届美国导演工会奖(2020)
  最佳新人导演奖(提名) 梅丽娜·马苏卡斯

  第22届美国服装设计工会奖(2020)
  现代电影最佳服装设计(提名) Shiona Turini

  第91届美国国家评论协会奖(2019)
  最佳导演处女作 梅丽娜·马苏卡斯

  第23届美国在线影评人协会奖(2020)
  最佳新导演(提名) 梅丽娜·马苏卡斯
  1. Video
  2. ID                                       : 1
  3. Format                                   : HEVC
  4. Format/Info                              : High Efficiency Video Coding
  5. Format profile                           : Main High@L4@High
  6. Codec ID                                 : V_MPEGH/ISO/HEVC
  7. Duration                                 : 2 h 12 min
  8. Bit rate                                 : 33.1 Mb/s
  9. Width                                    : 3 840 pixels
  10. Height                                   : 1 608 pixels
  11. Display aspect ratio                     : 2.40:1
  12. Frame rate mode                          : Constant
  13. Frame rate                               : 23.976 (24000/1001) FPS
  14. Color space                              : YUV
  15. Chroma subsampling                       : 4:2:0
  16. Bit depth                                : 10 bits
  17. Bits/(Pixel*Frame)                       : 0.224
  18. Stream size                              : 30.6 GiB (81%)
  19. Title                                    : Queen.and.Slim.2019.2160p.BluRay.x265.10bit.SDR.DTS-HD.MA.TrueHD.7.1.Atmos-SWTYBLZ
  20. Writing library                          : x265 3.0ed72af837053:[Windows][GCC 8.2.0][64 bit] 10bit
  21. Encoding settings                        : cpuid=1111039 / frame-threads=6 / numa-pools=40 / wpp / no-pmode / no-pme / no-psnr / no-ssim / log-level=2 / input-csp=1 / input-res=3840x1608 / interlace=0 / total-frames=190445 / level-idc=51 / high-tier=1 / uhd-bd=0 / ref=3 / no-allow-non-conformance / repeat-headers / annexb / aud / hrd / info / hash=0 / no-temporal-layers / no-open-gop / min-keyint=1 / keyint=24 / gop-lookahead=0 / bframes=4 / b-adapt=2 / b-pyramid / bframe-bias=0 / rc-lookahead=25 / lookahead-slices=4 / scenecut=40 / radl=0 / no-splice / no-intra-refresh / ctu=64 / min-cu-size=8 / no-rect / no-amp / max-tu-size=32 / tu-inter-depth=1 / tu-intra-depth=1 / limit-tu=0 / rdoq-level=0 / dynamic-rd=0.00 / no-ssim-rd / signhide / no-tskip / nr-intra=0 / nr-inter=0 / no-constrained-intra / strong-intra-smoothing / max-merge=2 / limit-refs=3 / no-limit-modes / me=1 / subme=2 / merange=57 / temporal-mvp / weightp / no-weightb / no-analyze-src-pics / deblock=0:0 / no-sao / no-sao-non-deblock / rd=3 / no-early-skip / rskip / no-fast-intra / no-tskip-fast / no-cu-lossless / no-b-intra / no-splitrd-skip / rdpenalty=0 / psy-rd=2.00 / psy-rdoq=0.00 / no-rd-refine / no-lossless / cbqpoffs=0 / crqpoffs=0 / rc=crf / crf=16.0 / qcomp=0.60 / qpstep=4 / stats-write=0 / stats-read=0 / vbv-maxrate=160000 / vbv-bufsize=160000 / vbv-init=0.9 / crf-max=0.0 / crf-min=0.0 / ipratio=1.40 / pbratio=1.30 / aq-mode=1 / aq-strength=1.00 / cutree / zone-count=0 / no-strict-cbr / qg-size=32 / no-rc-grain / qpmax=69 / qpmin=0 / no-const-vbv / sar=1 / overscan=0 / videoformat=5 / range=0 / colorprim=2 / transfer=2 / colormatrix=2 / chromaloc=0 / display-window=0 / max-cll=0,0 / min-luma=0 / max-luma=1023 / log2-max-poc-lsb=8 / vui-timing-info / vui-hrd-info / slices=1 / opt-qp-pps / opt-ref-list-length-pps / no-multi-pass-opt-rps / scenecut-bias=0.05 / no-opt-cu-delta-qp / no-aq-motion / no-hdr / no-hdr-opt / no-dhdr10-opt / no-idr-recovery-sei / analysis-reuse-level=5 / scale-factor=0 / refine-intra=0 / refine-inter=0 / refine-mv=0 / refine-ctu-distortion=0 / no-limit-sao / ctu-info=0 / no-lowpass-dct / refine-analysis-type=0 / copy-pic=1 / max-ausize-factor=1.0 / no-dynamic-refine / no-single-sei / no-hevc-aq / qp-adaptation-range=1.00
  22. Language                                 : English
  23. Default                                  : Yes
  24. Forced                                   : No

  25. Audio #1
  26. ID                                       : 2
  27. Format                                   : MLP FBA 16-ch
  28. Format/Info                              : Meridian Lossless Packing FBA with 16-channel presentation
  29. Commercial name                          : Dolby TrueHD with Dolby Atmos
  30. Codec ID                                 : A_TRUEHD
  31. Duration                                 : 2 h 12 min
  32. Bit rate mode                            : Variable
  33. Bit rate                                 : 3 466 kb/s
  34. Maximum bit rate                         : 6 375 kb/s
  35. Channel(s)                               : 8 channels
  36. Channel layout                           : L R C LFE Ls Rs Lb Rb
  37. Sampling rate                            : 48.0 kHz
  38. Frame rate                               : 1 200.000 FPS (40 SPF)
  39. Compression mode                         : Lossless
  40. Stream size                              : 3.21 GiB (8%)
  41. Title                                    : Queen.and.Slim.2019.2160p.BluRay.x265.10bit.SDR.DTS-HD.MA.TrueHD.7.1.Atmos-SWTYBLZ
  42. Language                                 : English
  43. Default                                  : Yes
  44. Forced                                   : No
  45. Number of dynamic objects                : 11
  46. Bed channel count                        : 1 channel
  47. Bed channel configuration                : LFE

  48. Audio #2
  49. ID                                       : 3
  50. Format                                   : DTS XLL
  51. Format/Info                              : Digital Theater Systems
  52. Commercial name                          : DTS-HD Master Audio
  53. Codec ID                                 : A_DTS
  54. Duration                                 : 2 h 12 min
  55. Bit rate mode                            : Variable
  56. Bit rate                                 : 3 757 kb/s
  57. Channel(s)                               : 8 channels
  58. Channel layout                           : C L R LFE Lb Rb Lss Rss
  59. Sampling rate                            : 48.0 kHz
  60. Frame rate                               : 93.750 FPS (512 SPF)
  61. Bit depth                                : 24 bits
  62. Compression mode                         : Lossless
  63. Stream size                              : 3.47 GiB (9%)
  64. Title                                    : Queen.and.Slim.2019.2160p.BluRay.x265.10bit.SDR.DTS-HD.MA.TrueHD.7.1.Atmos-SWTYBLZ
  65. Language                                 : English
  66. Default                                  : No
  67. Forced                                   : No

  68. Audio #3
  69. ID                                       : 4
  70. Format                                   : AC-3
  71. Format/Info                              : Audio Coding 3
  72. Commercial name                          : Dolby Digital
  73. Codec ID                                 : A_AC3
  74. Duration                                 : 2 h 12 min
  75. Bit rate mode                            : Constant
  76. Bit rate                                 : 448 kb/s
  77. Channel(s)                               : 6 channels
  78. Channel layout                           : L R C LFE Ls Rs
  79. Sampling rate                            : 48.0 kHz
  80. Frame rate                               : 31.250 FPS (1536 SPF)
  81. Bit depth                                : 16 bits
  82. Compression mode                         : Lossy
  83. Stream size                              : 424 MiB (1%)
  84. Title                                    : Queen.and.Slim.2019.2160p.BluRay.x265.10bit.SDR.DTS-HD.MA.TrueHD.7.1.Atmos-SWTYBLZ
  85. Language                                 : English
  86. Service kind                             : Complete Main
  87. Default                                  : No
  88. Forced                                   : No

  89. Text #1
  90. ID                                       : 5
  91. Format                                   : UTF-8
  92. Codec ID                                 : S_TEXT/UTF8
  93. Codec ID/Info                            : UTF-8 Plain Text
  94. Duration                                 : 2 h 10 min
  95. Bit rate                                 : 53 b/s
  96. Count of elements                        : 1594
  97. Stream size                              : 50.9 KiB (0%)
  98. Title                                    : English-SRT
  99. Language                                 : English
  100. Default                                  : Yes
  101. Forced                                   : No

  102. Text #2
  103. ID                                       : 6
  104. Format                                   : PGS
  105. Muxing mode                              : zlib
  106. Codec ID                                 : S_HDMV/PGS
  107. Codec ID/Info                            : Picture based subtitle format used on BDs/HD-DVDs
  108. Duration                                 : 2 h 10 min
  109. Bit rate                                 : 40.0 kb/s
  110. Count of elements                        : 3660
  111. Stream size                              : 37.4 MiB (0%)
  112. Title                                    : English-PGS
  113. Language                                 : English
  114. Default                                  : No
  115. Forced                                   : No

  116. Text #3
  117. ID                                       : 7
  118. Format                                   : PGS
  119. Muxing mode                              : zlib
  120. Codec ID                                 : S_HDMV/PGS
  121. Codec ID/Info                            : Picture based subtitle format used on BDs/HD-DVDs
  122. Duration                                 : 2 h 11 min
  123. Bit rate                                 : 27.3 kb/s
  124. Count of elements                        : 2790
  125. Stream size                              : 25.6 MiB (0%)
  126. Title                                    : Spanish-PGS
  127. Language                                 : Spanish
  128. Default                                  : No
  129. Forced                                   : No

  130. Menu
  131. 00:00:00.000                             : en:Chapter 01
  132. 00:05:46.763                             : en:Chapter 02
  133. 00:14:20.109                             : en:Chapter 03
  134. 00:18:58.637                             : en:Chapter 04
  135. 00:24:56.662                             : en:Chapter 05
  136. 00:31:21.880                             : en:Chapter 06
  137. 00:36:06.039                             : en:Chapter 07
  138. 00:41:30.822                             : en:Chapter 08
  139. 00:50:09.924                             : en:Chapter 09
  140. 00:58:42.102                             : en:Chapter 10
  141. 01:05:56.703                             : en:Chapter 11
  142. 01:11:14.520                             : en:Chapter 12
  143. 01:16:44.725                             : en:Chapter 13
  144. 01:23:59.826                             : en:Chapter 14
  145. 01:28:45.612                             : en:Chapter 15
  146. 01:34:28.830                             : en:Chapter 16
  147. 01:42:10.291                             : en:Chapter 17
  148. 01:50:00.469                             : en:Chapter 18
  149. 01:56:02.247                             : en:Chapter 19
  150. 02:04:41.140                             : en:Chapter 20
复制代码

皇后与瘦子/奎恩与斯里姆 Queen.and.Slim.2019.2160p.BluRay.x265.10bit.SDR.DTS-HD.MA.TrueHD.7.1.Atmos-SWTYBLZ 37.94GB-2.png 皇后与瘦子/奎恩与斯里姆 Queen.and.Slim.2019.2160p.BluRay.x265.10bit.SDR.DTS-HD.MA.TrueHD.7.1.Atmos-SWTYBLZ 37.94GB-3.png 皇后与瘦子/奎恩与斯里姆 Queen.and.Slim.2019.2160p.BluRay.x265.10bit.SDR.DTS-HD.MA.TrueHD.7.1.Atmos-SWTYBLZ 37.94GB-1.png 皇后与瘦子/奎恩与斯里姆 Queen.and.Slim.2019.2160p.BluRay.x265.10bit.SDR.DTS-HD.MA.TrueHD.7.1.Atmos-SWTYBLZ 37.94GB-5.png 皇后与瘦子/奎恩与斯里姆 Queen.and.Slim.2019.2160p.BluRay.x265.10bit.SDR.DTS-HD.MA.TrueHD.7.1.Atmos-SWTYBLZ 37.94GB-2.png 皇后与瘦子/奎恩与斯里姆 Queen.and.Slim.2019.2160p.BluRay.x265.10bit.SDR.DTS-HD.MA.TrueHD.7.1.Atmos-SWTYBLZ 37.94GB-7.png 皇后与瘦子/奎恩与斯里姆 Queen.and.Slim.2019.2160p.BluRay.x265.10bit.SDR.DTS-HD.MA.TrueHD.7.1.Atmos-SWTYBLZ 37.94GB-8.png 皇后与瘦子/奎恩与斯里姆 Queen.and.Slim.2019.2160p.BluRay.x265.10bit.SDR.DTS-HD.MA.TrueHD.7.1.Atmos-SWTYBLZ 37.94GB-9.png






回复

使用道具 举报

发表于 2020-2-27 22:47:14 | 显示全部楼层
楼主发贴辛苦了,谢谢楼主分享!我觉得蓝光电影网是注册对了!
回复 支持 反对

使用道具 举报

懒得打字嘛,点击右侧快捷回复 【右侧内容,后台自定义】
您需要登录后才可以回帖 登录 | 立即加入

本版积分规则

现在加入蓝光电影网,注册一个账号
上个主题 下个主题 快速回复 收藏帖子 返回列表 客服中心 搜索

手机版|小黑屋| 蓝光电影网 |网站地图 

Copyright © 2015-2019 Comsenz Inc.  Template by 蓝光电影论坛 All Rights Reserved.

Powered by 蓝光电影网 X3.4

特别声明:本站所有资源均由网上收集而来,版权归原影音公司所有,如果侵犯了你的权益,请通知我们,我们会及时删除侵权内容.

快速回复 返回顶部 返回列表