找回密码

蓝光电影网

查看: 265|回复: 2

[REMUX.HEVC] 皇后与瘦子/奎恩与斯里姆 Queen.and.Slim.2019.2160p.BluRay.REMUX.HEVC.DTS-HD.MA.TrueHD.7.1.Atmos-FGT 56.53GB

[复制链接]

 成长值: 25360

发表于 2020-2-27 15:32:56 | 显示全部楼层 |阅读模式
皇后与瘦子/奎恩与斯里姆 Queen.and.Slim.2019.2160p.BluRay.REMUX.HEVC.DTS-HD.MA.TrueHD.7.1.Atmos-FGT 56.53GB-1.png

译  名 皇后与瘦子 / 奎恩与斯里姆
片  名 Queen & Slim
年  代 2019
产  地 加拿大 / 美国
类  别 剧情
语  言 英语
上映日期 2019-11-27(美国)
IMDb评分  7.0/10 from 8192 users
IMDb链接  https://www.imdb.com/title/tt8722346
豆瓣评分 6.9/10 from 996 users
豆瓣链接 https://movie.douban.com/subject/30279172/
片  长 132分钟
导  演 梅丽娜·马苏卡斯 Melina Matsoukas
编  剧 丽娜·维特 Lena Waithe / 詹姆斯·弗雷 James Frey
主  演 朱迪·特纳-史密斯 Jodie Turner-Smith
       丹尼尔·卡卢亚 Daniel Kaluuya
       茵蒂娅·摩尔 Indya Moore
       科洛·塞维尼 Chlo? Sevigny
       博基姆·伍德拜因 Bokeem Woodbine
       弗利 Flea
       斯特吉尔·辛普森 Sturgill Simpson
       本尼托·马丁内斯 Benito Martinez
       贾西·迪阿洛·温斯顿 Jahi Di'Allo Winston
       格拉伦·布莱恩特·班克斯 Gralen Bryant Banks
       梅兰妮·哈夫肯尼 Melanie Halfkenny
       凯伦·凯亚·利韦尔斯 Karen Kaia Livers
       罗伯特·沃克·布兰乔德 Robert Walker Branchaud
       安迪·迪伦 Andy Dylan
       索莱达·奥布莱恩 Soledad O'Brien
       盖尔·金 Gayle King
       罗曼·阿姆斯特朗 Roman Armstrong
       贾斯汀·贾木什 Justin Carmouche


标  签 美国 | 犯罪 | 黑人 | 公路 | 2019 | 剧情 | 社会 | 惊悚

简  介  

  丹尼尔·卡卢亚(《逃出绝命镇》《黑豹》)将主演环球新片《皇后与瘦子》(Queen & Slim),已定档2019年11月27日北美上映,明年1月开拍。该片是一部复杂的剧情片,讲述一对黑人男女“皇后”和“瘦子”第一次约会,开车被警察叫停。之后的发展跟《逃出绝命镇》就不一样了:两人因自我防卫杀死了那名警察,随后没有自首,而是一起亡命天涯。希望藉由这个爱情故事探索美国的社会和政治。女主角皇后正在选演员,计划用新面孔。
  《无为大师》《头号玩家》的丽娜·维斯编剧,她的《无为大师》导演搭档Melina Matsoukas执导,这也是后者首次导演电影。剧本是基于《百万碎片》作者、争议作家詹姆斯·弗雷写的一版剧本进行改编,新电影公司Makeready注资。

获奖情况  

  第72届美国导演工会奖(2020)
  最佳新人导演奖(提名) 梅丽娜·马苏卡斯

  第22届美国服装设计工会奖(2020)
  现代电影最佳服装设计(提名) Shiona Turini

  第91届美国国家评论协会奖(2019)
  最佳导演处女作 梅丽娜·马苏卡斯

  第23届美国在线影评人协会奖(2020)
  最佳新导演(提名) 梅丽娜·马苏卡斯
  1. Video
  2. ID                                       : 1
  3. Format                                   : HEVC
  4. Format/Info                              : High Efficiency Video Coding
  5. Format profile                           : Main High@L4@High
  6. HDR format                               : SMPTE ST 2086, HDR10 compatible
  7. Codec ID                                 : V_MPEGH/ISO/HEVC
  8. Duration                                 : 2 h 12 min
  9. Bit rate                                 : 52.5 Mb/s
  10. Width                                    : 3 840 pixels
  11. Height                                   : 2 160 pixels
  12. Display aspect ratio                     : 16:9
  13. Frame rate mode                          : Constant
  14. Frame rate                               : 23.976 (24000/1001) FPS
  15. Color space                              : YUV
  16. Chroma subsampling                       : 4:2:0 (Type 2)
  17. Bit depth                                : 10 bits
  18. Bits/(Pixel*Frame)                       : 0.264
  19. Stream size                              : 48.6 GiB (86%)
  20. Title                                    : Queen.and.Slim.2019.2160p.BluRay.REMUX.HEVC.DTS-HD.MA.TrueHD.7.1.Atmos-FGT
  21. Language                                 : English
  22. Default                                  : No
  23. Forced                                   : No
  24. Color range                              : Limited
  25. Color primaries                          : BT.2020
  26. Transfer characteristics                 : PQ
  27. Matrix coefficients                      : BT.2020 non-constant
  28. Mastering display color primaries        : Display P3
  29. Mastering display luminance              : min: 0.0050 cd/m2, max: 1000 cd/m2
  30. Maximum Content Light Level              : 614 cd/m2
  31. Maximum Frame-Average Light Level        : 67 cd/m2

  32. Audio #1
  33. ID                                       : 2
  34. Format                                   : MLP FBA 16-ch
  35. Format/Info                              : Meridian Lossless Packing FBA with 16-channel presentation
  36. Commercial name                          : Dolby TrueHD with Dolby Atmos
  37. Codec ID                                 : A_TRUEHD
  38. Duration                                 : 2 h 12 min
  39. Bit rate mode                            : Variable
  40. Bit rate                                 : 3 466 kb/s
  41. Maximum bit rate                         : 6 375 kb/s
  42. Channel(s)                               : 8 channels
  43. Channel layout                           : L R C LFE Ls Rs Lb Rb
  44. Sampling rate                            : 48.0 kHz
  45. Frame rate                               : 1 200.000 FPS (40 SPF)
  46. Compression mode                         : Lossless
  47. Stream size                              : 3.21 GiB (6%)
  48. Title                                    : Queen.and.Slim.2019.2160p.BluRay.REMUX.HEVC.DTS-HD.MA.TrueHD.7.1.Atmos-FGT
  49. Language                                 : English
  50. Default                                  : Yes
  51. Forced                                   : No
  52. Number of dynamic objects                : 11
  53. Bed channel count                        : 1 channel
  54. Bed channel configuration                : LFE

  55. Audio #2
  56. ID                                       : 3
  57. Format                                   : DTS XLL
  58. Format/Info                              : Digital Theater Systems
  59. Commercial name                          : DTS-HD Master Audio
  60. Codec ID                                 : A_DTS
  61. Duration                                 : 2 h 12 min
  62. Bit rate mode                            : Variable
  63. Bit rate                                 : 3 757 kb/s
  64. Channel(s)                               : 8 channels
  65. Channel layout                           : C L R LFE Lb Rb Lss Rss
  66. Sampling rate                            : 48.0 kHz
  67. Frame rate                               : 93.750 FPS (512 SPF)
  68. Bit depth                                : 24 bits
  69. Compression mode                         : Lossless
  70. Stream size                              : 3.47 GiB (6%)
  71. Title                                    : Queen.and.Slim.2019.2160p.BluRay.REMUX.HEVC.DTS-HD.MA.TrueHD.7.1.Atmos-FGT
  72. Language                                 : English
  73. Default                                  : No
  74. Forced                                   : No

  75. Audio #3
  76. ID                                       : 4
  77. Format                                   : AC-3
  78. Format/Info                              : Audio Coding 3
  79. Commercial name                          : Dolby Digital
  80. Codec ID                                 : A_AC3
  81. Duration                                 : 2 h 12 min
  82. Bit rate mode                            : Constant
  83. Bit rate                                 : 448 kb/s
  84. Channel(s)                               : 6 channels
  85. Channel layout                           : L R C LFE Ls Rs
  86. Sampling rate                            : 48.0 kHz
  87. Frame rate                               : 31.250 FPS (1536 SPF)
  88. Bit depth                                : 16 bits
  89. Compression mode                         : Lossy
  90. Stream size                              : 424 MiB (1%)
  91. Title                                    : Queen.and.Slim.2019.2160p.BluRay.REMUX.HEVC.DTS-HD.MA.TrueHD.7.1.Atmos-FGT
  92. Language                                 : English
  93. Service kind                             : Complete Main
  94. Default                                  : No
  95. Forced                                   : No

  96. Audio #4
  97. ID                                       : 5
  98. Format                                   : AC-3
  99. Format/Info                              : Audio Coding 3
  100. Commercial name                          : Dolby Digital
  101. Codec ID                                 : A_AC3
  102. Duration                                 : 2 h 12 min
  103. Bit rate mode                            : Constant
  104. Bit rate                                 : 640 kb/s
  105. Channel(s)                               : 6 channels
  106. Channel layout                           : L R C LFE Ls Rs
  107. Sampling rate                            : 48.0 kHz
  108. Frame rate                               : 31.250 FPS (1536 SPF)
  109. Bit depth                                : 16 bits
  110. Compression mode                         : Lossy
  111. Stream size                              : 606 MiB (1%)
  112. Title                                    : Queen.and.Slim.2019.2160p.BluRay.REMUX.HEVC.DTS-HD.MA.TrueHD.7.1.Atmos-FGT
  113. Language                                 : Spanish
  114. Service kind                             : Complete Main
  115. Default                                  : No
  116. Forced                                   : No

  117. Audio #5
  118. ID                                       : 6
  119. Format                                   : AC-3
  120. Format/Info                              : Audio Coding 3
  121. Commercial name                          : Dolby Digital
  122. Codec ID                                 : A_AC3
  123. Duration                                 : 2 h 12 min
  124. Bit rate mode                            : Constant
  125. Bit rate                                 : 192 kb/s
  126. Channel(s)                               : 2 channels
  127. Channel layout                           : L R
  128. Sampling rate                            : 48.0 kHz
  129. Frame rate                               : 31.250 FPS (1536 SPF)
  130. Bit depth                                : 16 bits
  131. Compression mode                         : Lossy
  132. Stream size                              : 182 MiB (0%)
  133. Title                                    : Queen.and.Slim.2019.2160p.BluRay.REMUX.HEVC.DTS-HD.MA.TrueHD.7.1.Atmos-FGT
  134. Language                                 : English
  135. Service kind                             : Complete Main
  136. Default                                  : No
  137. Forced                                   : No

  138. Text #1
  139. ID                                       : 7
  140. Format                                   : UTF-8
  141. Codec ID                                 : S_TEXT/UTF8
  142. Codec ID/Info                            : UTF-8 Plain Text
  143. Duration                                 : 2 h 10 min
  144. Bit rate                                 : 53 b/s
  145. Count of elements                        : 1594
  146. Stream size                              : 50.9 KiB (0%)
  147. Title                                    : English-SRT
  148. Language                                 : English
  149. Default                                  : Yes
  150. Forced                                   : No

  151. Text #2
  152. ID                                       : 8
  153. Format                                   : PGS
  154. Muxing mode                              : zlib
  155. Codec ID                                 : S_HDMV/PGS
  156. Codec ID/Info                            : Picture based subtitle format used on BDs/HD-DVDs
  157. Duration                                 : 2 h 10 min
  158. Bit rate                                 : 40.0 kb/s
  159. Count of elements                        : 3660
  160. Stream size                              : 37.4 MiB (0%)
  161. Title                                    : English-PGS
  162. Language                                 : English
  163. Default                                  : No
  164. Forced                                   : No

  165. Text #3
  166. ID                                       : 9
  167. Format                                   : PGS
  168. Muxing mode                              : zlib
  169. Codec ID                                 : S_HDMV/PGS
  170. Codec ID/Info                            : Picture based subtitle format used on BDs/HD-DVDs
  171. Duration                                 : 2 h 11 min
  172. Bit rate                                 : 27.3 kb/s
  173. Count of elements                        : 2790
  174. Stream size                              : 25.6 MiB (0%)
  175. Title                                    : Spanish-PGS
  176. Language                                 : Spanish
  177. Default                                  : No
  178. Forced                                   : No

  179. Text #4
  180. ID                                       : 10
  181. Format                                   : PGS
  182. Muxing mode                              : zlib
  183. Codec ID                                 : S_HDMV/PGS
  184. Codec ID/Info                            : Picture based subtitle format used on BDs/HD-DVDs
  185. Duration                                 : 2 h 6 min
  186. Bit rate                                 : 272 b/s
  187. Count of elements                        : 26
  188. Stream size                              : 253 KiB (0%)
  189. Title                                    : Spanish-FORCED-PGS
  190. Language                                 : Spanish
  191. Default                                  : No
  192. Forced                                   : No

  193. Menu
  194. 00:00:00.000                             : en:Chapter 01
  195. 00:05:46.763                             : en:Chapter 02
  196. 00:14:20.359                             : en:Chapter 03
  197. 00:18:58.512                             : en:Chapter 04
  198. 00:24:56.661                             : en:Chapter 05
  199. 00:31:21.880                             : en:Chapter 06
  200. 00:36:06.038                             : en:Chapter 07
  201. 00:41:30.821                             : en:Chapter 08
  202. 00:50:09.923                             : en:Chapter 09
  203. 00:58:41.893                             : en:Chapter 10
  204. 01:05:56.702                             : en:Chapter 11
  205. 01:11:14.520                             : en:Chapter 12
  206. 01:16:44.725                             : en:Chapter 13
  207. 01:23:59.826                             : en:Chapter 14
  208. 01:28:45.611                             : en:Chapter 15
  209. 01:34:28.537                             : en:Chapter 16
  210. 01:42:10.290                             : en:Chapter 17
  211. 01:50:00.468                             : en:Chapter 18
  212. 01:56:02.246                             : en:Chapter 19
  213. 02:04:41.599                             : en:Chapter 20
复制代码

皇后与瘦子/奎恩与斯里姆 Queen.and.Slim.2019.2160p.BluRay.REMUX.HEVC.DTS-HD.MA.TrueHD.7.1.Atmos-FGT 56.53GB-2.png 皇后与瘦子/奎恩与斯里姆 Queen.and.Slim.2019.2160p.BluRay.REMUX.HEVC.DTS-HD.MA.TrueHD.7.1.Atmos-FGT 56.53GB-3.png 皇后与瘦子/奎恩与斯里姆 Queen.and.Slim.2019.2160p.BluRay.REMUX.HEVC.DTS-HD.MA.TrueHD.7.1.Atmos-FGT 56.53GB-4.png






回复

使用道具 举报

发表于 2020-2-28 06:23:29 | 显示全部楼层

论坛不能没有像楼主这样的人才啊!我会一直支持蓝光电影网
回复 支持 反对

使用道具 举报

发表于 2020-3-10 12:34:03 | 显示全部楼层
谢谢楼主发布
回复 支持 反对

使用道具 举报

懒得打字嘛,点击右侧快捷回复 【右侧内容,后台自定义】
您需要登录后才可以回帖 登录 | 立即加入

本版积分规则

现在加入蓝光电影网,注册一个账号
上个主题 下个主题 快速回复 收藏帖子 返回列表 客服中心 搜索

手机版|小黑屋| 蓝光电影网 |网站地图 

Copyright © 2015-2019 Comsenz Inc.  Template by 蓝光电影论坛 All Rights Reserved.

Powered by 蓝光电影网 X3.4

特别声明:本站所有资源均由网上收集而来,版权归原影音公司所有,如果侵犯了你的权益,请通知我们,我们会及时删除侵权内容.

快速回复 返回顶部 返回列表