找回密码

蓝光电影网

查看: 244|回复: 5

[REMUX.HEVC] 飞屋环游记/冲天救兵 Up.2009.2160p.BluRay.REMUX.HEVC.DTS-HD.MA.TrueHD.7.1.Atmos-FGT 41.49GB

[复制链接]

 成长值: 25360

发表于 2020-2-26 23:16:13 | 显示全部楼层 |阅读模式
飞屋环游记/冲天救兵 Up.2009.2160p.BluRay.REMUX.HEVC.DTS-HD.MA.TrueHD.7.1.Atmos-FGT 41.49GB-1.png

译  名 飞屋环游记 / 冲天救兵(港) / 天外奇迹(台) / 飞屋历险记
片  名 Up
年  代 2009
产  地 美国
类  别 剧情 / 喜剧 / 动画 / 冒险
语  言 英语
上映日期 2009-05-13(戛纳电影节) / 2009-05-29(美国) / 2009-08-04(中国大陆)
IMDb评分  8.2/10 from 883364 users
IMDb链接  https://www.imdb.com/title/tt1049413
豆瓣评分 9.0/10 from 897311 users
豆瓣链接 https://movie.douban.com/subject/2129039/
片  长 96分钟
导  演 彼特·道格特 Pete Docter / 鲍勃·彼德森 Bob Peterson
编  剧 彼特·道格特 Pete Docter / 鲍勃·彼德森 Bob Peterson / 汤姆·麦卡锡 Tom McCarthy
主  演 爱德华·阿斯纳 Edward Asner
       克里斯托弗·普卢默 Christopher Plummer
       乔丹·长井 Jordan Nagai
       鲍勃·彼德森 Bob Peterson
       戴尔里·林多 Delroy Lindo
       杰罗姆·兰福特 Jerome Ranft
       约翰·拉岑贝格 John Ratzenberger
       大卫·卡耶 David Kaye
       艾丽·道克特 Elie Docter
       杰里米·利里 Jeremy Leary
       米凯·麦高万 Mickie McGowan
       丹尼·曼恩 Danny Mann
       唐纳德·富利洛夫 Donald Fullilove
       杰斯·哈梅尔 Jess Harnell
       乔什·库雷 Josh Cooley
       彼特·道格特 Pete Docter


标  签 动画 | 梦想 | 美国 | 冒险 | 爱情 | pixar | 温情 | Disney

简  介  

  小男孩卡尔(Carl Fredricksen)怀揣着对于冒险的热爱偶遇假小子艾丽(Ellie),而艾丽把整个屋子当成一艘大飞船游戏居然使他对这个女孩子有些着迷,相同的爱好最终使两个人成为了一生的爱侣。
  他们有一个梦想,那就是有朝一日要去南美洲的“仙境瀑布”探险,但直到艾丽去世,这个梦想也未能实现。终于有一天,曾经专卖气球的老人卡尔居然用五颜六色的气球拽着他的房子飞上了天空,他决定要去实现他们未曾实现的梦想。令卡尔始料不及的是,门廊居然搭上了一个自称是“荒野开拓者”的小男孩小罗(Russell),小罗的喋喋不休让卡尔对这个小胖墩格外讨厌。
  一老一少在飞行中经过了千难万险终于看到了传说中的“仙境瀑布”,在相处过程中卡尔发现小罗其实是个惹人怜爱的孩子。在步行穿越一座森林时,他们遇到了不会飞的大鸟凯文(Kevin)和一只会说话的狗狗逗逗(Dug),让老人惊讶的是他们还遇到了他少年的崇拜偶像——探险家查尔斯·蒙兹(Charles Muntz),而且他发现蒙兹居然是一个为达目的不择手段的坏人。这时,老人离自己的梦想之地只有一步之遥……
  本片荣获第82届奥斯卡最佳动画长片、最佳配乐2项大奖。

获奖情况  

  第82届奥斯卡金像奖(2010)
  最佳影片(提名) 乔纳斯·里维拉
  最佳原创剧本(提名) 汤姆·麦卡锡 / 彼特·道格特
  最佳动画长片 彼特·道格特
  最佳音效剪辑(提名) 迈克尔·席维斯 / Tom Myers
  最佳原创配乐 迈克·吉亚奇诺

  第66届威尼斯电影节(2009)
  未来电影数字奖-特别提及 彼特·道格特

  第67届金球奖(2010)
  电影类 最佳动画长片
  电影类 最佳原创配乐 迈克·吉亚奇诺

  第37届动画安妮奖(2010)
  最佳动画长片
  最佳导演 彼特·道格特
  最佳编剧(提名) 汤姆·麦卡锡 / 彼特·道格特 / 鲍勃·彼德森
  最佳配乐(提名) 迈克·吉亚奇诺
  最佳分镜(提名) 罗纳尔多·德尔·卡门 / 彼得·孙
  最佳动画角色(提名)
  最佳角色设计(提名) Daniel Lopez Munoz / Daniel Lopez Munoz
  最佳动画效果(提名) Eric Froemling

  第75届纽约影评人协会奖(2009)
  最佳动画片(提名)

  第10届美国电影学会奖(2009)
  年度佳片

  第8届华盛顿影评人协会奖(2009)
  最佳影片(提名)
  最佳原创剧本(提名) 彼特·道格特 / 鲍勃·彼德森
  最佳动画片

  第14届圣地亚哥影评人协会奖(2009)
  最佳动画片
  最佳配乐(提名) 迈克·吉亚奇诺

  第22届芝加哥影评人协会奖(2009)
  最佳原创剧本(提名) 鲍勃·彼德森
  最佳动画片
  最佳原创配乐 迈克·吉亚奇诺

  第43届堪萨斯影评人协会奖(2010)
  最佳动画片

  第9届凤凰城影评人协会奖(2009)
  最佳原创剧本 彼特·道格特 / 鲍勃·彼德森
  最佳原创配乐 迈克·吉亚奇诺
  最佳动画片

  第18届东南影评人协会奖(2009)
  最佳影片(提名)
  最佳动画片

  第11届美国青少年选择奖(2009)
  最佳暑期喜剧片
  1. Video
  2. ID                                       : 1
  3. Format                                   : HEVC
  4. Format/Info                              : High Efficiency Video Coding
  5. Format profile                           : Main High@L4@High
  6. HDR format                               : SMPTE ST 2086, HDR10 compatible
  7. Codec ID                                 : V_MPEGH/ISO/HEVC
  8. Duration                                 : 1 h 36 min
  9. Bit rate                                 : 48.3 Mb/s
  10. Width                                    : 3 840 pixels
  11. Height                                   : 2 160 pixels
  12. Display aspect ratio                     : 16:9
  13. Frame rate mode                          : Constant
  14. Frame rate                               : 23.976 (24000/1001) FPS
  15. Color space                              : YUV
  16. Chroma subsampling                       : 4:2:0 (Type 2)
  17. Bit depth                                : 10 bits
  18. Bits/(Pixel*Frame)                       : 0.243
  19. Stream size                              : 32.4 GiB (78%)
  20. Title                                    : Up.2009.2160p.BluRay.REMUX.HEVC.DTS-HD.MA.TrueHD.7.1.Atmos-FGT
  21. Writing library                          : ATEME Titan File 3.9.0 (4.9.0.0)        
  22. Language                                 : English
  23. Default                                  : No
  24. Forced                                   : No
  25. Color range                              : Limited
  26. Color primaries                          : BT.2020
  27. Transfer characteristics                 : PQ
  28. Matrix coefficients                      : BT.2020 non-constant
  29. Mastering display color primaries        : Display P3
  30. Mastering display luminance              : min: 0.0000 cd/m2, max: 1000 cd/m2

  31. Audio #1
  32. ID                                       : 2
  33. Format                                   : MLP FBA 16-ch
  34. Format/Info                              : Meridian Lossless Packing FBA with 16-channel presentation
  35. Commercial name                          : Dolby TrueHD with Dolby Atmos
  36. Codec ID                                 : A_TRUEHD
  37. Duration                                 : 1 h 36 min
  38. Bit rate mode                            : Variable
  39. Bit rate                                 : 6 844 kb/s
  40. Maximum bit rate                         : 8 307 kb/s
  41. Channel(s)                               : 8 channels
  42. Channel layout                           : L R C LFE Ls Rs Lb Rb
  43. Sampling rate                            : 48.0 kHz
  44. Frame rate                               : 1 200.000 FPS (40 SPF)
  45. Compression mode                         : Lossless
  46. Stream size                              : 4.60 GiB (11%)
  47. Title                                    : Up.2009.2160p.BluRay.REMUX.HEVC.DTS-HD.MA.TrueHD.7.1.Atmos-FGT
  48. Language                                 : English
  49. Default                                  : Yes
  50. Forced                                   : No
  51. Number of dynamic objects                : 13
  52. Bed channel count                        : 1 channel
  53. Bed channel configuration                : LFE

  54. Audio #2
  55. ID                                       : 3
  56. Format                                   : AC-3
  57. Format/Info                              : Audio Coding 3
  58. Commercial name                          : Dolby Digital
  59. Codec ID                                 : A_AC3
  60. Duration                                 : 1 h 36 min
  61. Bit rate mode                            : Constant
  62. Bit rate                                 : 640 kb/s
  63. Channel(s)                               : 6 channels
  64. Channel layout                           : L R C LFE Ls Rs
  65. Sampling rate                            : 48.0 kHz
  66. Frame rate                               : 31.250 FPS (1536 SPF)
  67. Bit depth                                : 16 bits
  68. Compression mode                         : Lossy
  69. Stream size                              : 440 MiB (1%)
  70. Title                                    : Up.2009.2160p.BluRay.REMUX.HEVC.DTS-HD.MA.TrueHD.7.1.Atmos-FGT
  71. Language                                 : English
  72. Service kind                             : Complete Main
  73. Default                                  : No
  74. Forced                                   : No

  75. Audio #3
  76. ID                                       : 4
  77. Format                                   : DTS ES XLL
  78. Format/Info                              : Digital Theater Systems
  79. Commercial name                          : DTS-HD Master Audio
  80. Codec ID                                 : A_DTS
  81. Duration                                 : 1 h 36 min
  82. Bit rate mode                            : Variable
  83. Bit rate                                 : 4 034 kb/s
  84. Channel(s)                               : 6 channels
  85. Channel(s)_Original                      : 7 channels
  86. Channel layout                           : C L R Ls Rs LFE Cb
  87. Sampling rate                            : 48.0 kHz
  88. Frame rate                               : 93.750 FPS (512 SPF)
  89. Bit depth                                : 24 bits
  90. Compression mode                         : Lossless
  91. Delay relative to video                  : 667 ms
  92. Stream size                              : 2.71 GiB (7%)
  93. Title                                    : Up.2009.2160p.BluRay.REMUX.HEVC.DTS-HD.MA.TrueHD.7.1.Atmos-FGT
  94. Language                                 : English
  95. Default                                  : No
  96. Forced                                   : No

  97. Audio #4
  98. ID                                       : 5
  99. Format                                   : AC-3
  100. Format/Info                              : Audio Coding 3
  101. Commercial name                          : Dolby Digital
  102. Codec ID                                 : A_AC3
  103. Duration                                 : 1 h 36 min
  104. Bit rate mode                            : Constant
  105. Bit rate                                 : 320 kb/s
  106. Channel(s)                               : 2 channels
  107. Channel layout                           : L R
  108. Sampling rate                            : 48.0 kHz
  109. Frame rate                               : 31.250 FPS (1536 SPF)
  110. Bit depth                                : 16 bits
  111. Compression mode                         : Lossy
  112. Stream size                              : 220 MiB (1%)
  113. Title                                    : Up.2009.2160p.BluRay.REMUX.HEVC.DTS-HD.MA.TrueHD.7.1.Atmos-FGT
  114. Language                                 : English
  115. Service kind                             : Complete Main
  116. Default                                  : No
  117. Forced                                   : No

  118. Audio #5
  119. ID                                       : 6
  120. Format                                   : AC-3
  121. Format/Info                              : Audio Coding 3
  122. Commercial name                          : Dolby Digital
  123. Codec ID                                 : A_AC3
  124. Duration                                 : 1 h 36 min
  125. Bit rate mode                            : Constant
  126. Bit rate                                 : 320 kb/s
  127. Channel(s)                               : 2 channels
  128. Channel layout                           : L R
  129. Sampling rate                            : 48.0 kHz
  130. Frame rate                               : 31.250 FPS (1536 SPF)
  131. Bit depth                                : 16 bits
  132. Compression mode                         : Lossy
  133. Stream size                              : 220 MiB (1%)
  134. Title                                    : Up.2009.2160p.BluRay.REMUX.HEVC.DTS-HD.MA.TrueHD.7.1.Atmos-FGT
  135. Language                                 : English
  136. Service kind                             : Complete Main
  137. Default                                  : No
  138. Forced                                   : No

  139. Audio #6
  140. ID                                       : 7
  141. Format                                   : AC-3
  142. Format/Info                              : Audio Coding 3
  143. Commercial name                          : Dolby Digital
  144. Codec ID                                 : A_AC3
  145. Duration                                 : 1 h 36 min
  146. Bit rate mode                            : Constant
  147. Bit rate                                 : 640 kb/s
  148. Channel(s)                               : 6 channels
  149. Channel layout                           : L R C LFE Ls Rs
  150. Sampling rate                            : 48.0 kHz
  151. Frame rate                               : 31.250 FPS (1536 SPF)
  152. Bit depth                                : 16 bits
  153. Compression mode                         : Lossy
  154. Delay relative to video                  : 667 ms
  155. Stream size                              : 440 MiB (1%)
  156. Title                                    : Up.2009.2160p.BluRay.REMUX.HEVC.DTS-HD.MA.TrueHD.7.1.Atmos-FGT
  157. Language                                 : French
  158. Service kind                             : Complete Main
  159. Default                                  : No
  160. Forced                                   : No

  161. Audio #7
  162. ID                                       : 8
  163. Format                                   : AC-3
  164. Format/Info                              : Audio Coding 3
  165. Commercial name                          : Dolby Digital
  166. Codec ID                                 : A_AC3
  167. Duration                                 : 1 h 36 min
  168. Bit rate mode                            : Constant
  169. Bit rate                                 : 640 kb/s
  170. Channel(s)                               : 6 channels
  171. Channel layout                           : L R C LFE Ls Rs
  172. Sampling rate                            : 48.0 kHz
  173. Frame rate                               : 31.250 FPS (1536 SPF)
  174. Bit depth                                : 16 bits
  175. Compression mode                         : Lossy
  176. Delay relative to video                  : 667 ms
  177. Stream size                              : 440 MiB (1%)
  178. Title                                    : Up.2009.2160p.BluRay.REMUX.HEVC.DTS-HD.MA.TrueHD.7.1.Atmos-FGT
  179. Language                                 : Spanish
  180. Service kind                             : Complete Main
  181. Default                                  : No
  182. Forced                                   : No

  183. Text #1
  184. ID                                       : 9
  185. Format                                   : UTF-8
  186. Codec ID                                 : S_TEXT/UTF8
  187. Codec ID/Info                            : UTF-8 Plain Text
  188. Duration                                 : 1 h 34 min
  189. Bit rate                                 : 44 b/s
  190. Count of elements                        : 908
  191. Stream size                              : 31.2 KiB (0%)
  192. Title                                    : English-SRT
  193. Language                                 : English
  194. Default                                  : Yes
  195. Forced                                   : No

  196. Text #2
  197. ID                                       : 10
  198. Format                                   : PGS
  199. Muxing mode                              : zlib
  200. Codec ID                                 : S_HDMV/PGS
  201. Codec ID/Info                            : Picture based subtitle format used on BDs/HD-DVDs
  202. Duration                                 : 1 h 35 min
  203. Bit rate                                 : 33.7 kb/s
  204. Count of elements                        : 2400
  205. Stream size                              : 23.1 MiB (0%)
  206. Title                                    : English-PGS
  207. Language                                 : English
  208. Default                                  : No
  209. Forced                                   : No

  210. Text #3
  211. ID                                       : 11
  212. Format                                   : PGS
  213. Muxing mode                              : zlib
  214. Codec ID                                 : S_HDMV/PGS
  215. Codec ID/Info                            : Picture based subtitle format used on BDs/HD-DVDs
  216. Duration                                 : 1 h 35 min
  217. Bit rate                                 : 25.8 kb/s
  218. Count of elements                        : 1714
  219. Stream size                              : 17.7 MiB (0%)
  220. Title                                    : French-PGS
  221. Language                                 : French
  222. Default                                  : No
  223. Forced                                   : No

  224. Text #4
  225. ID                                       : 12
  226. Format                                   : PGS
  227. Muxing mode                              : zlib
  228. Codec ID                                 : S_HDMV/PGS
  229. Codec ID/Info                            : Picture based subtitle format used on BDs/HD-DVDs
  230. Duration                                 : 1 h 35 min
  231. Bit rate                                 : 25.6 kb/s
  232. Count of elements                        : 1716
  233. Stream size                              : 17.5 MiB (0%)
  234. Title                                    : Spanish-PGS
  235. Language                                 : Spanish
  236. Default                                  : No
  237. Forced                                   : No

  238. Menu
  239. 00:00:00.000                             : en:Chapter 01
  240. 00:02:39.868                             : en:Chapter 02
  241. 00:07:14.475                             : en:Chapter 03
  242. 00:11:38.155                             : en:Chapter 04
  243. 00:13:34.146                             : en:Chapter 05
  244. 00:15:22.421                             : en:Chapter 06
  245. 00:17:36.221                             : en:Chapter 07
  246. 00:20:25.807                             : en:Chapter 08
  247. 00:24:31.678                             : en:Chapter 09
  248. 00:26:24.457                             : en:Chapter 10
  249. 00:28:03.223                             : en:Chapter 11
  250. 00:29:40.820                             : en:Chapter 12
  251. 00:33:20.832                             : en:Chapter 13
  252. 00:34:20.975                             : en:Chapter 14
  253. 00:35:15.154                             : en:Chapter 15
  254. 00:39:50.179                             : en:Chapter 16
  255. 00:42:35.511                             : en:Chapter 17
  256. 00:44:41.845                             : en:Chapter 18
  257. 00:46:17.900                             : en:Chapter 19
  258. 00:49:19.790                             : en:Chapter 20
  259. 00:52:21.596                             : en:Chapter 21
  260. 00:55:24.654                             : en:Chapter 22
  261. 01:00:34.213                             : en:Chapter 23
  262. 01:04:19.856                             : en:Chapter 24
  263. 01:06:14.929                             : en:Chapter 25
  264. 01:08:58.676                             : en:Chapter 26
  265. 01:10:21.008                             : en:Chapter 27
  266. 01:13:35.994                             : en:Chapter 28
  267. 01:15:24.937                             : en:Chapter 29
  268. 01:17:53.085                             : en:Chapter 30
  269. 01:19:46.531                             : en:Chapter 31
  270. 01:21:54.534                             : en:Chapter 32
  271. 01:23:23.623                             : en:Chapter 33
  272. 01:26:03.324                             : en:Chapter 34
  273. 01:29:03.004                             : en:Chapter 35
复制代码

飞屋环游记/冲天救兵 Up.2009.2160p.BluRay.REMUX.HEVC.DTS-HD.MA.TrueHD.7.1.Atmos-FGT 41.49GB-2.png 飞屋环游记/冲天救兵 Up.2009.2160p.BluRay.REMUX.HEVC.DTS-HD.MA.TrueHD.7.1.Atmos-FGT 41.49GB-3.png 飞屋环游记/冲天救兵 Up.2009.2160p.BluRay.REMUX.HEVC.DTS-HD.MA.TrueHD.7.1.Atmos-FGT 41.49GB-4.png






回复

使用道具 举报

发表于 2020-2-27 07:51:38 | 显示全部楼层
楼主发贴辛苦了,谢谢楼主分享!我觉得蓝光电影网是注册对了!
回复 支持 反对

使用道具 举报

 成长值: 2440

发表于 2020-2-27 08:55:33 | 显示全部楼层
谢谢楼主无私分享。
回复 支持 反对

使用道具 举报

 成长值: 3425

发表于 2020-2-27 10:37:52 | 显示全部楼层
谢谢LZ分享好碟
回复 支持 反对

使用道具 举报

发表于 2020-2-27 13:54:12 | 显示全部楼层
楼主发贴辛苦了,谢谢楼主分享!我觉得蓝光电影网是注册对了!
回复 支持 反对

使用道具 举报

发表于 2020-2-28 17:23:33 | 显示全部楼层
看截图怎么这么不清晰
回复 支持 反对

使用道具 举报

懒得打字嘛,点击右侧快捷回复 【右侧内容,后台自定义】
您需要登录后才可以回帖 登录 | 立即加入

本版积分规则

现在加入蓝光电影网,注册一个账号
上个主题 下个主题 快速回复 收藏帖子 返回列表 客服中心 搜索

手机版|小黑屋| 蓝光电影网 |网站地图 

Copyright © 2015-2019 Comsenz Inc.  Template by 蓝光电影论坛 All Rights Reserved.

Powered by 蓝光电影网 X3.4

特别声明:本站所有资源均由网上收集而来,版权归原影音公司所有,如果侵犯了你的权益,请通知我们,我们会及时删除侵权内容.

快速回复 返回顶部 返回列表