找回密码

蓝光电影网

查看: 248|回复: 4

[REMUX.HEVC] 机器人总动员 WALL-E.2008.2160p.BluRay.REMUX.HEVC.DTS-HD.MA.TrueHD.7.1.Atmos-FGT 38.40GB

[复制链接]

 成长值: 25360

发表于 2020-2-26 23:14:59 | 显示全部楼层 |阅读模式
机器人总动员 WALL-E.2008.2160p.BluRay.REMUX.HEVC.DTS-HD.MA.TrueHD.7.1.Atmos-FGT 38.40GB-1.png

译  名 机器人总动员 / walle / 地球废品分装员 / 太空奇兵·威E(港) / 星际总动员 / 机器人瓦力 / 瓦力(台)
片  名 WALL·E
年  代 2008
产  地 美国
类  别 科幻 / 动画 / 冒险
语  言 英语
上映日期 2008-06-27(美国)
IMDb评分  8.4/10 from 945831 users
IMDb链接  https://www.imdb.com/title/tt0910970
豆瓣评分 9.3/10 from 912055 users
豆瓣链接 https://movie.douban.com/subject/2131459/
片  长 98分钟
导  演 安德鲁·斯坦顿 Andrew Stanton
编  剧 安德鲁·斯坦顿 Andrew Stanton / 吉姆·里尔顿 Jim Reardon / 彼特·道格特 Pete Docter
主  演 本·贝尔特 Ben Burtt
       艾丽莎·奈特 Elissa Knight
       杰夫·格尔林 Jeff Garlin
       佛莱德·威拉特 Fred Willard
       西格妮·韦弗 Sigourney Weaver
       MacInTalk
       约翰·拉岑贝格 John Ratzenberger
       凯茜·纳基麦 Kathy Najimy
       泰迪·牛顿 Teddy Newton
       鲍伯·伯根 Bob Bergen
       洛丽·理查德森 Lori Richardson
       吉姆·瓦德 Jim Ward
       彼特·道格特 Pete Docter
       安德鲁·斯坦顿 Andrew Stanton
       杰夫·皮金  Jeff Pidgeon
       约翰·齐甘 John Cygan
       米凯·麦高万 Mickie McGowan
       雪莉·琳恩 Sherry Lynn
       克莱特·惠特克 Colette Whitaker
       唐纳德·富利洛夫 Donald Fullilove
       罗里·艾伦 Lori Alan
       杰斯·哈梅尔 Jess Harnell
       拉瑞恩·纽曼 Laraine Newman
       扬·拉布森 Jan Rabson
       保罗·伊丁 Paul Eiding


标  签 动画 | 科幻 | 感人 | 美国 | 皮克斯 | 爱情 | 环保 | 迪斯尼

简  介  

  公元2805年,人类文明高度发展,却因污染和生活垃圾大量增加使得地球不再适于人类居住。地球人被迫乘坐飞船离开故乡,进行一次漫长无边的宇宙之旅。临行前他们委托Buynlarge的公司对地球垃圾进行清理,该公司开发了名为WALL·E(Waste Allocation Loa d Lifters – Earth 地球废品分装员)的机器人担当此重任。
  这些机器人按照程序日复一日、年复一年辛勤工作,但随着时间的流逝和恶劣环境的侵蚀,WALL·E们接连损坏、停止运动。最后只有一个仍在进行这项似乎永无止境的工作。经历了漫长的岁月,它开始拥有了自己的意识。它喜欢将收集来的宝贝小心翼翼藏起,喜欢收工后看看几百年前的歌舞片,此外还有一只蟑螂朋友作伴。直到有一天,一艘来自宇宙的飞船打破了它一成不变的生活……
  本片荣获2009年第81届奥斯卡最佳动画长片奖。

获奖情况  

  第81届奥斯卡金像奖(2009)
  最佳原创剧本(提名) 彼特·道格特 / 安德鲁·斯坦顿 / 吉姆·里尔顿
  最佳动画长片 安德鲁·斯坦顿
  最佳混音(提名) 本·贝尔特 / Tom Myers / 迈克尔·斯曼内科
  最佳音效剪辑(提名) 本·贝尔特 / 马修·伍德
  最佳原创配乐(提名) 托马斯·纽曼
  最佳原创歌曲(提名) 彼特·加布埃尔 / 托马斯·纽曼

  第66届金球奖(2009)
  电影类 最佳动画长片
  电影类 最佳原创歌曲(提名) 彼特·加布埃尔 / 托马斯·纽曼

  第36届动画安妮奖(2009)
  最佳动画长片(提名)
  最佳导演(提名) 安德鲁·斯坦顿
  最佳配音(提名) 本·贝尔特
  最佳分镜(提名) 罗纳尔多·德尔·卡门
  最佳艺术指导(提名) 拉夫·埃格尔斯顿
  最佳动画角色(提名) Victor Navone
  最佳动画效果(提名) Enrique Vila

  第9届美国电影学会奖(2008)
  年度佳片
  1. Video
  2. ID                                       : 1
  3. Format                                   : HEVC
  4. Format/Info                              : High Efficiency Video Coding
  5. Format profile                           : Main High@L4@High
  6. HDR format                               : SMPTE ST 2086, HDR10 compatible
  7. Codec ID                                 : V_MPEGH/ISO/HEVC
  8. Duration                                 : 1 h 38 min
  9. Bit rate                                 : 41.3 Mb/s
  10. Width                                    : 3 840 pixels
  11. Height                                   : 2 160 pixels
  12. Display aspect ratio                     : 16:9
  13. Frame rate mode                          : Constant
  14. Frame rate                               : 23.976 (24000/1001) FPS
  15. Color space                              : YUV
  16. Chroma subsampling                       : 4:2:0 (Type 2)
  17. Bit depth                                : 10 bits
  18. Bits/(Pixel*Frame)                       : 0.208
  19. Stream size                              : 28.3 GiB (74%)
  20. Title                                    : WALL-E.2008.2160p.BluRay.REMUX.HEVC.DTS-HD.MA.TrueHD.7.1.Atmos-FGT
  21. Writing library                          : ATEME Titan File 3.9.0 (4.9.0.0)        
  22. Language                                 : English
  23. Default                                  : No
  24. Forced                                   : No
  25. Color range                              : Limited
  26. Color primaries                          : BT.2020
  27. Transfer characteristics                 : PQ
  28. Matrix coefficients                      : BT.2020 non-constant
  29. Mastering display color primaries        : Display P3
  30. Mastering display luminance              : min: 0.0000 cd/m2, max: 1000 cd/m2

  31. Audio #1
  32. ID                                       : 2
  33. Format                                   : MLP FBA 16-ch
  34. Format/Info                              : Meridian Lossless Packing FBA with 16-channel presentation
  35. Commercial name                          : Dolby TrueHD with Dolby Atmos
  36. Codec ID                                 : A_TRUEHD
  37. Duration                                 : 1 h 38 min
  38. Bit rate mode                            : Variable
  39. Bit rate                                 : 7 244 kb/s
  40. Maximum bit rate                         : 8 217 kb/s
  41. Channel(s)                               : 8 channels
  42. Channel layout                           : L R C LFE Ls Rs Lb Rb
  43. Sampling rate                            : 48.0 kHz
  44. Frame rate                               : 1 200.000 FPS (40 SPF)
  45. Compression mode                         : Lossless
  46. Stream size                              : 4.97 GiB (13%)
  47. Title                                    : WALL-E.2008.2160p.BluRay.REMUX.HEVC.DTS-HD.MA.TrueHD.7.1.Atmos-FGT
  48. Language                                 : English
  49. Default                                  : Yes
  50. Forced                                   : No
  51. Number of dynamic objects                : 13
  52. Bed channel count                        : 1 channel
  53. Bed channel configuration                : LFE

  54. Audio #2
  55. ID                                       : 3
  56. Format                                   : AC-3
  57. Format/Info                              : Audio Coding 3
  58. Commercial name                          : Dolby Digital
  59. Codec ID                                 : A_AC3
  60. Duration                                 : 1 h 38 min
  61. Bit rate mode                            : Constant
  62. Bit rate                                 : 640 kb/s
  63. Channel(s)                               : 6 channels
  64. Channel layout                           : L R C LFE Ls Rs
  65. Sampling rate                            : 48.0 kHz
  66. Frame rate                               : 31.250 FPS (1536 SPF)
  67. Bit depth                                : 16 bits
  68. Compression mode                         : Lossy
  69. Stream size                              : 450 MiB (1%)
  70. Title                                    : WALL-E.2008.2160p.BluRay.REMUX.HEVC.DTS-HD.MA.TrueHD.7.1.Atmos-FGT
  71. Language                                 : English
  72. Service kind                             : Complete Main
  73. Default                                  : No
  74. Forced                                   : No

  75. Audio #3
  76. ID                                       : 4
  77. Format                                   : DTS ES XLL
  78. Format/Info                              : Digital Theater Systems
  79. Commercial name                          : DTS-HD Master Audio
  80. Codec ID                                 : A_DTS
  81. Duration                                 : 1 h 38 min
  82. Bit rate mode                            : Variable
  83. Bit rate                                 : 4 147 kb/s
  84. Channel(s)                               : 6 channels
  85. Channel(s)_Original                      : 7 channels
  86. Channel layout                           : C L R Ls Rs LFE Cb
  87. Sampling rate                            : 48.0 kHz
  88. Frame rate                               : 93.750 FPS (512 SPF)
  89. Bit depth                                : 24 bits
  90. Compression mode                         : Lossless
  91. Delay relative to video                  : 667 ms
  92. Stream size                              : 2.84 GiB (7%)
  93. Title                                    : WALL-E.2008.2160p.BluRay.REMUX.HEVC.DTS-HD.MA.TrueHD.7.1.Atmos-FGT
  94. Language                                 : English
  95. Default                                  : No
  96. Forced                                   : No

  97. Audio #4
  98. ID                                       : 5
  99. Format                                   : AC-3
  100. Format/Info                              : Audio Coding 3
  101. Commercial name                          : Dolby Digital
  102. Codec ID                                 : A_AC3
  103. Duration                                 : 1 h 38 min
  104. Bit rate mode                            : Constant
  105. Bit rate                                 : 640 kb/s
  106. Channel(s)                               : 6 channels
  107. Channel layout                           : L R C LFE Ls Rs
  108. Sampling rate                            : 48.0 kHz
  109. Frame rate                               : 31.250 FPS (1536 SPF)
  110. Bit depth                                : 16 bits
  111. Compression mode                         : Lossy
  112. Stream size                              : 450 MiB (1%)
  113. Title                                    : WALL-E.2008.2160p.BluRay.REMUX.HEVC.DTS-HD.MA.TrueHD.7.1.Atmos-FGT
  114. Language                                 : English
  115. Service kind                             : Complete Main
  116. Default                                  : No
  117. Forced                                   : No

  118. Audio #5
  119. ID                                       : 6
  120. Format                                   : AC-3
  121. Format/Info                              : Audio Coding 3
  122. Commercial name                          : Dolby Digital
  123. Codec ID                                 : A_AC3
  124. Duration                                 : 1 h 38 min
  125. Bit rate mode                            : Constant
  126. Bit rate                                 : 320 kb/s
  127. Channel(s)                               : 2 channels
  128. Channel layout                           : L R
  129. Sampling rate                            : 48.0 kHz
  130. Frame rate                               : 31.250 FPS (1536 SPF)
  131. Bit depth                                : 16 bits
  132. Compression mode                         : Lossy
  133. Stream size                              : 225 MiB (1%)
  134. Title                                    : WALL-E.2008.2160p.BluRay.REMUX.HEVC.DTS-HD.MA.TrueHD.7.1.Atmos-FGT
  135. Language                                 : English
  136. Service kind                             : Complete Main
  137. Default                                  : No
  138. Forced                                   : No

  139. Audio #6
  140. ID                                       : 7
  141. Format                                   : AC-3
  142. Format/Info                              : Audio Coding 3
  143. Commercial name                          : Dolby Digital
  144. Codec ID                                 : A_AC3
  145. Duration                                 : 1 h 38 min
  146. Bit rate mode                            : Constant
  147. Bit rate                                 : 320 kb/s
  148. Channel(s)                               : 2 channels
  149. Channel layout                           : L R
  150. Sampling rate                            : 48.0 kHz
  151. Frame rate                               : 31.250 FPS (1536 SPF)
  152. Bit depth                                : 16 bits
  153. Compression mode                         : Lossy
  154. Stream size                              : 225 MiB (1%)
  155. Title                                    : WALL-E.2008.2160p.BluRay.REMUX.HEVC.DTS-HD.MA.TrueHD.7.1.Atmos-FGT
  156. Language                                 : English
  157. Service kind                             : Complete Main
  158. Default                                  : No
  159. Forced                                   : No

  160. Audio #7
  161. ID                                       : 8
  162. Format                                   : AC-3
  163. Format/Info                              : Audio Coding 3
  164. Commercial name                          : Dolby Digital
  165. Codec ID                                 : A_AC3
  166. Duration                                 : 1 h 38 min
  167. Bit rate mode                            : Constant
  168. Bit rate                                 : 640 kb/s
  169. Channel(s)                               : 6 channels
  170. Channel layout                           : L R C LFE Ls Rs
  171. Sampling rate                            : 48.0 kHz
  172. Frame rate                               : 31.250 FPS (1536 SPF)
  173. Bit depth                                : 16 bits
  174. Compression mode                         : Lossy
  175. Delay relative to video                  : 667 ms
  176. Stream size                              : 450 MiB (1%)
  177. Title                                    : WALL-E.2008.2160p.BluRay.REMUX.HEVC.DTS-HD.MA.TrueHD.7.1.Atmos-FGT
  178. Language                                 : French
  179. Service kind                             : Complete Main
  180. Default                                  : No
  181. Forced                                   : No

  182. Audio #8
  183. ID                                       : 9
  184. Format                                   : AC-3
  185. Format/Info                              : Audio Coding 3
  186. Commercial name                          : Dolby Digital
  187. Codec ID                                 : A_AC3
  188. Duration                                 : 1 h 38 min
  189. Bit rate mode                            : Constant
  190. Bit rate                                 : 640 kb/s
  191. Channel(s)                               : 6 channels
  192. Channel layout                           : L R C LFE Ls Rs
  193. Sampling rate                            : 48.0 kHz
  194. Frame rate                               : 31.250 FPS (1536 SPF)
  195. Bit depth                                : 16 bits
  196. Compression mode                         : Lossy
  197. Delay relative to video                  : 667 ms
  198. Stream size                              : 450 MiB (1%)
  199. Title                                    : WALL-E.2008.2160p.BluRay.REMUX.HEVC.DTS-HD.MA.TrueHD.7.1.Atmos-FGT
  200. Language                                 : Spanish
  201. Service kind                             : Complete Main
  202. Default                                  : No
  203. Forced                                   : No

  204. Text #1
  205. ID                                       : 10
  206. Format                                   : UTF-8
  207. Codec ID                                 : S_TEXT/UTF8
  208. Codec ID/Info                            : UTF-8 Plain Text
  209. Duration                                 : 1 h 35 min
  210. Bit rate                                 : 26 b/s
  211. Count of elements                        : 758
  212. Stream size                              : 18.7 KiB (0%)
  213. Title                                    : English-SRT
  214. Language                                 : English
  215. Default                                  : Yes
  216. Forced                                   : No

  217. Text #2
  218. ID                                       : 11
  219. Format                                   : PGS
  220. Muxing mode                              : zlib
  221. Codec ID                                 : S_HDMV/PGS
  222. Codec ID/Info                            : Picture based subtitle format used on BDs/HD-DVDs
  223. Duration                                 : 1 h 37 min
  224. Bit rate                                 : 29.0 kb/s
  225. Count of elements                        : 2726
  226. Stream size                              : 20.2 MiB (0%)
  227. Title                                    : English-PGS
  228. Language                                 : English
  229. Default                                  : No
  230. Forced                                   : No

  231. Text #3
  232. ID                                       : 12
  233. Format                                   : PGS
  234. Muxing mode                              : zlib
  235. Codec ID                                 : S_HDMV/PGS
  236. Codec ID/Info                            : Picture based subtitle format used on BDs/HD-DVDs
  237. Duration                                 : 1 h 37 min
  238. Bit rate                                 : 11.9 kb/s
  239. Count of elements                        : 994
  240. Stream size                              : 8.28 MiB (0%)
  241. Title                                    : French-PGS
  242. Language                                 : French
  243. Default                                  : No
  244. Forced                                   : No

  245. Text #4
  246. ID                                       : 13
  247. Format                                   : PGS
  248. Muxing mode                              : zlib
  249. Codec ID                                 : S_HDMV/PGS
  250. Codec ID/Info                            : Picture based subtitle format used on BDs/HD-DVDs
  251. Duration                                 : 1 h 37 min
  252. Bit rate                                 : 11.8 kb/s
  253. Count of elements                        : 1044
  254. Stream size                              : 8.24 MiB (0%)
  255. Title                                    : Spanish-PGS
  256. Language                                 : Spanish
  257. Default                                  : No
  258. Forced                                   : No

  259. Menu
  260. 00:00:00.000                             : en:Chapter 01
  261. 00:03:36.674                             : en:Chapter 02
  262. 00:05:50.350                             : en:Chapter 03
  263. 00:09:19.433                             : en:Chapter 04
  264. 00:12:03.848                             : en:Chapter 05
  265. 00:17:57.117                             : en:Chapter 06
  266. 00:19:34.047                             : en:Chapter 07
  267. 00:21:10.811                             : en:Chapter 08
  268. 00:23:47.342                             : en:Chapter 09
  269. 00:29:18.506                             : en:Chapter 10
  270. 00:31:25.758                             : en:Chapter 11
  271. 00:33:28.423                             : en:Chapter 12
  272. 00:35:20.785                             : en:Chapter 13
  273. 00:38:50.202                             : en:Chapter 14
  274. 00:42:53.946                             : en:Chapter 15
  275. 00:43:32.234                             : en:Chapter 16
  276. 00:51:09.608                             : en:Chapter 17
  277. 00:52:08.250                             : en:Chapter 18
  278. 00:54:47.826                             : en:Chapter 19
  279. 00:56:06.446                             : en:Chapter 20
  280. 00:57:58.683                             : en:Chapter 21
  281. 00:58:41.851                             : en:Chapter 22
  282. 01:02:15.565                             : en:Chapter 23
  283. 01:03:21.506                             : en:Chapter 24
  284. 01:05:50.363                             : en:Chapter 25
  285. 01:11:45.551                             : en:Chapter 26
  286. 01:15:54.883                             : en:Chapter 27
  287. 01:19:23.258                             : en:Chapter 28
  288. 01:20:15.060                             : en:Chapter 29
  289. 01:24:14.758                             : en:Chapter 30
  290. 01:25:46.432                             : en:Chapter 31
  291. 01:30:17.787                             : en:Chapter 32
复制代码

机器人总动员 WALL-E.2008.2160p.BluRay.REMUX.HEVC.DTS-HD.MA.TrueHD.7.1.Atmos-FGT 38.40GB-2.png 机器人总动员 WALL-E.2008.2160p.BluRay.REMUX.HEVC.DTS-HD.MA.TrueHD.7.1.Atmos-FGT 38.40GB-3.png 机器人总动员 WALL-E.2008.2160p.BluRay.REMUX.HEVC.DTS-HD.MA.TrueHD.7.1.Atmos-FGT 38.40GB-4.png






回复

使用道具 举报

 成长值: 2440

发表于 2020-2-27 08:53:36 | 显示全部楼层
谢谢楼主无私分享。
回复 支持 反对

使用道具 举报

发表于 2020-2-27 10:13:43 | 显示全部楼层
楼主发贴辛苦了,谢谢楼主分享!我觉得蓝光电影网是注册对了!
回复 支持 反对

使用道具 举报

发表于 2020-2-27 13:14:31 | 显示全部楼层
谢谢分享好片
回复 支持 反对

使用道具 举报

发表于 2020-3-1 23:18:16 | 显示全部楼层

楼主太厉害了!楼主,电影应该很好看我觉得蓝光电影网真是个好地方!
回复 支持 反对

使用道具 举报

懒得打字嘛,点击右侧快捷回复 【右侧内容,后台自定义】
您需要登录后才可以回帖 登录 | 立即加入

本版积分规则

现在加入蓝光电影网,注册一个账号
上个主题 下个主题 快速回复 收藏帖子 返回列表 客服中心 搜索

手机版|小黑屋| 蓝光电影网 |网站地图 

Copyright © 2015-2019 Comsenz Inc.  Template by 蓝光电影论坛 All Rights Reserved.

Powered by 蓝光电影网 X3.4

特别声明:本站所有资源均由网上收集而来,版权归原影音公司所有,如果侵犯了你的权益,请通知我们,我们会及时删除侵权内容.

快速回复 返回顶部 返回列表