找回密码

蓝光电影网

查看: 422|回复: 15

[2160p-WEB] 圣诞欢歌/圣诞颂歌 The.Muppet.Christmas.Carol.1992.iNTERNAL.HDR.2160p.WEB.H265-WATCHER 10.02GB

[复制链接]

 成长值: 25285

发表于 2020-2-24 16:41:29 | 显示全部楼层 |阅读模式
圣诞欢歌/圣诞颂歌 The.Muppet.Christmas.Carol.1992.iNTERNAL.HDR.2160p.WEB.H265-WATCHER 10.02GB-1.png

译  名 圣诞欢歌 / 圣诞颂歌 / 布偶圣诞颂 / 布偶小气神圣诞
片  名 The Muppet Christmas Carol
年  代 1992
产  地 美国
类  别 喜剧 / 音乐 / 歌舞 / 家庭 / 奇幻
语  言 英语
上映日期 1992-12-10
IMDb评分  7.7/10 from 45610 users
IMDb链接  https://www.imdb.com/title/tt0104940
豆瓣评分 8.1/10 from 516 users
豆瓣链接 https://movie.douban.com/subject/1296611/
片  长 85 分钟
导  演 布赖恩 汉森 (Brian Henson)
编  剧 查尔斯 狄更斯 (Charles Dickens) / Jerry Juhl
主  演 Michael Caine
       Dave Goelz
       Donald Austen
       David Alan
       Barclay
       Robbie Barnett


标  签 圣诞 | 美国 | 喜剧 | 美国电影 | 圣诞节 | 布偶 | 儿童 | 电影

简  介  

  《圣诞颂歌》是英国作家查尔斯·狄更斯的小说名篇,主人公史高哲(Scrooge,又译“斯克鲁奇”)是个远近闻名的吝啬鬼,他刻薄、冷漠而又视财如命的形象让人记忆深刻。史高哲经营者一家账房,可是,有一天,他那死去的生意伙伴雅各布的鬼魂出现,改变了一切。
  In this adaptation of the Christmas story narrated by Charles Dickens himself (played by Gonzo the Great) with the occasional commentary of Rizzo the Rat, it is Christmas Eve in 19th century London. The merriment is not shared by Ebenezer Scrooge (Michael Caine), a surly money-lender who is more interested in profit than celebration. So cold to the season of giving is he that his book-keeping staff, including loyal employee Bob Cratchit (Kermit the Frog), has to plead with him just to have the day off work during Christmas by pointing out that Scrooge would have no customers on the holiday and that it would waste coal to sit alone in the office. Scrooge's nephew, Fred, arrives to invite his uncle to Christmas dinner and two gentlemen also come to Scrooge's offices, collecting money in the spirit of the season. Scrooge rebuffs his nephew and complains that it isn't worth looking after the poor, as their deaths will decrease the surplus population. Fred is shocked at his uncle's uncharitable and cold nature, but repeats his invitation, makes his own donation and departs.
  Later that evening, Scrooge finds himself face to face with the spirits of his former business partners, Jacob and Robert Marley (Statler and Waldorf) who have been condemned to shackles in the afterlife as payment for the horrible deeds they committed in life. They warn him that he will share the same fate, only worse, if he doesn't change his ways, and foretell the coming of three spirits throughout the night.
  Mr. Scrooge is first visited by the Ghost of Christmas Past, a child-like spectre who takes Scrooge on a journey back through time to his youth. He recalls his early school days, during which he focused on his studies; the meeting of a young woman named Belle (Meredith Braun), with whom he would later fall in love; and the final parting between Belle and Scrooge, despite Scrooge's protests that he would marry her as soon as he had enough money. Later, Scrooge meets the Ghost of Christmas Present, a large, festive creature with a booming voice who lives only for the here and now. He gives Scrooge a glimpse into the holiday celebration of others, including Bob Cratchit and his family who, although poor, are enjoying Christmas together and reveling in the anticipation of the Christmas goose. The Spirit also shows Scrooge's own family, who aren't above cracking jokes at Scrooge's expense. Later, Scrooge meets the Ghost of Christmas Yet to Come, a silent entity, who reveals the chilling revelation that young Tiny Tim (Robin the Frog) will not survive the coming year, thanks in no small part to the impoverished existence of the Cratchit family. Furthermore, it is revealed that when Scrooge's own time has passed, others will certainly delight in his absence from the world, with local businessmen attending his funeral only for the free food and Scrooge's servants stealing the very clothes he was to have been buried in. It is this final epiphany that jolts Scrooge back into humanity, and makes him vow to celebrate with his fellow man. Scrooge goes about the town spreading good deeds and charity, plans a feast for Bob Cratchit and his kin, and learns to adopt the spirit of Christmas throughout the year.
  1. Video
  2. ID                                       : 1
  3. Format                                   : HEVC
  4. Format/Info                              : High Efficiency Video Coding
  5. Format profile                           : Main High@L4@High
  6. Codec ID                                 : V_MPEGH/ISO/HEVC
  7. Duration                                 : 1 h 26 min
  8. Bit rate                                 : 16.1 Mb/s
  9. Width                                    : 3 840 pixels
  10. Height                                   : 2 160 pixels
  11. Display aspect ratio                     : 16:9
  12. Frame rate mode                          : Constant
  13. Frame rate                               : 23.976 (24000/1001) FPS
  14. Color space                              : YUV
  15. Chroma subsampling                       : 4:2:0
  16. Bit depth                                : 10 bits
  17. Bits/(Pixel*Frame)                       : 0.081
  18. Stream size                              : 9.75 GiB (98%)
  19. Default                                  : Yes
  20. Forced                                   : No
  21. Color range                              : Limited
  22. Color primaries                          : BT.2020
  23. Transfer characteristics                 : PQ
  24. Matrix coefficients                      : BT.2020 non-constant

  25. Audio
  26. ID                                       : 2
  27. Format                                   : E-AC-3
  28. Format/Info                              : Enhanced AC-3
  29. Commercial name                          : Dolby Digital Plus
  30. Codec ID                                 : A_EAC3
  31. Duration                                 : 1 h 26 min
  32. Bit rate mode                            : Constant
  33. Bit rate                                 : 256 kb/s
  34. Channel(s)                               : 6 channels
  35. Channel layout                           : L R C LFE Ls Rs
  36. Sampling rate                            : 48.0 kHz
  37. Frame rate                               : 31.250 FPS (1536 SPF)
  38. Compression mode                         : Lossy
  39. Stream size                              : 159 MiB (2%)
  40. Title                                    : English
  41. Language                                 : English
  42. Service kind                             : Complete Main
  43. Default                                  : Yes
  44. Forced                                   : No
复制代码

圣诞欢歌/圣诞颂歌 The.Muppet.Christmas.Carol.1992.iNTERNAL.HDR.2160p.WEB.H265-WATCHER 10.02GB-2.png 圣诞欢歌/圣诞颂歌 The.Muppet.Christmas.Carol.1992.iNTERNAL.HDR.2160p.WEB.H265-WATCHER 10.02GB-3.png 圣诞欢歌/圣诞颂歌 The.Muppet.Christmas.Carol.1992.iNTERNAL.HDR.2160p.WEB.H265-WATCHER 10.02GB-4.png






回复

使用道具 举报

发表于 2020-2-24 20:18:06 | 显示全部楼层
感谢楼主分享好电影
回复 支持 反对

使用道具 举报

发表于 2020-2-24 20:49:27 | 显示全部楼层
楼主发贴辛苦了,谢谢楼主分享!我觉得蓝光电影网是注册对了!
回复 支持 反对

使用道具 举报

发表于 2020-2-24 22:00:13 | 显示全部楼层

感谢楼主分享好电影
回复 支持 反对

使用道具 举报

发表于 2020-2-25 04:38:37 | 显示全部楼层

楼主,我太崇拜你了!我想我是一天也不能离开蓝光电影网
回复 支持 反对

使用道具 举报

发表于 2020-2-25 09:49:12 | 显示全部楼层
感谢楼主分享好电影
回复 支持 反对

使用道具 举报

发表于 2020-2-25 20:03:13 | 显示全部楼层
楼主发贴辛苦了,谢谢楼主分享!我觉得蓝光电影网是注册对了!
回复 支持 反对

使用道具 举报

发表于 2020-2-25 21:55:20 | 显示全部楼层

这个帖子不回对不起自己!我想我是一天也不能离开蓝光电影网
回复 支持 反对

使用道具 举报

发表于 2020-2-26 01:25:09 | 显示全部楼层
先谢楼主分享
回复 支持 反对

使用道具 举报

发表于 2020-2-26 07:25:30 | 显示全部楼层
楼主发贴辛苦了,谢谢楼主分享!我觉得蓝光电影网是注册对了!
回复 支持 反对

使用道具 举报

懒得打字嘛,点击右侧快捷回复 【右侧内容,后台自定义】
您需要登录后才可以回帖 登录 | 立即加入

本版积分规则

现在加入蓝光电影网,注册一个账号
上个主题 下个主题 快速回复 收藏帖子 返回列表 客服中心 搜索

手机版|小黑屋| 蓝光电影网 |网站地图 

Copyright © 2015-2019 Comsenz Inc.  Template by 蓝光电影论坛 All Rights Reserved.

Powered by 蓝光电影网 X3.4

特别声明:本站所有资源均由网上收集而来,版权归原影音公司所有,如果侵犯了你的权益,请通知我们,我们会及时删除侵权内容.

快速回复 返回顶部 返回列表