找回密码

蓝光电影网

查看: 553|回复: 11

[2160p-WEB] 公主日记/走佬俏公主 The.Princess.Diaries.2001.iNTERNAL.HDR.2160p.WEB.H265-WATCHER 13.61GB

[复制链接]

 成长值: 25360

发表于 2020-2-24 16:40:23 | 显示全部楼层 |阅读模式
公主日记/走佬俏公主 The.Princess.Diaries.2001.iNTERNAL.HDR.2160p.WEB.H265-WATCHER 13.61GB-1.png

译  名 公主日记 / 走佬俏公主 / 麻雀变公主
片  名 The Princess Diaries
年  代 2001
产  地 美国
类  别 喜剧 / 爱情 / 家庭
语  言 英语
上映日期 2001-08-03(美国)
IMDb评分  6.3/10 from 120914 users
IMDb链接  https://www.imdb.com/title/tt0247638
豆瓣评分 7.5/10 from 240410 users
豆瓣链接 https://movie.douban.com/subject/1305065/
片  长 115 分钟
导  演 Garry Marshall
编  剧 Gina Wendkos / Meg Cabot
主  演 安妮·海瑟薇 Anne Hathaway
       朱莉·安德鲁斯 Julie Andrews
       赫克托·埃里仲杜 Hector Elizondo
       希瑟·玛塔拉佐 Heather Matarazzo
       曼迪·摩尔 Mandy Moore
       卡罗琳·古多尔 Caroline Goodall
       罗伯特·斯沃兹曼 Robert Schwartzman
       伊瑞克·冯·迪滕 Erik von Detten
       帕特里克·约翰·弗鲁格 Patrick John Flueger
       肖恩·奥布赖恩 Sean O'Bryan
       吴珊卓 Sandra Oh
       Kathleen Marshall
       Mindy Burbano
       Kimleigh Smith
       Elizabeth Gudenrath


标  签 喜剧 | 美国 | 青春 | AnneHathaway | 公主日记 | 美国电影 | 爱情 | 童话

简  介  

  15岁的高中生米亚(安妮?海瑟薇 饰)与母亲生活在美国,但她十分不自信,也常常遭到同学的嘲笑。就在她16岁生日那天,她与祖母(茱莉?安德鲁 饰)见面后发现这个优雅的女士是欧洲小国吉诺维亚的女王,米亚正是这个国度的公主。刚开始米亚十分不愿,在母亲的调解下米亚的态度才有所缓 和。
  为了可以顺利继承王位,女王不得不对孙女进行一系列的改变,令平时生活便不拘小节的米亚十分困扰,甚至跟好朋友之间也发生了冲突。但米亚的身份被揭露了,她一下子受到了媒体的高度关注。突如其来的一切让米亚想逃避一切,幸好在父亲的日记里,她重拾了自信。米亚成为了公主,也找到了自己想要的爱情。
  1. Video
  2. ID                                       : 1
  3. Format                                   : HEVC
  4. Format/Info                              : High Efficiency Video Coding
  5. Format profile                           : Main High@L4@High
  6. Codec ID                                 : V_MPEGH/ISO/HEVC
  7. Duration                                 : 1 h 56 min
  8. Bit rate                                 : 16.5 Mb/s
  9. Width                                    : 3 840 pixels
  10. Height                                   : 2 160 pixels
  11. Display aspect ratio                     : 16:9
  12. Frame rate mode                          : Constant
  13. Frame rate                               : 23.976 (24000/1001) FPS
  14. Color space                              : YUV
  15. Chroma subsampling                       : 4:2:0
  16. Bit depth                                : 10 bits
  17. Bits/(Pixel*Frame)                       : 0.083
  18. Stream size                              : 13.4 GiB (98%)
  19. Default                                  : Yes
  20. Forced                                   : No
  21. Color range                              : Limited
  22. Color primaries                          : BT.2020
  23. Transfer characteristics                 : PQ
  24. Matrix coefficients                      : BT.2020 non-constant

  25. Audio
  26. ID                                       : 2
  27. Format                                   : E-AC-3
  28. Format/Info                              : Enhanced AC-3
  29. Commercial name                          : Dolby Digital Plus
  30. Codec ID                                 : A_EAC3
  31. Duration                                 : 1 h 56 min
  32. Bit rate mode                            : Constant
  33. Bit rate                                 : 256 kb/s
  34. Channel(s)                               : 6 channels
  35. Channel layout                           : L R C LFE Ls Rs
  36. Sampling rate                            : 48.0 kHz
  37. Frame rate                               : 31.250 FPS (1536 SPF)
  38. Compression mode                         : Lossy
  39. Stream size                              : 213 MiB (2%)
  40. Title                                    : English
  41. Language                                 : English
  42. Service kind                             : Complete Main
  43. Default                                  : Yes
  44. Forced                                   : No
复制代码

公主日记/走佬俏公主 The.Princess.Diaries.2001.iNTERNAL.HDR.2160p.WEB.H265-WATCHER 13.61GB-2.png 公主日记/走佬俏公主 The.Princess.Diaries.2001.iNTERNAL.HDR.2160p.WEB.H265-WATCHER 13.61GB-3.png 公主日记/走佬俏公主 The.Princess.Diaries.2001.iNTERNAL.HDR.2160p.WEB.H265-WATCHER 13.61GB-4.png






回复

使用道具 举报

发表于 2020-2-24 20:34:32 | 显示全部楼层
楼主发贴辛苦了,谢谢楼主分享!我觉得蓝光电影网是注册对了!
回复 支持 反对

使用道具 举报

发表于 2020-2-25 08:45:09 | 显示全部楼层
楼主发贴辛苦了,谢谢楼主分享!我觉得蓝光电影网是注册对了!
回复 支持 反对

使用道具 举报

发表于 2020-2-25 19:38:30 | 显示全部楼层
感谢分享
回复

使用道具 举报

发表于 2020-2-25 20:57:38 | 显示全部楼层

楼主太厉害了!楼主,电影应该很好看我觉得蓝光电影网真是个好地方!
回复 支持 反对

使用道具 举报

发表于 2020-2-25 21:57:09 | 显示全部楼层

这东西我收了!谢谢楼主!蓝光电影网真好!
回复 支持 反对

使用道具 举报

发表于 2020-2-26 00:48:29 | 显示全部楼层
楼主发贴辛苦了,谢谢楼主分享!我觉得蓝光电影网是注册对了!
回复 支持 反对

使用道具 举报

发表于 2020-2-26 06:17:44 | 显示全部楼层

这东西我收了!谢谢楼主!蓝光电影网真好!
回复 支持 反对

使用道具 举报

发表于 2020-2-26 10:54:18 | 显示全部楼层

感谢楼主的无私分享!要想蓝光电影网好 就靠你我他
回复 支持 反对

使用道具 举报

发表于 2020-2-26 14:39:35 | 显示全部楼层

我看不错噢 谢谢楼主!蓝光电影网越来越好!
回复 支持 反对

使用道具 举报

懒得打字嘛,点击右侧快捷回复 【右侧内容,后台自定义】
您需要登录后才可以回帖 登录 | 立即加入

本版积分规则

现在加入蓝光电影网,注册一个账号
上个主题 下个主题 快速回复 收藏帖子 返回列表 客服中心 搜索

手机版|小黑屋| 蓝光电影网 |网站地图 

Copyright © 2015-2019 Comsenz Inc.  Template by 蓝光电影论坛 All Rights Reserved.

Powered by 蓝光电影网 X3.4

特别声明:本站所有资源均由网上收集而来,版权归原影音公司所有,如果侵犯了你的权益,请通知我们,我们会及时删除侵权内容.

快速回复 返回顶部 返回列表