找回密码

蓝光电影网

查看: 431|回复: 6

[2160p-WEB] 谁陷害了兔子罗杰 Who.Framed.Roger.Rabbit.1988.iNTERNAL.HDR.2160p.WEB.H265-WATCHER 12.44GB

[复制链接]

 成长值: 25360

发表于 2020-2-24 16:39:03 | 显示全部楼层 |阅读模式
谁陷害了兔子罗杰 Who.Framed.Roger.Rabbit.1988.iNTERNAL.HDR.2160p.WEB.H265-WATCHER 12.44GB-1.png

译  名 谁陷害了兔子罗杰 / Who Framed Roger Rabbit 3D / 威探闯通关 / 梦城兔福星
片  名 Who Framed Roger Rabbit
年  代 1988
产  地 美国
类  别 喜剧 / 动画 / 冒险
语  言 英语
上映日期 1988-06-22
IMDb评分  7.7/10 from 173817 users
IMDb链接  https://www.imdb.com/title/tt0096438
豆瓣评分 7.7/10 from 14661 users
豆瓣链接 https://movie.douban.com/subject/1297317/
片  长 104 分钟
导  演 Robert Zemeckis
编  剧 Jeffrey Price / Peter S. Seaman
主  演 Bob Hoskins
       Christopher Lloyd
       Joanna Cassidy
       Frank Sinatra
       Kathleen Turner
       Joel Silver


标  签 动画 | 美国 | 喜剧 | 美国电影 | 1988 | 卡通 | 动画片 | 美国动画

简  介  

  在美国洛杉矶有一个专供卡通人物居住的“图恩城”,卡通明星兔子罗杰(Charles Fleischer 配音)怀疑妻子杰西卡(凯瑟琳·特纳 Kathleen Turner 配音)有外遇,拍戏时常常走神,遭到他的搭档娃娃哈曼的奚落。卡通电影公司老板马隆便雇佣私人侦探埃迪(鲍勃·霍斯金斯 Bob Hoskins 配音)去查明情况,并拍下杰西卡偷情的照片,好让罗杰下定决心,斩断情缘,专心投入卡通系列片的拍摄。埃迪因自己的弟弟特迪不久前被“图恩城”的卡通角色暗害,也急于早日追出凶手,便慨然将此事承诺下来。而随着调查的深入,事情并不像埃迪想的那么简单,其中还另有奸情,慨然将此事承诺下来,就不能轻易放弃,埃迪能否找到案件背后的真相呢……
  本片根据加里·沃尔夫的同名畅销小说改编,同时是一部真人和动画相结合的影片。

获奖情况  

  第61届奥斯卡金像奖(1989)
  最佳摄影(提名) 迪恩·康迪
  最佳剪辑 阿瑟·施密特
  最佳视觉效果 理查德·威廉姆斯 / 肯·拉斯顿 / 埃德·琼斯 / George Gibbs
  最佳音效剪辑 查尔斯·L·坎贝尔 / Louis L. Edemann
  最佳音响(提名) John Boyd / Robert Knudson / Tony Dawe / Don Digirolamo
  最佳艺术指导(提名) 艾略特·斯科特 / Peter Howitt
  特别成就奖 理查德·威廉姆斯
  1. Video
  2. ID                                       : 1
  3. Format                                   : HEVC
  4. Format/Info                              : High Efficiency Video Coding
  5. Format profile                           : Main High@L4@High
  6. Codec ID                                 : V_MPEGH/ISO/HEVC
  7. Duration                                 : 1 h 43 min
  8. Bit rate                                 : 16.3 Mb/s
  9. Width                                    : 3 840 pixels
  10. Height                                   : 2 160 pixels
  11. Display aspect ratio                     : 16:9
  12. Frame rate mode                          : Constant
  13. Frame rate                               : 23.976 (24000/1001) FPS
  14. Color space                              : YUV
  15. Chroma subsampling                       : 4:2:0
  16. Bit depth                                : 10 bits
  17. Bits/(Pixel*Frame)                       : 0.082
  18. Stream size                              : 11.8 GiB (95%)
  19. Default                                  : Yes
  20. Forced                                   : No
  21. Color range                              : Limited
  22. Color primaries                          : BT.2020
  23. Transfer characteristics                 : PQ
  24. Matrix coefficients                      : BT.2020 non-constant

  25. Audio
  26. ID                                       : 2
  27. Format                                   : E-AC-3 JOC
  28. Format/Info                              : Enhanced AC-3 with Joint Object Coding
  29. Commercial name                          : Dolby Digital Plus with Dolby Atmos
  30. Codec ID                                 : A_EAC3
  31. Duration                                 : 1 h 43 min
  32. Bit rate mode                            : Constant
  33. Bit rate                                 : 768 kb/s
  34. Channel(s)                               : 6 channels
  35. Channel layout                           : L R C LFE Ls Rs
  36. Sampling rate                            : 48.0 kHz
  37. Frame rate                               : 31.250 FPS (1536 SPF)
  38. Compression mode                         : Lossy
  39. Stream size                              : 571 MiB (4%)
  40. Title                                    : English
  41. Language                                 : English
  42. Service kind                             : Complete Main
  43. Default                                  : Yes
  44. Forced                                   : No
  45. Complexity index                         : 16
  46. Number of dynamic objects                : 15
  47. Bed channel count                        : 1 channel
  48. Bed channel configuration                : LFE
复制代码

谁陷害了兔子罗杰 Who.Framed.Roger.Rabbit.1988.iNTERNAL.HDR.2160p.WEB.H265-WATCHER 12.44GB-2.png 谁陷害了兔子罗杰 Who.Framed.Roger.Rabbit.1988.iNTERNAL.HDR.2160p.WEB.H265-WATCHER 12.44GB-3.png 谁陷害了兔子罗杰 Who.Framed.Roger.Rabbit.1988.iNTERNAL.HDR.2160p.WEB.H265-WATCHER 12.44GB-4.png






回复

使用道具 举报

发表于 2020-2-24 23:02:26 | 显示全部楼层

楼主太厉害了!楼主,电影应该很好看我觉得蓝光电影网真是个好地方!
回复 支持 反对

使用道具 举报

发表于 2020-2-25 07:46:29 | 显示全部楼层

楼主太厉害了!楼主,电影应该很好看我觉得蓝光电影网真是个好地方!
回复 支持 反对

使用道具 举报

 成长值: 580

发表于 2020-2-25 09:12:03 | 显示全部楼层
楼主发贴辛苦了,谢谢楼主分享!我觉得蓝光电影网是注册对了!
回复 支持 反对

使用道具 举报

发表于 2020-2-25 17:59:25 | 显示全部楼层


楼主太厉害了!楼主,电影应该很好看我觉得蓝光电影网真是个好地方!
回复 支持 反对

使用道具 举报

发表于 2020-2-26 17:35:44 | 显示全部楼层
楼主发贴辛苦了,谢谢楼主分享!我觉得蓝光电影网是注册对了!
回复 支持 反对

使用道具 举报

发表于 2020-2-26 22:28:09 | 显示全部楼层
楼主发贴辛苦了,谢谢楼主分享!我觉得蓝光电影网是注册对了!
回复 支持 反对

使用道具 举报

懒得打字嘛,点击右侧快捷回复 【右侧内容,后台自定义】
您需要登录后才可以回帖 登录 | 立即加入

本版积分规则

现在加入蓝光电影网,注册一个账号
上个主题 下个主题 快速回复 收藏帖子 返回列表 客服中心 搜索

手机版|小黑屋| 蓝光电影网 |网站地图 

Copyright © 2015-2019 Comsenz Inc.  Template by 蓝光电影论坛 All Rights Reserved.

Powered by 蓝光电影网 X3.4

特别声明:本站所有资源均由网上收集而来,版权归原影音公司所有,如果侵犯了你的权益,请通知我们,我们会及时删除侵权内容.

快速回复 返回顶部 返回列表