找回密码

蓝光电影网

查看: 518|回复: 8

[2160p-WEB] 美女与野兽/美女与野兽3D Beauty.And.The.Beast.1991.iNTERNAL.HDR.2160p.WEB.H265-WATCHER 10.24GB

[复制链接]

 成长值: 25360

发表于 2020-2-23 23:55:49 | 显示全部楼层 |阅读模式
美女与野兽/美女与野兽3D Beauty.And.The.Beast.1991.iNTERNAL.HDR.2160p.WEB.H265-WATCHER 10.24GB-1.png

译  名 美女与野兽 / 美女与野兽3D
片  名 Beauty and the Beast
年  代 1991
产  地 美国
类  别 喜剧 / 爱情 / 动画 / 歌舞 / 奇幻
语  言 英语 / 法语
上映日期 1991-09-29(纽约电影节) / 1991-11-22(美国) / 2012-01-13(美国)
IMDb评分  8.0/10 from 402293 users
IMDb链接  https://www.imdb.com/title/tt0101414
豆瓣评分 8.4/10 from 126161 users
豆瓣链接 https://movie.douban.com/subject/1297995/
片  长 84分钟
导  演 加里·特洛斯达勒 Gary Trousdale / 柯克·维斯 Kirk Wise
编  剧 琳达·伍尔芙顿 Linda Woolverton / 罗杰·阿勒斯 Roger Allers / 布兰达?查普曼 Brenda Chapman / 伯尼·马丁森 Burny Mattinson / 布瑞恩·皮门托尔 Brian Pimental / 乔·兰福特 Joe Ranft / 凯利·阿斯博瑞 Kelly Asbury / 克里斯·桑德斯 Chris Sanders / 凯文·哈基 Kevin Harkey / 布鲁斯·伍德赛德 Bruce Woodside / 汤姆·埃勒里 Tom Ellery / 罗伯特·伦塞 Robert Lence
主  演 佩吉·奥哈拉 Paige O'Hara
       罗比·本森 Robby Benson
       理查德·怀特 Richard White
       杰里·奥尔巴赫 Jerry Orbach
       戴维·奥格登·施蒂尔斯 David Ogden Stiers
       安吉拉·兰斯伯瑞 Angela Lansbury
       布莱德利·皮尔斯 Bradley Pierce
       雷克斯·埃弗哈特 Rex Everhart
       杰西·科尔蒂 Jesse Corti
       哈尔·史密斯 Hal Smith
       乔·安妮·沃利 Jo Anne Worley
       玛丽·凯·伯格曼 Mary Kay Bergman
       布瑞恩·卡明斯 Brian Cummings
       阿尔文·爱泼斯坦 Alvin Epstein
       托尼·杰 Tony Jay
       亚历克·墨菲 Alec Murphy
       金米·罗伯特森 Kimmy Robertson
       凯特·索西 Kath Soucie
       弗兰克·维尔克 Frank Welker


标  签 动画 | 迪斯尼 | 美国 | 爱情 | 经典 | 美女与野兽 | DISNEY | 动画片

简  介  

  贝儿美丽善良,与老父亲一起住在一个宁静的小村庄里。一次,父亲不小心闯进了野兽的领地,被囚禁在野兽的城堡里。为了救出亲爱的父亲,贝儿只身犯险,答应与野兽同居于古堡而换回了父亲。野兽的城堡华丽而充满奇幻色彩,有充满绅士风度的烛台先生,和蔼亲切的茶壶妈妈,还有可爱的小茶壶宝宝。然而,贝儿生活的并不愉快,一心想念着她的父亲。
  终于,贝儿找到了逃走的机会。可是却遇到了凶狠的狼群。危难关头,野兽及时出现,解救了贝儿,自己却受了伤。贝儿心存感动,细心照顾野兽。相处的过程中,二人互相了解,野兽也被感化,慢慢变得温和,学会去爱。朝夕相处,日生情愫。也许,野兽也可以是英勇的守护骑士,温雅的白马王子。

获奖情况  

  第64届奥斯卡金像奖(1992)
  最佳影片(提名) 唐·翰
  最佳音响(提名) David J. Hudson / Doc Kane / Mel Metcalfe / 特里·波特
  最佳原创配乐 艾伦·曼肯
  最佳原创歌曲 霍华德·阿什曼 / 艾伦·曼肯
  最佳原创歌曲(提名) 霍华德·阿什曼 / 艾伦·曼肯

  第46届英国电影学院奖(1993)
  电影奖 最佳特殊视觉效果(提名) Randy Fullmer
  电影奖 最佳原创音乐(提名) 霍华德·阿什曼 / 艾伦·曼肯

  第20届动画安妮奖(1992)
  最佳动画长片
  最佳个人成就 格兰·基恩
  1. Video
  2. ID                                       : 1
  3. Format                                   : HEVC
  4. Format/Info                              : High Efficiency Video Coding
  5. Format profile                           : Main High@L4@High
  6. Codec ID                                 : V_MPEGH/ISO/HEVC
  7. Duration                                 : 1 h 25 min
  8. Bit rate                                 : 16.3 Mb/s
  9. Width                                    : 3 840 pixels
  10. Height                                   : 2 160 pixels
  11. Display aspect ratio                     : 16:9
  12. Frame rate mode                          : Constant
  13. Frame rate                               : 23.976 (24000/1001) FPS
  14. Color space                              : YUV
  15. Chroma subsampling                       : 4:2:0
  16. Bit depth                                : 10 bits
  17. Bits/(Pixel*Frame)                       : 0.082
  18. Stream size                              : 9.78 GiB (95%)
  19. Default                                  : Yes
  20. Forced                                   : No
  21. Color range                              : Limited
  22. Color primaries                          : BT.2020
  23. Transfer characteristics                 : PQ
  24. Matrix coefficients                      : BT.2020 non-constant

  25. Audio
  26. ID                                       : 2
  27. Format                                   : E-AC-3 JOC
  28. Format/Info                              : Enhanced AC-3 with Joint Object Coding
  29. Commercial name                          : Dolby Digital Plus with Dolby Atmos
  30. Codec ID                                 : A_EAC3
  31. Duration                                 : 1 h 25 min
  32. Bit rate mode                            : Constant
  33. Bit rate                                 : 768 kb/s
  34. Channel(s)                               : 6 channels
  35. Channel layout                           : L R C LFE Ls Rs
  36. Sampling rate                            : 48.0 kHz
  37. Frame rate                               : 31.250 FPS (1536 SPF)
  38. Compression mode                         : Lossy
  39. Stream size                              : 471 MiB (4%)
  40. Title                                    : English
  41. Language                                 : English
  42. Service kind                             : Complete Main
  43. Default                                  : Yes
  44. Forced                                   : No
  45. Complexity index                         : 16
  46. Number of dynamic objects                : 15
  47. Bed channel count                        : 1 channel
  48. Bed channel configuration                : LFE
复制代码

美女与野兽/美女与野兽3D Beauty.And.The.Beast.1991.iNTERNAL.HDR.2160p.WEB.H265-WATCHER 10.24GB-2.png 美女与野兽/美女与野兽3D Beauty.And.The.Beast.1991.iNTERNAL.HDR.2160p.WEB.H265-WATCHER 10.24GB-3.png 美女与野兽/美女与野兽3D Beauty.And.The.Beast.1991.iNTERNAL.HDR.2160p.WEB.H265-WATCHER 10.24GB-4.png






回复

使用道具 举报

 成长值: 2785

发表于 2020-2-24 09:04:46 | 显示全部楼层
太好啦&萬分感謝版主的無私發佈分享%
回复 支持 反对

使用道具 举报

发表于 2020-2-24 12:16:05 | 显示全部楼层
楼主发贴辛苦了,谢谢楼主分享!我觉得蓝光电影网是注册对了!
回复 支持 反对

使用道具 举报

发表于 2020-2-24 12:23:36 | 显示全部楼层
楼主发贴辛苦了,谢谢楼主分享!我觉得蓝光电影网是注册对了!
回复 支持 反对

使用道具 举报

发表于 2020-2-24 14:07:44 | 显示全部楼层

这个帖子不回对不起自己!我想我是一天也不能离开蓝光电影网
回复 支持 反对

使用道具 举报

发表于 2020-2-24 22:20:54 | 显示全部楼层
楼主发贴辛苦了,谢谢楼主分享!我觉得蓝光电影网是注册对了!
回复 支持 反对

使用道具 举报

发表于 2020-2-25 13:14:11 | 显示全部楼层
楼主发贴辛苦了,谢谢楼主分享!我觉得蓝光电影网是注册对了!
回复 支持 反对

使用道具 举报

发表于 2020-2-26 21:21:56 | 显示全部楼层
美女与野兽YY
回复 支持 反对

使用道具 举报

 成长值: 715

发表于 2020-2-26 22:19:44 | 显示全部楼层
楼主发贴辛苦了,谢谢楼主分享!我觉得蓝光电影网是注册对了!
回复 支持 反对

使用道具 举报

懒得打字嘛,点击右侧快捷回复 【右侧内容,后台自定义】
您需要登录后才可以回帖 登录 | 立即加入

本版积分规则

现在加入蓝光电影网,注册一个账号
上个主题 下个主题 快速回复 收藏帖子 返回列表 客服中心 搜索

手机版|小黑屋| 蓝光电影网 |网站地图 

Copyright © 2015-2019 Comsenz Inc.  Template by 蓝光电影论坛 All Rights Reserved.

Powered by 蓝光电影网 X3.4

特别声明:本站所有资源均由网上收集而来,版权归原影音公司所有,如果侵犯了你的权益,请通知我们,我们会及时删除侵权内容.

快速回复 返回顶部 返回列表