找回密码

蓝光电影网

查看: 322|回复: 3

[2160p-WEB] 蒂米·菲列:错已铸成 Timmy.Failure.Mistakes.Were.Made.2020.HDR.2160p.WEB.H265-PETRiFiED 11.74GB

[复制链接]

 成长值: 25360

发表于 2020-2-23 23:53:44 | 显示全部楼层 |阅读模式
蒂米·菲列:错已铸成 Timmy.Failure.Mistakes.Were.Made.2020.HDR.2160p.WEB.H265-PETRiFiED 11.74GB-1.png

译  名 蒂米·菲列:错已铸成 / Timmy Failure / 蒂米·菲悟
片  名 Timmy Failure: Mistakes Were Made
年  代 2020
产  地 美国
类  别 剧情 / 儿童 / 奇幻 / 冒险
语  言 英语
上映日期 2020-01-25(圣丹斯电影节) / 2020-02-07(美国)
IMDb评分  6.3/10 from 575 users
IMDb链接  https://www.imdb.com/title/tt6820324
豆瓣评分 6.6/10 from 110 users
豆瓣链接 https://movie.douban.com/subject/27031097/
片  长 99分钟
导  演 汤姆·麦卡锡 Tom McCarthy
编  剧 汤姆·麦卡锡 Tom McCarthy / 斯蒂芬·帕斯蒂斯 Stephan Pastis
主  演 奥菲利亚·拉维邦德 Ophelia Lovibond
       华莱士·肖恩 Wallace Shawn
       凯尔·柏海莫 Kyle Bornheimer
       温斯洛·费格雷 Winslow Fegley
       克雷格·罗宾森 Craig Robinson
       克洛伊·科尔曼 Chloe Coleman
       Kei
       Allie Dunbar
       Caitlin Weierhauser
       Ruby Matenko
       艾-钱·卡里尔 Ai-Chan Carrier
       Santiago Veizaga
       丹妮·海芙琳 Danni Heverin
       Nicole Anthony
       A. Brian Daniels
       杰夫·桑卡 Jeff Sanca
       杰布·贝里耶 Jeb Berrier
       Jason Rouse


标  签 儿童 | 奇幻 | 迪士尼 | 2020 | 成长 | 美国 | 家庭 | 剧情

简  介  

  该片改编自同名儿童小说,麦卡锡将同原著作者斯蒂芬·帕斯蒂斯共同编剧。该小说讲述一个11岁的小男孩蒂米·菲悟,他是一个毫无头绪,却又自信搞笑的私家侦探机构总裁。而他的搭档是一只想象出的北极熊。
  1. Video
  2. ID                                       : 1
  3. Format                                   : HEVC
  4. Format/Info                              : High Efficiency Video Coding
  5. Format profile                           : Main High@L4@High
  6. HDR format                               : SMPTE ST 2086, HDR10 compatible
  7. Codec ID                                 : V_MPEGH/ISO/HEVC
  8. Duration                                 : 1 h 40 min
  9. Bit rate                                 : 15.5 Mb/s
  10. Width                                    : 3 840 pixels
  11. Height                                   : 2 160 pixels
  12. Display aspect ratio                     : 16:9
  13. Frame rate mode                          : Constant
  14. Frame rate                               : 23.976 (24000/1001) FPS
  15. Color space                              : YUV
  16. Chroma subsampling                       : 4:2:0
  17. Bit depth                                : 10 bits
  18. Bits/(Pixel*Frame)                       : 0.078
  19. Stream size                              : 10.9 GiB (93%)
  20. Language                                 : English
  21. Default                                  : Yes
  22. Forced                                   : No
  23. Color range                              : Limited
  24. Color primaries                          : BT.2020
  25. Transfer characteristics                 : PQ
  26. Matrix coefficients                      : BT.2020 non-constant
  27. Mastering display color primaries        : BT.2020
  28. Mastering display luminance              : min: 0.0001 cd/m2, max: 1000 cd/m2
  29. Maximum Content Light Level              : 954 cd/m2
  30. Maximum Frame-Average Light Level        : 32 cd/m2
  31. Statistics Tags Issue                    : no_variable_data 1970-01-01 00:00:00 / no_variable_data 2010-02-22 21:41:29
  32. FromStats_BitRate                        : 16145159
  33. FromStats_Duration                       : 01:40:22.892000000
  34. FromStats_FrameCount                     : 144405
  35. FromStats_StreamSize                     : 12155068863

  36. Audio
  37. ID                                       : 2
  38. Format                                   : E-AC-3 JOC
  39. Format/Info                              : Enhanced AC-3 with Joint Object Coding
  40. Commercial name                          : Dolby Digital Plus with Dolby Atmos
  41. Codec ID                                 : A_EAC3
  42. Duration                                 : 1 h 40 min
  43. Bit rate mode                            : Constant
  44. Bit rate                                 : 768 kb/s
  45. Channel(s)                               : 6 channels
  46. Channel layout                           : L R C LFE Ls Rs
  47. Sampling rate                            : 48.0 kHz
  48. Frame rate                               : 31.250 FPS (1536 SPF)
  49. Compression mode                         : Lossy
  50. Stream size                              : 551 MiB (5%)
  51. Language                                 : English
  52. Service kind                             : Complete Main
  53. Default                                  : Yes
  54. Forced                                   : No
  55. Statistics Tags Issue                    : no_variable_data 1970-01-01 00:00:00 / no_variable_data 2010-02-22 21:41:29
  56. FromStats_BitRate                        : 446557
  57. FromStats_Duration                       : 01:40:23.008000000
  58. FromStats_FrameCount                     : 188219
  59. FromStats_StreamSize                     : 336202240
  60. Complexity index                         : 16
  61. Number of dynamic objects                : 15
  62. Bed channel count                        : 1 channel
  63. Bed channel configuration                : LFE

  64. Text #1
  65. ID                                       : 3
  66. Format                                   : UTF-8
  67. Codec ID                                 : S_TEXT/UTF8
  68. Codec ID/Info                            : UTF-8 Plain Text
  69. Title                                    : English (SDH)
  70. Language                                 : English
  71. Default                                  : No
  72. Forced                                   : No
  73. Statistics Tags Issue                    : no_variable_data 1970-01-01 00:00:00 / no_variable_data 2010-02-22 21:41:29
  74. FromStats_BitRate                        : 74
  75. FromStats_Duration                       : 01:35:52.455000000
  76. FromStats_FrameCount                     : 1449
  77. FromStats_StreamSize                     : 53657

  78. Text #2
  79. ID                                       : 4
  80. Format                                   : UTF-8
  81. Codec ID                                 : S_TEXT/UTF8
  82. Codec ID/Info                            : UTF-8 Plain Text
  83. Title                                    : Spanish (Latin American)
  84. Language                                 : Spanish
  85. Default                                  : No
  86. Forced                                   : No
  87. Statistics Tags Issue                    : no_variable_data 1970-01-01 00:00:00 / no_variable_data 2010-02-22 21:41:29
  88. FromStats_BitRate                        : 69
  89. FromStats_Duration                       : 01:38:38.955000000
  90. FromStats_FrameCount                     : 1365
  91. FromStats_StreamSize                     : 51181

  92. Text #3
  93. ID                                       : 5
  94. Format                                   : UTF-8
  95. Codec ID                                 : S_TEXT/UTF8
  96. Codec ID/Info                            : UTF-8 Plain Text
  97. Title                                    : French
  98. Language                                 : French
  99. Default                                  : No
  100. Forced                                   : No
  101. Statistics Tags Issue                    : no_variable_data 1970-01-01 00:00:00 / no_variable_data 2010-02-22 21:41:29
  102. FromStats_BitRate                        : 69
  103. FromStats_Duration                       : 01:38:38.955000000
  104. FromStats_FrameCount                     : 1346
  105. FromStats_StreamSize                     : 51772

  106. Text #4
  107. ID                                       : 6
  108. Format                                   : UTF-8
  109. Codec ID                                 : S_TEXT/UTF8
  110. Codec ID/Info                            : UTF-8 Plain Text
  111. Title                                    : Dutch
  112. Language                                 : Dutch
  113. Default                                  : No
  114. Forced                                   : No
  115. Statistics Tags Issue                    : no_variable_data 1970-01-01 00:00:00 / no_variable_data 2010-02-22 21:41:29
  116. FromStats_BitRate                        : 59
  117. FromStats_Duration                       : 01:38:38.955000000
  118. FromStats_FrameCount                     : 1112
  119. FromStats_StreamSize                     : 43942
复制代码

蒂米·菲列:错已铸成 Timmy.Failure.Mistakes.Were.Made.2020.HDR.2160p.WEB.H265-PETRiFiED 11.74GB-2.png 蒂米·菲列:错已铸成 Timmy.Failure.Mistakes.Were.Made.2020.HDR.2160p.WEB.H265-PETRiFiED 11.74GB-3.png 蒂米·菲列:错已铸成 Timmy.Failure.Mistakes.Were.Made.2020.HDR.2160p.WEB.H265-PETRiFiED 11.74GB-4.png






回复

使用道具 举报

发表于 2020-2-24 07:44:05 | 显示全部楼层
楼主发贴辛苦了,谢谢楼主分享!我觉得蓝光电影网是注册对了!
回复 支持 反对

使用道具 举报

发表于 2020-2-24 07:44:38 | 显示全部楼层

楼主太厉害了!楼主,电影应该很好看我觉得蓝光电影网真是个好地方!
回复 支持 反对

使用道具 举报

发表于 2020-2-24 14:24:24 | 显示全部楼层
楼主发贴辛苦了,谢谢楼主分享!
回复 支持 反对

使用道具 举报

懒得打字嘛,点击右侧快捷回复 【右侧内容,后台自定义】
您需要登录后才可以回帖 登录 | 立即加入

本版积分规则

现在加入蓝光电影网,注册一个账号
上个主题 下个主题 快速回复 收藏帖子 返回列表 客服中心 搜索

手机版|小黑屋| 蓝光电影网 |网站地图 

Copyright © 2015-2019 Comsenz Inc.  Template by 蓝光电影论坛 All Rights Reserved.

Powered by 蓝光电影网 X3.4

特别声明:本站所有资源均由网上收集而来,版权归原影音公司所有,如果侵犯了你的权益,请通知我们,我们会及时删除侵权内容.

快速回复 返回顶部 返回列表