找回密码

蓝光电影网

查看: 13693|回复: 327

[剧情] 对不起我们错过了你/对不起错过你 Sorry.We.Missed.You.2019.1080p.BluRay.x264.DTS-HD.MA.5.1-FGT 12.14GB

  [复制链接]

 成长值: 26755

发表于 2020-2-23 23:40:12 | 显示全部楼层 |阅读模式
对不起我们错过了你/对不起错过你 Sorry.We.Missed.You.2019.1080p.BluRay.x264.DTS-HD.MA.5.1-FGT 12.14GB-1.png

译  名 对不起,我们错过了你 / 对不起,错过你(港) / 抱歉我们错过你了(台)
片  名 Sorry We Missed You
年  代 2019
产  地 英国 / 法国 / 比利时
类  别 剧情
语  言 英语
上映日期 2019-05-16(戛纳电影节) / 2019-11-01(英国)
IMDb评分  7.7/10 from 5574 users
IMDb链接  https://www.imdb.com/title/tt8359816
豆瓣评分 8.3/10 from 6453 users
豆瓣链接 https://movie.douban.com/subject/30209084/
片  长 100分钟(戛纳电影节)
导  演 肯·洛奇 Ken Loach
编  剧 保罗·拉弗蒂 Paul Laverty
主  演 克里斯·希钦 Kris Hitchen
       黛比·哈尼伍德 Debbie Honeywood
       瑞斯·斯通 Rhys Stone
       凯蒂·普洛克特  Katie Proctor
       查理·里士满 Charlie Richmond
       史蒂芬·克雷格 Stephen Clegg
       哈瑞特·构斯特 Harriet Ghost
       米奇·麦格雷戈 Micky McGregor
       罗斯·布鲁斯特 Ross Brewster
       朱利安·艾恩 Julian Ions
       希拉·邓克利 Sheila Dunkerley
       马克西·彼得斯 Maxie Peters
       克里斯托弗·约翰·斯莱特 Christopher John Slater
       希瑟·伍德 Heather Wood
       阿尔伯特·邓巴 Albert Dumba
       纳塔利娅·斯通班克斯 Natalia Stonebanks
       乔丹·科拉德 Jordan Collard
       戴夫·特纳 Dave Turner


标  签 英国 | 人生 | 剧情 | 2019 | 现实主义 | 戛纳电影节 | 社会 | 家庭

简  介  

  英国巨匠肯·洛奇一生用镜头为底层呐喊,这位英国巨匠的新片《对不起,我们错过了你》依然关注底层生活,电影讲述一个潦倒的送货司机和他妻子,只能找一些零工或者午夜倒班的工作勉强度日,因为找不到稳定工作被逼到了崩溃的边缘。影片主要角色全部启用非职业演员,是今年最值得期待的现实主义电影之一。

获奖情况  

  第72届戛纳电影节(2019)
  主竞赛单元 金棕榈奖(提名) 肯·洛奇

  第73届英国电影学院奖(2020)
  电影奖 最佳英国影片(提名)

  第22届英国独立电影奖(2019)
  最佳编剧(提名) 保罗·拉弗蒂
  最佳男主角(提名) 克里斯·希钦
  1. Video
  2. ID                                       : 1
  3. Format                                   : AVC
  4. Format/Info                              : Advanced Video Codec
  5. Format profile                           : High@L4
  6. Format settings                          : CABAC / 4 Ref Frames
  7. Format settings, CABAC                   : Yes
  8. Format settings, Reference frames        : 4 frames
  9. Codec ID                                 : V_MPEG4/ISO/AVC
  10. Duration                                 : 1 h 41 min
  11. Bit rate                                 : 13.9 Mb/s
  12. Width                                    : 1 920 pixels
  13. Height                                   : 1 040 pixels
  14. Display aspect ratio                     : 1.85:1
  15. Frame rate mode                          : Constant
  16. Frame rate                               : 23.976 (24000/1001) FPS
  17. Color space                              : YUV
  18. Chroma subsampling                       : 4:2:0
  19. Bit depth                                : 8 bits
  20. Scan type                                : Progressive
  21. Bits/(Pixel*Frame)                       : 0.290
  22. Stream size                              : 9.86 GiB (81%)
  23. Title                                    : Sorry.We.Missed.You.2019.1080p.BluRay.x264.DTS-HD.MA.5.1-FGT
  24. Writing library                          : x264 core 159 r2991 1771b55
  25. Encoding settings                        : cabac=1 / ref=4 / deblock=1:-3:-3 / analyse=0x3:0x113 / me=umh / subme=8 / psy=1 / psy_rd=1.00:0.00 / mixed_ref=1 / me_range=32 / chroma_me=1 / trellis=2 / 8x8dct=1 / cqm=0 / deadzone=21,11 / fast_pskip=1 / chroma_qp_offset=-2 / threads=32 / lookahead_threads=5 / sliced_threads=0 / nr=0 / decimate=1 / interlaced=0 / bluray_compat=0 / constrained_intra=0 / bframes=3 / b_pyramid=2 / b_adapt=2 / b_bias=0 / direct=3 / weightb=1 / open_gop=0 / weightp=2 / keyint=240 / keyint_min=24 / scenecut=40 / intra_refresh=0 / rc_lookahead=50 / rc=2pass / mbtree=1 / bitrate=13902 / ratetol=1.0 / qcomp=0.60 / qpmin=0 / qpmax=69 / qpstep=4 / cplxblur=20.0 / qblur=0.5 / ip_ratio=1.40 / aq=3:0.80
  26. Default                                  : Yes
  27. Forced                                   : No

  28. Audio
  29. ID                                       : 2
  30. Format                                   : DTS XLL
  31. Format/Info                              : Digital Theater Systems
  32. Commercial name                          : DTS-HD Master Audio
  33. Codec ID                                 : A_DTS
  34. Duration                                 : 1 h 41 min
  35. Bit rate mode                            : Variable
  36. Bit rate                                 : 3 207 kb/s
  37. Channel(s)                               : 6 channels
  38. Channel layout                           : C L R Ls Rs LFE
  39. Sampling rate                            : 48.0 kHz
  40. Frame rate                               : 93.750 FPS (512 SPF)
  41. Bit depth                                : 24 bits
  42. Compression mode                         : Lossless
  43. Stream size                              : 2.28 GiB (19%)
  44. Title                                    : Sorry.We.Missed.You.2019.1080p.BluRay.x264.DTS-HD.MA.5.1-FGT
  45. Language                                 : English
  46. Default                                  : Yes
  47. Forced                                   : No

  48. Menu
  49. 00:00:00.000                             : en:Chapter 01
  50. 00:07:53.639                             : en:Chapter 02
  51. 00:15:28.093                             : en:Chapter 03
  52. 00:24:50.238                             : en:Chapter 04
  53. 00:34:50.379                             : en:Chapter 05
  54. 00:42:51.110                             : en:Chapter 06
  55. 00:51:32.297                             : en:Chapter 07
  56. 00:59:25.019                             : en:Chapter 08
  57. 01:06:42.331                             : en:Chapter 09
  58. 01:14:02.104                             : en:Chapter 10
  59. 01:23:29.129                             : en:Chapter 11
  60. 01:34:02.219                             : en:Chapter 12
复制代码

对不起我们错过了你/对不起错过你 Sorry.We.Missed.You.2019.1080p.BluRay.x264.DTS-HD.MA.5.1-FGT 12.14GB-2.png 对不起我们错过了你/对不起错过你 Sorry.We.Missed.You.2019.1080p.BluRay.x264.DTS-HD.MA.5.1-FGT 12.14GB-3.png 对不起我们错过了你/对不起错过你 Sorry.We.Missed.You.2019.1080p.BluRay.x264.DTS-HD.MA.5.1-FGT 12.14GB-4.png






回复

使用道具 举报

发表于 2020-2-24 14:08:31 | 显示全部楼层
哈哈哈哈哈哈哈哈哈哈或或或或或或或或或或或或或或或或
回复 支持 0 反对 1

使用道具 举报

 成长值: 3790

发表于 2020-2-24 00:30:56 | 显示全部楼层
楼主发贴辛苦了,谢谢楼主分享!我觉得蓝光电影网是注册对了!
回复 支持 反对

使用道具 举报

发表于 2020-2-24 00:44:06 | 显示全部楼层
Thanks for sharing
回复 支持 反对

使用道具 举报

发表于 2020-2-24 09:49:47 | 显示全部楼层
谢谢楼主分享
回复 支持 反对

使用道具 举报

发表于 2020-2-24 11:27:42 | 显示全部楼层
楼主发贴辛苦了,谢谢楼主分享!我觉得蓝光电影网是注册对了!
回复 支持 反对

使用道具 举报

发表于 2020-2-24 11:36:00 | 显示全部楼层

这个帖子不回对不起自己!我想我是一天也不能离开蓝光电影网
回复 支持 反对

使用道具 举报

发表于 2020-2-24 11:56:16 | 显示全部楼层

这东西我收了!谢谢楼主!蓝光电影网真好!
回复 支持 反对

使用道具 举报

发表于 2020-2-24 12:04:42 | 显示全部楼层
谢谢楼主分享!我觉得蓝光电影网是注册对了!
回复 支持 反对

使用道具 举报

发表于 2020-2-24 13:33:08 | 显示全部楼层
一部值得思考的电影!
回复 支持 反对

使用道具 举报

懒得打字嘛,点击右侧快捷回复 【右侧内容,后台自定义】
您需要登录后才可以回帖 登录 | 立即加入

本版积分规则

上个主题 下个主题 快速回复 收藏帖子 返回列表 客服中心 搜索
现在加入蓝光电影网,注册一个账号

手机版|小黑屋| 蓝光电影网  |网站地图

Copyright © 2015-2019 Comsenz Inc.  Template by 蓝光电影论坛 All Rights Reserved.

Powered by 蓝光电影网 X3.4

特别声明:本站所有资源均由网上收集而来,版权归原影音公司所有,如果侵犯了你的权益,请通知我们,我们会及时删除侵权内容.

快速回复 返回顶部 返回列表