找回密码

蓝光电影网

查看: 1204|回复: 35

[REMUX.HEVC] 星之彩/异星之彩 Color.Out.of.Space.2019.2160p.BluRay.REMUX.HEVC.SDR.DTS-HD.MA.5.1-FGT 49.02GB

[复制链接]

 成长值: 25360

发表于 2020-2-22 00:13:24 | 显示全部楼层 |阅读模式
星之彩/异星之彩 Color.Out.of.Space.2019.2160p.BluRay.REMUX.HEVC.SDR.DTS-HD.MA.5.1-FGT 49.02GB-1.png

译  名 星之彩 / 异星之彩 / 时空之外的颜色 / 流星溢彩
片  名 Color Out of Space
年  代 2019
产  地 葡萄牙 / 美国 / 马来西亚
类  别 科幻 / 恐怖
语  言 英语
上映日期 2019-09-07(多伦多国际电影节) / 2020-01-24(美国)
IMDb评分  6.3/10 from 6322 users
IMDb链接  https://www.imdb.com/title/tt5073642
豆瓣评分 6.2/10 from 2818 users
豆瓣链接 https://movie.douban.com/subject/30307197/
片  长 111分钟
导  演 理查德·斯坦利 Richard Stanley
编  剧 理查德·斯坦利 Richard Stanley / H·P·洛夫克拉夫特 H.P. Lovecraft / Scarlett Amaris
主  演 尼古拉斯·凯奇 Nicolas Cage
       玛德琳娜·亚瑟 Madeleine Arthur
       艾略特·奈特 Elliot Knight
       乔莉·理查德森 Joely Richardson
       布雷丹·梅耶尔 Brendan Meyer
       汤米·钟 Tommy Chong
       考莉安卡·基尔彻 Q'orianka Kilcher
       朱利安·希威德 Julian Hilliard
       Brett W. Bachman
       Melissa Nearman


标  签 科幻 | 恐怖 | 克苏鲁 | 尼古拉斯凯奇 | 美国 | H.P.洛夫克拉夫特 | 超自然 | 2019

简  介  

  一颗流光溢彩的太空陨石径直坠入新英格兰偏远庄园后,邪恶势力开始暗暗渗透静居于此的加德纳一家。不知不觉中,时间开始膨胀,自然逐渐呈现超凡脱俗的异世色调,而所有鲜亮美丽之物则受其影响纷纷异变腐败。
  本片由南非影人理查德·斯坦利执导,与斯嘉丽·阿马里斯合作改编自H·P·洛夫克拉夫特1927年同名短篇小说《异星之彩/流星溢彩(The Colour Out of Space)》,并由奥斯卡影帝尼古拉斯·凯奇领衔主演。
  1. Video
  2. ID                                       : 1
  3. Format                                   : HEVC
  4. Format/Info                              : High Efficiency Video Coding
  5. Format profile                           : Main High@L4@High
  6. Codec ID                                 : V_MPEGH/ISO/HEVC
  7. Duration                                 : 1 h 50 min
  8. Bit rate                                 : 59.9 Mb/s
  9. Width                                    : 3 840 pixels
  10. Height                                   : 2 160 pixels
  11. Display aspect ratio                     : 16:9
  12. Frame rate mode                          : Constant
  13. Frame rate                               : 23.976 (24000/1001) FPS
  14. Color space                              : YUV
  15. Chroma subsampling                       : 4:2:0
  16. Bit depth                                : 10 bits
  17. Bits/(Pixel*Frame)                       : 0.301
  18. Stream size                              : 46.1 GiB (94%)
  19. Title                                    : Color.Out.of.Space.2019.2160p.REMUX.HEVC.SDR.DTS-HD.MA.5.1-FGT
  20. Language                                 : English
  21. Default                                  : No
  22. Forced                                   : No
  23. Color range                              : Limited
  24. Color primaries                          : BT.709
  25. Transfer characteristics                 : BT.709
  26. Matrix coefficients                      : BT.709

  27. Audio
  28. ID                                       : 2
  29. Format                                   : DTS XLL
  30. Format/Info                              : Digital Theater Systems
  31. Commercial name                          : DTS-HD Master Audio
  32. Codec ID                                 : A_DTS
  33. Duration                                 : 1 h 50 min
  34. Bit rate mode                            : Variable
  35. Bit rate                                 : 3 831 kb/s
  36. Channel(s)                               : 6 channels
  37. Channel layout                           : C L R Ls Rs LFE
  38. Sampling rate                            : 48.0 kHz
  39. Frame rate                               : 93.750 FPS (512 SPF)
  40. Bit depth                                : 24 bits
  41. Compression mode                         : Lossless
  42. Stream size                              : 2.95 GiB (6%)
  43. Title                                    : Color.Out.of.Space.2019.2160p.REMUX.HEVC.SDR.DTS-HD.MA.5.1-FGT
  44. Language                                 : English
  45. Default                                  : Yes
  46. Forced                                   : No

  47. Text #1
  48. ID                                       : 3
  49. Format                                   : UTF-8
  50. Codec ID                                 : S_TEXT/UTF8
  51. Codec ID/Info                            : UTF-8 Plain Text
  52. Duration                                 : 1 h 44 min
  53. Bit rate                                 : 46 b/s
  54. Count of elements                        : 1253
  55. Stream size                              : 35.5 KiB (0%)
  56. Title                                    : English-SRT
  57. Language                                 : English
  58. Default                                  : Yes
  59. Forced                                   : No

  60. Text #2
  61. ID                                       : 4
  62. Format                                   : PGS
  63. Muxing mode                              : zlib
  64. Codec ID                                 : S_HDMV/PGS
  65. Codec ID/Info                            : Picture based subtitle format used on BDs/HD-DVDs
  66. Duration                                 : 1 h 45 min
  67. Bit rate                                 : 22.5 kb/s
  68. Count of elements                        : 2902
  69. Stream size                              : 17.0 MiB (0%)
  70. Title                                    : English-PGS
  71. Language                                 : English
  72. Default                                  : No
  73. Forced                                   : No

  74. Text #3
  75. ID                                       : 5
  76. Format                                   : PGS
  77. Muxing mode                              : zlib
  78. Codec ID                                 : S_HDMV/PGS
  79. Codec ID/Info                            : Picture based subtitle format used on BDs/HD-DVDs
  80. Duration                                 : 1 h 44 min
  81. Bit rate                                 : 18.4 kb/s
  82. Count of elements                        : 2437
  83. Stream size                              : 13.8 MiB (0%)
  84. Title                                    : Spanish-PGS
  85. Language                                 : Spanish
  86. Default                                  : No
  87. Forced                                   : No

  88. Menu
  89. 00:00:00.000                             : en:Chapter 01
  90. 00:15:38.520                             : en:Chapter 02
  91. 00:30:02.091                             : en:Chapter 03
  92. 00:43:30.441                             : en:Chapter 04
  93. 01:00:23.620                             : en:Chapter 05
  94. 01:10:49.495                             : en:Chapter 06
  95. 01:28:30.847                             : en:Chapter 07
  96. 01:46:28.215                             : en:Chapter 08
复制代码

星之彩/异星之彩 Color.Out.of.Space.2019.2160p.BluRay.REMUX.HEVC.SDR.DTS-HD.MA.5.1-FGT 49.02GB-2.png 星之彩/异星之彩 Color.Out.of.Space.2019.2160p.BluRay.REMUX.HEVC.SDR.DTS-HD.MA.5.1-FGT 49.02GB-3.png 星之彩/异星之彩 Color.Out.of.Space.2019.2160p.BluRay.REMUX.HEVC.SDR.DTS-HD.MA.5.1-FGT 49.02GB-4.png






回复

使用道具 举报

发表于 2020-2-22 01:48:15 | 显示全部楼层

这个帖子不回对不起自己!我想我是一天也不能离开蓝光电影网
回复 支持 反对

使用道具 举报

发表于 2020-2-22 09:18:37 | 显示全部楼层
谢谢分享,好东东啊
回复 支持 反对

使用道具 举报

发表于 2020-2-22 10:49:03 | 显示全部楼层

我看不错噢 谢谢楼主!蓝光电影网越来越好!
回复 支持 反对

使用道具 举报

 成长值: 835

发表于 2020-2-22 10:51:19 | 显示全部楼层

其实我一直觉得楼主的品味不错!呵呵!蓝光电影网太棒了!
回复 支持 反对

使用道具 举报

发表于 2020-2-22 11:04:51 | 显示全部楼层

这个帖子不回对不起自己!我想我是一天也不能离开蓝光电影网
回复 支持 反对

使用道具 举报

发表于 2020-2-22 11:30:57 | 显示全部楼层
感谢楼主分享好电影
回复 支持 反对

使用道具 举报

发表于 2020-2-22 11:34:03 | 显示全部楼层
这个帖子不回对不起自己!我想我是一天也不能离开蓝光电影网。
回复 支持 反对

使用道具 举报

发表于 2020-2-22 12:34:07 | 显示全部楼层
谢谢楼主发片。
回复 支持 反对

使用道具 举报

发表于 2020-2-22 12:52:14 | 显示全部楼层
谢谢楼主!蓝光电影网越来越好
回复 支持 反对

使用道具 举报

懒得打字嘛,点击右侧快捷回复 【右侧内容,后台自定义】
您需要登录后才可以回帖 登录 | 立即加入

本版积分规则

现在加入蓝光电影网,注册一个账号
上个主题 下个主题 快速回复 收藏帖子 返回列表 客服中心 搜索

手机版|小黑屋| 蓝光电影网 |网站地图 

Copyright © 2015-2019 Comsenz Inc.  Template by 蓝光电影论坛 All Rights Reserved.

Powered by 蓝光电影网 X3.4

特别声明:本站所有资源均由网上收集而来,版权归原影音公司所有,如果侵犯了你的权益,请通知我们,我们会及时删除侵权内容.

快速回复 返回顶部 返回列表