找回密码

蓝光电影网

查看: 7270|回复: 159

[剧情] 黑水 Dark.Waters.2019.1080p.BluRay.x264-YOL0W 8.75GB

  [复制链接]

 成长值: 25360

发表于 2020-2-21 00:05:08 | 显示全部楼层 |阅读模式
黑水 Dark.Waters.2019.1080p.BluRay.x264-YOL0W 8.75GB-1.png

译  名 黑水 / Dry Run / The Lawyer Who Became DuPont's Worst Nightmare / 演习 / 空转 / 追击黑水真相(港) / 黑暗水域 / 黑水风暴(台)
片  名 Dark Waters
年  代 2019
产  地 美国
类  别 剧情
语  言 英语
上映日期 2019-11-22(美国点映) / 2019-12-06(美国)
IMDb评分  7.6/10 from 12179 users
IMDb链接  https://www.imdb.com/title/tt9071322
豆瓣评分 8.4/10 from 14605 users
豆瓣链接 https://movie.douban.com/subject/30331959/
片  长 126分钟
导  演 托德·海因斯 Todd Haynes
编  剧 纳撒尼尔·里奇 Nathaniel Rich / 马里奥·科雷亚 Mario Correa / 马修·迈克尔·卡纳汉 Matthew Michael Carnahan
主  演 马克·鲁弗洛 Mark Ruffalo
       安妮·海瑟薇 Anne Hathaway
       蒂姆·罗宾斯 Tim Robbins
       比尔·坎普 Bill Camp
       维克多·加博 Victor Garber
       比尔·普尔曼 Bill Pullman
       梅尔·温宁汉姆 Mare Winningham
       威廉·杰克森·哈珀 William Jackson Harper
       路易莎·克劳瑟 Louisa Krause
       凯文·克劳利 Kevin Crowley
       丹尼尔·R·希尔 Daniel R. Hill
       王明 Ming Wang
       西尼·迈尔斯 Sydney Miles
       马克·霍克尔 Marc Hockl
       考特尼·德科斯基 Courtney DeCosky
       斯嘉丽·希克斯 Scarlett Hicks
       布莱恩·加拉格尔 Brian Gallagher
       约翰·纽伯格 John Newberg
       莱曼·陈 Lyman Chen
       丹妮丝·达·维拉 Denise Dal Vera
       杰弗里·格罗弗 Jeffrey Grover
       泰里·克拉克 Teri Clark
       杰夫·福尔克 Geoff Falk
       温·赖克特 Wynn Reichert
       乔恩·奥斯贝克 Jon Osbeck
       理查德·杜恩 Richard Doone
       迈克尔·海尼 Michael Haney
       大卫·皮廷格 David Pittinger


标  签 真实事件改编 | 美国 | 环保 | 社会 | 剧情 | 法律 | 污染 | 2019

简  介  

  基于Nathaniel Rich在《纽约时报》上发表的文章《The Lawyer Who Became DuPont’s Worst Nightmare》,围绕罗伯特·比洛特展开,他担任辩护律师长达8年之久,他对化工巨头杜邦公司提起了环境诉讼,这场官司揭露了几十年来杜邦公司化学污染的历史。

获奖情况  

  第24届金卫星奖(2020)
  电影部门 剧情片最佳男主角(提名) 马克·鲁弗洛
  电影部门 最佳改编剧本(提名) 马修·迈克尔·卡纳汉 / 马里奥·科雷亚 / 纳撒尼尔·里奇
  1. Video
  2. ID                                       : 1
  3. Format                                   : AVC
  4. Format/Info                              : Advanced Video Codec
  5. Format profile                           : High@L4
  6. Format settings                          : CABAC / 5 Ref Frames
  7. Format settings, CABAC                   : Yes
  8. Format settings, Reference frames        : 5 frames
  9. Codec ID                                 : V_MPEG4/ISO/AVC
  10. Duration                                 : 2 h 7 min
  11. Bit rate                                 : 8 336 kb/s
  12. Width                                    : 1 920 pixels
  13. Height                                   : 808 pixels
  14. Display aspect ratio                     : 2.40:1
  15. Frame rate mode                          : Constant
  16. Frame rate                               : 23.976 (24000/1001) FPS
  17. Color space                              : YUV
  18. Chroma subsampling                       : 4:2:0
  19. Bit depth                                : 8 bits
  20. Scan type                                : Progressive
  21. Bits/(Pixel*Frame)                       : 0.224
  22. Stream size                              : 7.40 GiB (85%)
  23. Writing library                          : x264 core 159 r2991 1771b55
  24. Encoding settings                        : cabac=1 / ref=5 / deblock=1:-3:-3 / analyse=0x3:0x133 / me=umh / subme=7 / psy=1 / psy_rd=1.00:0.00 / mixed_ref=1 / me_range=16 / chroma_me=1 / trellis=2 / 8x8dct=1 / cqm=0 / deadzone=21,11 / fast_pskip=1 / chroma_qp_offset=-2 / threads=16 / lookahead_threads=2 / sliced_threads=0 / nr=0 / decimate=1 / interlaced=0 / bluray_compat=0 / constrained_intra=0 / bframes=3 / b_pyramid=2 / b_adapt=2 / b_bias=0 / direct=3 / weightb=1 / open_gop=0 / weightp=2 / keyint=250 / keyint_min=23 / scenecut=40 / intra_refresh=0 / rc_lookahead=50 / rc=2pass / mbtree=1 / bitrate=8336 / ratetol=1.0 / qcomp=0.60 / qpmin=0 / qpmax=69 / qpstep=4 / cplxblur=20.0 / qblur=0.5 / ip_ratio=1.40 / aq=1:1.00
  25. Language                                 : English
  26. Default                                  : Yes
  27. Forced                                   : No
  28. Color range                              : Limited
  29. Matrix coefficients                      : BT.709

  30. Audio
  31. ID                                       : 2
  32. Format                                   : DTS
  33. Format/Info                              : Digital Theater Systems
  34. Codec ID                                 : A_DTS
  35. Duration                                 : 2 h 7 min
  36. Bit rate mode                            : Constant
  37. Bit rate                                 : 1 509 kb/s
  38. Channel(s)                               : 6 channels
  39. Channel layout                           : C L R Ls Rs LFE
  40. Sampling rate                            : 48.0 kHz
  41. Frame rate                               : 93.750 FPS (512 SPF)
  42. Bit depth                                : 24 bits
  43. Compression mode                         : Lossy
  44. Stream size                              : 1.34 GiB (15%)
  45. Title                                    : English
  46. Language                                 : English
  47. Default                                  : Yes
  48. Forced                                   : No

  49. Menu
  50. 00:00:00.000                             : en:Chapter 01
  51. 00:10:08.191                             : en:Chapter 02
  52. 00:18:18.431                             : en:Chapter 03
  53. 00:28:20.449                             : en:Chapter 04
  54. 00:36:48.957                             : en:Chapter 05
  55. 00:44:45.892                             : en:Chapter 06
  56. 00:50:17.056                             : en:Chapter 07
  57. 01:04:17.395                             : en:Chapter 08
  58. 01:08:46.080                             : en:Chapter 09
  59. 01:17:23.639                             : en:Chapter 10
  60. 01:23:51.151                             : en:Chapter 11
  61. 01:25:32.002                             : en:Chapter 12
  62. 01:31:40.995                             : en:Chapter 13
  63. 01:36:14.978                             : en:Chapter 14
  64. 01:38:55.763                             : en:Chapter 15
  65. 01:42:26.724                             : en:Chapter 16
  66. 01:45:11.180                             : en:Chapter 17
  67. 01:50:32.084                             : en:Chapter 18
  68. 02:00:16.584                             : en:Chapter 19
  69. 02:02:02.565                             : en:Chapter 20
复制代码

黑水 Dark.Waters.2019.1080p.BluRay.x264-YOL0W 8.75GB-2.png






回复

使用道具 举报

发表于 2020-2-21 00:36:56 | 显示全部楼层
Thanks for sharing
回复 支持 1 反对 0

使用道具 举报

发表于 2020-2-21 09:01:43 | 显示全部楼层
楼主发贴辛苦了,谢谢楼主分享!我觉得蓝光电影网是注册对了!
回复 支持 反对

使用道具 举报

发表于 2020-2-21 12:50:50 | 显示全部楼层
感谢楼主!支持交流!!!!
回复 支持 反对

使用道具 举报

发表于 2020-2-21 13:18:51 | 显示全部楼层
This is quite nice.
回复 支持 反对

使用道具 举报

发表于 2020-2-21 16:43:13 | 显示全部楼层
楼主发贴辛苦了,谢谢楼主分享!我觉得蓝光电影网是注册对了!
回复 支持 反对

使用道具 举报

发表于 2020-2-21 19:25:33 | 显示全部楼层
謝謝樓主分享
回复 支持 反对

使用道具 举报

发表于 2020-2-21 20:34:09 | 显示全部楼层

这东西我收了!谢谢楼主!蓝光电影网真好!
回复 支持 反对

使用道具 举报

发表于 2020-2-21 20:48:08 | 显示全部楼层

楼主,我太崇拜你了!我想我是一天也不能离开蓝光电影网
回复 支持 反对

使用道具 举报

 成长值: 1105

发表于 2020-2-22 09:52:35 | 显示全部楼层
很好的资源,感谢楼主了。
回复 支持 反对

使用道具 举报

懒得打字嘛,点击右侧快捷回复 【右侧内容,后台自定义】
您需要登录后才可以回帖 登录 | 立即加入

本版积分规则

现在加入蓝光电影网,注册一个账号
上个主题 下个主题 快速回复 收藏帖子 返回列表 客服中心 搜索

手机版|小黑屋| 蓝光电影网 |网站地图 

Copyright © 2015-2019 Comsenz Inc.  Template by 蓝光电影论坛 All Rights Reserved.

Powered by 蓝光电影网 X3.4

特别声明:本站所有资源均由网上收集而来,版权归原影音公司所有,如果侵犯了你的权益,请通知我们,我们会及时删除侵权内容.

快速回复 返回顶部 返回列表