找回密码

蓝光电影网

查看: 1169|回复: 12

[REMUX.HEVC] 星际迷航3:超越星辰/星际迷航13:超越 Star.Trek.Beyond.2016.2160p.BluRay.REMUX.HEVC.DTS-HD.MA.TrueHD.7.1.Atmos-FGT 57.39GB

[复制链接]

 成长值: 27925

发表于 2020-2-14 23:51:15 | 显示全部楼层 |阅读模式
星际迷航3:超越星辰/星际迷航13:超越 Star.Trek.Beyond.2016.2160p.BluRay.REMUX.HEVC.DTS-HD.MA.TrueHD.7.1.Atmos-FGT 57.39GB-1.jpg
◎译  名 星际迷航3:超越星辰 / 星际迷航13:超越 / 星际旅行13:超越太空 / 星空奇遇记13:超域时空 / 星际争霸战13:浩瀚无垠 / 星舰奇航记13 / 星舰迷航记13 / Star Trek XIII / Star Trek 13 / Star Trek Into Oblivion
◎片  名 星际迷航3:超越星辰 Star Trek Beyond
◎年  代 2016
◎国  家 美国
◎类  别 动作 / 科幻 / 冒险
◎语  言 英语
◎上映日期 2016-09-02(中国大陆) / 2016-07-22(美国)
◎IMDb评分  7.1/10 from 182,308 users
◎IMDb链接  http://www.imdb.com/title/tt2660888/
◎豆瓣评分 7.3/10 from 91196 users
◎豆瓣链接 https://movie.douban.com/subject/22939161/
◎片  长 122分钟(中国大陆/美国)
◎导  演 林诣彬
◎主  演 克里斯·派恩 Chris Pine
      扎克瑞·昆图 Zachary Quinto
      佐伊·索尔达娜 Zoe Saldana
      西蒙·佩吉 Simon Pegg
      安东·叶利钦 Anton Yelchin
      伊德里斯·艾尔巴 Idris Elba
      索菲亚·波多拉 Sofia Boutella
      卡尔·厄本 Karl Urban
      索瑞·安达斯鲁 Shohreh Aghdashloo
      约翰·赵 John Cho
      迪普·罗伊 Deep Roy
      莉迪亚·威尔逊 Lydia Wilson
      乔·塔斯利姆 Joe Taslim
      约瑟夫·盖特 Joseph Gatt
      卡洛·安切洛蒂 Carlo Ancelotti
      亚当·迪马克 Adam DiMarco
      梅丽莎·罗斯伯格 Melissa Roxburgh
      阿什丽·艾德纳 Ashley Edner
      贾森·马修·史密斯 Jason Matthew Smith

◎简  介 

  柯克船长(克里斯·派恩 Chris Pine 饰)和企业号的船员们来到了银河系中未知的一个区域,开始完成他们5年的任务——探索新世界,寻找新物种。却在途中滞留异星,遭遇了当地种族追杀,他们必须找到方法离开这个星球。

◎获奖情况 

  第89届奥斯卡金像奖 (2017)
  最佳化妆与发型设计(提名) Joel Harlow /  理查德·阿朗索

  第15届美国视觉效果协会奖 (2017)
  最佳电影模型(提名)

  第22届美国评论家选择电影奖 (2016)
  最佳化妆(提名)
  最佳科幻/恐怖片(提名)

  第3届豆瓣电影年度榜单 (2016)
  9月最受关注电影(提名)

  1. Video
  2. ID                                       : 1
  3. Format                                   : HEVC
  4. Format/Info                              : High Efficiency Video Coding
  5. Format profile                           : Main 10@L5.1@High
  6. Codec ID                                 : V_MPEGH/ISO/HEVC
  7. Duration                                 : 2 h 2 min
  8. Bit rate                                 : 55.0 Mb/s
  9. Width                                    : 3 840 pixels
  10. Height                                   : 2 160 pixels
  11. Display aspect ratio                     : 16:9
  12. Frame rate mode                          : Constant
  13. Frame rate                               : 23.976 (24000/1001) FPS
  14. Color space                              : YUV
  15. Chroma subsampling                       : 4:2:0 (Type 2)
  16. Bit depth                                : 10 bits
  17. Bits/(Pixel*Frame)                       : 0.277
  18. Stream size                              : 47.0GB (82%)
  19. Title                                    : Star.Trek.Beyond.2016.2160p.BluRay.REMUX.HEVC.DTS-HD.MA.TrueHD.7.1.Atmos-FGT
  20. Writing library                          : ATEME Titan File 3.7.6 (4.7.6.101)
  21. Default                                  : Yes
  22. Forced                                   : No
  23. Color range                              : Limited
  24. Color primaries                          : BT.2020
  25. Transfer characteristics                 : PQ
  26. Matrix coefficients                      : BT.2020 non-constant
  27. Mastering display color primaries        : R: x=0.680000 y=0.320000, G: x=0.265000 y=0.690000, B: x=0.150000 y=0.060000, White point: x=0.312700 y=0.329000
  28. Mastering display luminance              : min: 0.0050 cd/m2, max: 1000.0000 cd/m2

  29. Audio #1
  30. ID                                       : 2
  31. Format                                   : TrueHD
  32. Format profile                           : TrueHD+Atmos / TrueHD
  33. Codec ID                                 : A_TRUEHD
  34. Duration                                 : 2 h 2 min
  35. Bit rate mode                            : Variable
  36. Bit rate                                 : 4 367 kb/s
  37. Maximum bit rate                         : 7 641 kb/s
  38. Channel(s)                               : Object Based / 8 channels
  39. Channel positions                        : Object Based / Front: L C R, Side: L R, Back: L R, LFE
  40. Sampling rate                            :  / 48.0 kHz
  41. Frame rate                               : 1 200.000 FPS (40 SPF)
  42. Compression mode                         : Lossless
  43. Delay relative to video                  : 32 ms
  44. Stream size                              : 3.73GB (7%)
  45. Title                                    : Star.Trek.Beyond.2016.2160p.BluRay.REMUX.HEVC.DTS-HD.MA.TrueHD.7.1.Atmos-FGT
  46. Language                                 : English
  47. Default                                  : Yes
  48. Forced                                   : No

  49. Audio #2
  50. ID                                       : 3
  51. Format                                   : DTS
  52. Format/Info                              : Digital Theater Systems
  53. Format profile                           : MA / Core
  54. Codec ID                                 : A_DTS
  55. Duration                                 : 2 h 2 min
  56. Bit rate mode                            : Variable / Constant
  57. Bit rate                                 : 3 840 kb/s / 1 509 kb/s
  58. Channel(s)                               : 8 channels / 6 channels
  59. Channel positions                        : Front: L C R, Side: L R, Back: L R, LFE / Front: L C R, Side: L R, LFE
  60. Sampling rate                            : 48.0 kHz
  61. Frame rate                               : 93.750 FPS (512 SPF)
  62. Bit depth                                : 24 bits
  63. Compression mode                         : Lossless / Lossy
  64. Stream size                              : 3.23GB (6%)
  65. Title                                    : Star.Trek.Beyond.2016.2160p.BluRay.REMUX.HEVC.DTS-HD.MA.TrueHD.7.1.Atmos-FGT
  66. Language                                 : English
  67. Default                                  : No
  68. Forced                                   : No

  69. Audio #3
  70. ID                                       : 4
  71. Format                                   : AC-3
  72. Format/Info                              : Audio Coding 3
  73. Codec ID                                 : A_AC3
  74. Duration                                 : 2 h 2 min
  75. Bit rate mode                            : Constant
  76. Bit rate                                 : 640 kb/s
  77. Channel(s)                               : 6 channels
  78. Channel positions                        : Front: L C R, Side: L R, LFE
  79. Sampling rate                            : 48.0 kHz
  80. Frame rate                               : 31.250 FPS (1536 SPF)
  81. Bit depth                                : 16 bits
  82. Compression mode                         : Lossy
  83. Delay relative to video                  : 31 ms
  84. Stream size                              : 560 MiB (1%)
  85. Title                                    : Star.Trek.Beyond.2016.2160p.BluRay.REMUX.HEVC.DTS-HD.MA.TrueHD.7.1.Atmos-FGT
  86. Language                                 : English
  87. Service kind                             : Complete Main
  88. Default                                  : No
  89. Forced                                   : No

  90. Audio #4
  91. ID                                       : 5
  92. Format                                   : AC-3
  93. Format/Info                              : Audio Coding 3
  94. Codec ID                                 : A_AC3
  95. Duration                                 : 2 h 2 min
  96. Bit rate mode                            : Constant
  97. Bit rate                                 : 640 kb/s
  98. Channel(s)                               : 6 channels
  99. Channel positions                        : Front: L C R, Side: L R, LFE
  100. Sampling rate                            : 48.0 kHz
  101. Frame rate                               : 31.250 FPS (1536 SPF)
  102. Bit depth                                : 16 bits
  103. Compression mode                         : Lossy
  104. Stream size                              : 560 MiB (1%)
  105. Title                                    : Star.Trek.Beyond.2016.2160p.BluRay.REMUX.HEVC.DTS-HD.MA.TrueHD.7.1.Atmos-FGT
  106. Language                                 : German
  107. Service kind                             : Complete Main
  108. Default                                  : No
  109. Forced                                   : No

  110. Audio #5
  111. ID                                       : 6
  112. Format                                   : AC-3
  113. Format/Info                              : Audio Coding 3
  114. Codec ID                                 : A_AC3
  115. Duration                                 : 2 h 2 min
  116. Bit rate mode                            : Constant
  117. Bit rate                                 : 640 kb/s
  118. Channel(s)                               : 6 channels
  119. Channel positions                        : Front: L C R, Side: L R, LFE
  120. Sampling rate                            : 48.0 kHz
  121. Frame rate                               : 31.250 FPS (1536 SPF)
  122. Bit depth                                : 16 bits
  123. Compression mode                         : Lossy
  124. Stream size                              : 560 MiB (1%)
  125. Title                                    : Star.Trek.Beyond.2016.2160p.BluRay.REMUX.HEVC.DTS-HD.MA.TrueHD.7.1.Atmos-FGT
  126. Language                                 : English
  127. Service kind                             : Complete Main
  128. Default                                  : No
  129. Forced                                   : No

  130. Audio #6
  131. ID                                       : 7
  132. Format                                   : AC-3
  133. Format/Info                              : Audio Coding 3
  134. Codec ID                                 : A_AC3
  135. Duration                                 : 2 h 2 min
  136. Bit rate mode                            : Constant
  137. Bit rate                                 : 640 kb/s
  138. Channel(s)                               : 6 channels
  139. Channel positions                        : Front: L C R, Side: L R, LFE
  140. Sampling rate                            : 48.0 kHz
  141. Frame rate                               : 31.250 FPS (1536 SPF)
  142. Bit depth                                : 16 bits
  143. Compression mode                         : Lossy
  144. Stream size                              : 560 MiB (1%)
  145. Title                                    : Star.Trek.Beyond.2016.2160p.BluRay.REMUX.HEVC.DTS-HD.MA.TrueHD.7.1.Atmos-FGT
  146. Language                                 : Spanish
  147. Service kind                             : Complete Main
  148. Default                                  : No
  149. Forced                                   : No

  150. Audio #7
  151. ID                                       : 8
  152. Format                                   : AC-3
  153. Format/Info                              : Audio Coding 3
  154. Codec ID                                 : A_AC3
  155. Duration                                 : 2 h 2 min
  156. Bit rate mode                            : Constant
  157. Bit rate                                 : 640 kb/s
  158. Channel(s)                               : 6 channels
  159. Channel positions                        : Front: L C R, Side: L R, LFE
  160. Sampling rate                            : 48.0 kHz
  161. Frame rate                               : 31.250 FPS (1536 SPF)
  162. Bit depth                                : 16 bits
  163. Compression mode                         : Lossy
  164. Stream size                              : 560 MiB (1%)
  165. Title                                    : Star.Trek.Beyond.2016.2160p.BluRay.REMUX.HEVC.DTS-HD.MA.TrueHD.7.1.Atmos-FGT
  166. Language                                 : French
  167. Service kind                             : Complete Main
  168. Default                                  : No
  169. Forced                                   : No

  170. Audio #8
  171. ID                                       : 9
  172. Format                                   : AC-3
  173. Format/Info                              : Audio Coding 3
  174. Codec ID                                 : A_AC3
  175. Duration                                 : 2 h 2 min
  176. Bit rate mode                            : Constant
  177. Bit rate                                 : 640 kb/s
  178. Channel(s)                               : 6 channels
  179. Channel positions                        : Front: L C R, Side: L R, LFE
  180. Sampling rate                            : 48.0 kHz
  181. Frame rate                               : 31.250 FPS (1536 SPF)
  182. Bit depth                                : 16 bits
  183. Compression mode                         : Lossy
  184. Stream size                              : 560 MiB (1%)
  185. Title                                    : Star.Trek.Beyond.2016.2160p.BluRay.REMUX.HEVC.DTS-HD.MA.TrueHD.7.1.Atmos-FGT
  186. Language                                 : Italian
  187. Service kind                             : Complete Main
  188. Default                                  : No
  189. Forced                                   : No

  190. Text #1
  191. ID                                       : 10
  192. Format                                   : PGS
  193. Muxing mode                              : zlib
  194. Codec ID                                 : S_HDMV/PGS
  195. Codec ID/Info                            : Picture based subtitle format used on BDs/HD-DVDs
  196. Duration                                 : 1 h 51 min
  197. Bit rate                                 : 31.8 kb/s
  198. Count of elements                        : 2532
  199. Stream size                              : 25.4 MiB (0%)
  200. Title                                    : English-PGS
  201. Language                                 : English
  202. Default                                  : Yes
  203. Forced                                   : No

  204. Text #2
  205. ID                                       : 11
  206. Format                                   : PGS
  207. Muxing mode                              : zlib
  208. Codec ID                                 : S_HDMV/PGS
  209. Codec ID/Info                            : Picture based subtitle format used on BDs/HD-DVDs
  210. Duration                                 : 2 h 0 min
  211. Bit rate                                 : 24.3 kb/s
  212. Count of elements                        : 1852
  213. Stream size                              : 21.0 MiB (0%)
  214. Title                                    : Danish-PGS
  215. Language                                 : Danish
  216. Default                                  : No
  217. Forced                                   : No

  218. Text #3
  219. ID                                       : 12
  220. Format                                   : PGS
  221. Muxing mode                              : zlib
  222. Codec ID                                 : S_HDMV/PGS
  223. Codec ID/Info                            : Picture based subtitle format used on BDs/HD-DVDs
  224. Duration                                 : 2 h 0 min
  225. Bit rate                                 : 31.9 kb/s
  226. Count of elements                        : 2600
  227. Stream size                              : 27.6 MiB (0%)
  228. Title                                    : German-PGS
  229. Language                                 : German
  230. Default                                  : No
  231. Forced                                   : No

  232. Text #4
  233. ID                                       : 13
  234. Format                                   : PGS
  235. Muxing mode                              : zlib
  236. Codec ID                                 : S_HDMV/PGS
  237. Codec ID/Info                            : Picture based subtitle format used on BDs/HD-DVDs
  238. Duration                                 : 2 h 0 min
  239. Bit rate                                 : 29.0 kb/s
  240. Count of elements                        : 2452
  241. Stream size                              : 25.0 MiB (0%)
  242. Title                                    : Spanish-PGS
  243. Language                                 : Spanish
  244. Default                                  : No
  245. Forced                                   : No

  246. Text #5
  247. ID                                       : 14
  248. Format                                   : PGS
  249. Muxing mode                              : zlib
  250. Codec ID                                 : S_HDMV/PGS
  251. Codec ID/Info                            : Picture based subtitle format used on BDs/HD-DVDs
  252. Duration                                 : 2 h 0 min
  253. Bit rate                                 : 24.4 kb/s
  254. Count of elements                        : 2420
  255. Stream size                              : 21.1 MiB (0%)
  256. Title                                    : French-PGS
  257. Language                                 : French
  258. Default                                  : No
  259. Forced                                   : No

  260. Text #6
  261. ID                                       : 15
  262. Format                                   : PGS
  263. Muxing mode                              : zlib
  264. Codec ID                                 : S_HDMV/PGS
  265. Codec ID/Info                            : Picture based subtitle format used on BDs/HD-DVDs
  266. Duration                                 : 2 h 0 min
  267. Bit rate                                 : 27.9 kb/s
  268. Count of elements                        : 2344
  269. Stream size                              : 24.1 MiB (0%)
  270. Title                                    : Italian-PGS
  271. Language                                 : Italian
  272. Default                                  : No
  273. Forced                                   : No

  274. Text #7
  275. ID                                       : 16
  276. Format                                   : PGS
  277. Muxing mode                              : zlib
  278. Codec ID                                 : S_HDMV/PGS
  279. Codec ID/Info                            : Picture based subtitle format used on BDs/HD-DVDs
  280. Duration                                 : 2 h 0 min
  281. Bit rate                                 : 25.5 kb/s
  282. Count of elements                        : 2220
  283. Stream size                              : 22.1 MiB (0%)
  284. Title                                    : Dutch-PGS
  285. Language                                 : Dutch
  286. Default                                  : No
  287. Forced                                   : No

  288. Text #8
  289. ID                                       : 17
  290. Format                                   : PGS
  291. Muxing mode                              : zlib
  292. Codec ID                                 : S_HDMV/PGS
  293. Codec ID/Info                            : Picture based subtitle format used on BDs/HD-DVDs
  294. Duration                                 : 2 h 0 min
  295. Bit rate                                 : 26.4 kb/s
  296. Count of elements                        : 2350
  297. Stream size                              : 22.8 MiB (0%)
  298. Title                                    : Norwegian-PGS
  299. Language                                 : Norwegian
  300. Default                                  : No
  301. Forced                                   : No

  302. Text #9
  303. ID                                       : 18
  304. Format                                   : PGS
  305. Muxing mode                              : zlib
  306. Codec ID                                 : S_HDMV/PGS
  307. Codec ID/Info                            : Picture based subtitle format used on BDs/HD-DVDs
  308. Duration                                 : 2 h 0 min
  309. Bit rate                                 : 27.4 kb/s
  310. Count of elements                        : 2594
  311. Stream size                              : 23.7 MiB (0%)
  312. Title                                    : Finnish-PGS
  313. Language                                 : Finnish
  314. Default                                  : No
  315. Forced                                   : No

  316. Text #10
  317. ID                                       : 19
  318. Format                                   : PGS
  319. Muxing mode                              : zlib
  320. Codec ID                                 : S_HDMV/PGS
  321. Codec ID/Info                            : Picture based subtitle format used on BDs/HD-DVDs
  322. Duration                                 : 2 h 0 min
  323. Bit rate                                 : 26.6 kb/s
  324. Count of elements                        : 2352
  325. Stream size                              : 23.0 MiB (0%)
  326. Title                                    : Swedish-PGS
  327. Language                                 : Swedish
  328. Default                                  : No
  329. Forced                                   : No

  330. Text #11
  331. ID                                       : 20
  332. Format                                   : PGS
  333. Muxing mode                              : zlib
  334. Codec ID                                 : S_HDMV/PGS
  335. Codec ID/Info                            : Picture based subtitle format used on BDs/HD-DVDs
  336. Duration                                 : 1 h 51 min
  337. Bit rate                                 : 36.9 kb/s
  338. Count of elements                        : 3054
  339. Stream size                              : 29.5 MiB (0%)
  340. Title                                    : English-FORCED-PGS
  341. Language                                 : English
  342. Default                                  : No
  343. Forced                                   : No

  344. Menu
  345. 00:00:00.000                             : en:Chapter 1
  346. 00:08:26.547                             : en:Chapter 2
  347. 00:16:11.637                             : en:Chapter 3
  348. 00:32:38.289                             : en:Chapter 4
  349. 00:42:16.367                             : en:Chapter 5
  350. 00:52:22.264                             : en:Chapter 6
  351. 00:59:50.628                             : en:Chapter 7
  352. 01:12:05.529                             : en:Chapter 8
  353. 01:22:34.449                             : en:Chapter 9
  354. 01:33:00.950                             : en:Chapter 10
  355. 01:40:33.318                             : en:Chapter 11
  356. 01:47:38.994                             : en:Chapter 12
  357. 01:52:32.662                             : en:Chapter 13
  358. 01:55:41.351                             : en:Chapter 14
复制代码


星际迷航3:超越星辰/星际迷航13:超越 Star.Trek.Beyond.2016.2160p.BluRay.REMUX.HEVC.DTS-HD.MA.TrueHD.7.1.Atmos-FGT 57.39GB-2.png 星际迷航3:超越星辰/星际迷航13:超越 Star.Trek.Beyond.2016.2160p.BluRay.REMUX.HEVC.DTS-HD.MA.TrueHD.7.1.Atmos-FGT 57.39GB-3.png 星际迷航3:超越星辰/星际迷航13:超越 Star.Trek.Beyond.2016.2160p.BluRay.REMUX.HEVC.DTS-HD.MA.TrueHD.7.1.Atmos-FGT 57.39GB-4.png 星际迷航3:超越星辰/星际迷航13:超越 Star.Trek.Beyond.2016.2160p.BluRay.REMUX.HEVC.DTS-HD.MA.TrueHD.7.1.Atmos-FGT 57.39GB-5.png 星际迷航3:超越星辰/星际迷航13:超越 Star.Trek.Beyond.2016.2160p.BluRay.REMUX.HEVC.DTS-HD.MA.TrueHD.7.1.Atmos-FGT 57.39GB-6.png 星际迷航3:超越星辰/星际迷航13:超越 Star.Trek.Beyond.2016.2160p.BluRay.REMUX.HEVC.DTS-HD.MA.TrueHD.7.1.Atmos-FGT 57.39GB-7.png




回复

使用道具 举报

 成长值: 4675

发表于 2020-2-15 09:59:09 | 显示全部楼层
谢谢楼主无私分享。
回复 支持 反对

使用道具 举报

发表于 2020-2-15 10:20:23 | 显示全部楼层

这东西我收了!谢谢楼主!蓝光电影网真好!
回复 支持 反对

使用道具 举报

发表于 2020-2-15 10:28:09 | 显示全部楼层

楼主发贴辛苦了,谢谢楼主分享!我觉得蓝光电影网是注册对了!
回复 支持 反对

使用道具 举报

发表于 2020-2-15 13:09:35 | 显示全部楼层
谢谢发片。
回复

使用道具 举报

发表于 2020-2-15 13:23:54 | 显示全部楼层
zhuandianbi
回复 支持 反对

使用道具 举报

发表于 2020-2-15 14:55:49 | 显示全部楼层
谢谢分享好片
回复 支持 反对

使用道具 举报

 成长值: 1330

发表于 2020-2-15 17:17:40 | 显示全部楼层

既然你诚信诚意的推荐了,那我就勉为其难的看看吧!蓝光电影网不走平凡路。
回复 支持 反对

使用道具 举报

已抛锚 成长值: 3260

发表于 2020-2-15 22:28:38 | 显示全部楼层
楼主发贴辛苦了,谢谢楼主分享!我觉得蓝光电影网是注册对了!
回复 支持 反对

使用道具 举报

发表于 2020-2-18 06:25:45 | 显示全部楼层

谢谢楼主分享好的片源。
回复 支持 反对

使用道具 举报

懒得打字嘛,点击右侧快捷回复 【右侧内容,后台自定义】
您需要登录后才可以回帖 登录 | 立即加入

本版积分规则

现在加入蓝光电影网,注册一个账号
上个主题 下个主题 快速回复 收藏帖子 返回列表 客服中心 搜索

手机版|小黑屋| 蓝光电影网 |网站地图 

Copyright © 2015-2019 Comsenz Inc.  Template by 蓝光电影论坛 All Rights Reserved.

Powered by 蓝光电影网 X3.4

特别声明:本站所有资源均由网上收集而来,版权归原影音公司所有,如果侵犯了你的权益,请通知我们,我们会及时删除侵权内容.

快速回复 返回顶部 返回列表