找回密码

蓝光电影网

查看: 511|回复: 7

[8bit.SDR] 星际迷航3:超越星辰 2016.2160p.BluRay.x264.8bit.SDR.DTS-SWTYBLZ 42GB

[复制链接]

 成长值: 27925

发表于 2020-2-14 23:44:26 | 显示全部楼层 |阅读模式
星际迷航3:超越星辰 2016.2160p.BluRay.x264.8bit.SDR.DTS-SWTYBLZ 42GB-1.jpg

译  名 星际迷航3:超越星辰/星际迷航13:超越/星际旅行13:超越太空/星空奇遇记13:超域时空(港)/星际争霸战13:浩瀚无垠(台)/星舰奇航记13/星舰迷航记13

片  名 Star Trek Beyond

年  代 2016

产  地 美国

类  别 动作/科幻/冒险

语  言 英语

上映日期 2016-07-22(美国)/2016-09-02(中国大陆)

IMDb评分  7.1/10 from 182,318 users

IMDb链接  http://www.imdb.com/title/tt2660888/

豆瓣评分 7.3/10 from 91,197 users

豆瓣链接 https://movie.douban.com/subject/22939161/

片  长 122分钟(中国大陆/美国)

导  演 林诣彬 Justin Lin

主  演 克里斯·派恩 Chris Pine

      扎克瑞·昆图 Zachary Quinto

      佐伊·索尔达娜 Zoe Saldana

      西蒙·佩吉 Simon Pegg

      安东·叶利钦 Anton Yelchin

      伊德里斯·艾尔巴 Idris Elba

      索菲亚·波多拉 Sofia Boutella

      卡尔·厄本 Karl Urban

      索瑞·安达斯鲁 Shohreh Aghdashloo

      约翰·赵 John Cho

      迪普·罗伊 Deep Roy

      莉迪亚·威尔逊 Lydia Wilson

      乔·塔斯利姆 Joe Taslim

      约瑟夫·盖特 Joseph Gatt

      卡洛·安切洛蒂 Carlo Ancelotti

      亚当·迪马克 Adam DiMarco

      梅丽莎·罗斯伯格 Melissa Roxburgh

      阿什丽·艾德纳 Ashley Edner

      贾森·马修·史密斯 Jason Matthew Smith




简  介




  柯克船长(克里斯·派恩 Chris Pine 饰)和企业号的船员们来到了银河系中未知的一个区域,开始完成他们5年的任务——探索新世界,寻找新物种。却在途中滞留异星,遭遇了当地种族追杀,他们必须找到方法离开这个星球。




获奖情况




  第89届奥斯卡金像奖  (2017)

  最佳化妆与发型设计(提名) Joel Harlow / 理查德·阿朗索




  第15届美国视觉效果协会奖  (2017)

  最佳电影模型(提名)




  第22届美国评论家选择电影奖  (2016)

  最佳化妆(提名)

  最佳科幻/恐怖片(提名)




  第3届豆瓣电影年度榜单  (2016)

  9月最受关注电影(提名)





  1. Video
  2. ID                                       : 1
  3. Format                                   : AVC
  4. Format/Info                              : Advanced Video Codec
  5. Format profile                           : High@L4
  6. Format settings                          : CABAC / 5 Ref Frames
  7. Format settings, CABAC                   : Yes
  8. Format settings, RefFrames               : 5 frames
  9. Codec ID                                 : V_MPEG4/ISO/AVC
  10. Duration                                 : 2 h 2 min
  11. Bit rate                                 : 40.1 Mb/s
  12. Width                                    : 3 840 pixels
  13. Height                                   : 1 606 pixels
  14. Display aspect ratio                     : 2.40:1
  15. Frame rate mode                          : Constant
  16. Frame rate                               : 23.976 (24000/1001) FPS
  17. Color space                              : YUV
  18. Chroma subsampling                       : 4:2:0
  19. Bit depth                                : 8 bits
  20. Scan type                                : Progressive
  21. Bits/(Pixel*Frame)                       : 0.271
  22. Stream size                              : 34.2 GiB (82%)
  23. Title                                    : Star.Trek.Beyond.2016.2160p.BluRay.x264.8bit.SDR.DTS-HD.MA.TrueHD.7.1.Atmos-SWTYBLZ
  24. Writing library                          : x264 core 148 r2748 97eaef2
  25. Encoding settings                        : cabac=1 / ref=5 / deblock=1:-1:-1 / analyse=0x3:0x113 / me=umh / subme=10 / psy=1 / psy_rd=1.00:0.15 / mixed_ref=1 / me_range=48 / chroma_me=1 / trellis=2 / 8x8dct=1 / cqm=0 / deadzone=21,11 / fast_pskip=1 / chroma_qp_offset=-3 / threads=50 / lookahead_threads=4 / sliced_threads=0 / nr=0 / decimate=0 / interlaced=0 / bluray_compat=0 / constrained_intra=0 / bframes=3 / b_pyramid=2 / b_adapt=2 / b_bias=0 / direct=3 / weightb=1 / open_gop=0 / weightp=2 / keyint=250 / keyint_min=23 / scenecut=40 / intra_refresh=0 / rc_lookahead=50 / rc=crf / mbtree=1 / crf=18.0 / qcomp=0.60 / qpmin=0 / qpmax=69 / qpstep=4 / ip_ratio=1.40 / aq=1:1.00
  26. Language                                 : English
  27. Default                                  : Yes
  28. Forced                                   : No

  29. Audio #1
  30. ID                                       : 2
  31. Format                                   : TrueHD
  32. Format profile                           : TrueHD+Atmos / TrueHD
  33. Codec ID                                 : A_TRUEHD
  34. Duration                                 : 2 h 2 min
  35. Bit rate mode                            : Variable
  36. Bit rate                                 : 4 367 kb/s
  37. Maximum bit rate                         : 7 641 kb/s
  38. Channel(s)                               : Object Based / 8 channels
  39. Channel positions                        : Object Based / Front: L C R, Side: L R, Back: L R, LFE
  40. Sampling rate                            :  / 48.0 kHz
  41. Frame rate                               : 1 200.000 FPS (40 SPF)
  42. Compression mode                         : Lossless
  43. Delay relative to video                  : 32 ms
  44. Stream size                              : 3.73 GiB (9%)
  45. Title                                    : Star.Trek.Beyond.2016.2160p.BluRay.x264.8bit.SDR.DTS-HD.MA.TrueHD.7.1.Atmos-SWTYBLZ
  46. Language                                 : English
  47. Default                                  : Yes
  48. Forced                                   : No

  49. Audio #2
  50. ID                                       : 3
  51. Format                                   : DTS
  52. Format/Info                              : Digital Theater Systems
  53. Format profile                           : MA / Core
  54. Codec ID                                 : A_DTS
  55. Duration                                 : 2 h 2 min
  56. Bit rate mode                            : Variable / Constant
  57. Bit rate                                 : 3 840 kb/s / 1 509 kb/s
  58. Channel(s)                               : 8 channels / 6 channels
  59. Channel positions                        : Front: L C R, Side: L R, Back: L R, LFE / Front: L C R, Side: L R, LFE
  60. Sampling rate                            : 48.0 kHz
  61. Frame rate                               : 93.750 FPS (512 SPF)
  62. Bit depth                                : 24 bits
  63. Compression mode                         : Lossless / Lossy
  64. Stream size                              : 3.23 GiB (8%)
  65. Title                                    : Star.Trek.Beyond.2016.2160p.BluRay.x264.8bit.SDR.DTS-HD.MA.TrueHD.7.1.Atmos-SWTYBLZ
  66. Language                                 : English
  67. Default                                  : No
  68. Forced                                   : No

  69. Audio #3
  70. ID                                       : 4
  71. Format                                   : AC-3
  72. Format/Info                              : Audio Coding 3
  73. Codec ID                                 : A_AC3
  74. Duration                                 : 2 h 2 min
  75. Bit rate mode                            : Constant
  76. Bit rate                                 : 640 kb/s
  77. Channel(s)                               : 6 channels
  78. Channel positions                        : Front: L C R, Side: L R, LFE
  79. Sampling rate                            : 48.0 kHz
  80. Frame rate                               : 31.250 FPS (1536 SPF)
  81. Bit depth                                : 16 bits
  82. Compression mode                         : Lossy
  83. Delay relative to video                  : 31 ms
  84. Stream size                              : 560 MiB (1%)
  85. Title                                    : Star.Trek.Beyond.2016.2160p.BluRay.x264.8bit.SDR.DTS-HD.MA.TrueHD.7.1.Atmos-SWTYBLZ
  86. Language                                 : English
  87. Service kind                             : Complete Main
  88. Default                                  : No
  89. Forced                                   : No

  90. Text #1
  91. ID                                       : 5
  92. Format                                   : UTF-8
  93. Codec ID                                 : S_TEXT/UTF8
  94. Codec ID/Info                            : UTF-8 Plain Text
  95. Duration                                 : 1 h 51 min
  96. Bit rate                                 : 51 b/s
  97. Count of elements                        : 1300
  98. Stream size                              : 42.5 KiB (0%)
  99. Title                                    : English-SRT
  100. Language                                 : English
  101. Default                                  : Yes
  102. Forced                                   : No

  103. Text #2
  104. ID                                       : 6
  105. Format                                   : PGS
  106. Muxing mode                              : zlib
  107. Codec ID                                 : S_HDMV/PGS
  108. Codec ID/Info                            : Picture based subtitle format used on BDs/HD-DVDs
  109. Duration                                 : 1 h 51 min
  110. Bit rate                                 : 31.8 kb/s
  111. Count of elements                        : 2532
  112. Stream size                              : 25.4 MiB (0%)
  113. Title                                    : English-PGS
  114. Language                                 : English
  115. Default                                  : No
  116. Forced                                   : No

  117. Text #3
  118. ID                                       : 7
  119. Format                                   : PGS
  120. Muxing mode                              : zlib
  121. Codec ID                                 : S_HDMV/PGS
  122. Codec ID/Info                            : Picture based subtitle format used on BDs/HD-DVDs
  123. Duration                                 : 2 h 0 min
  124. Bit rate                                 : 24.3 kb/s
  125. Count of elements                        : 1852
  126. Stream size                              : 21.0 MiB (0%)
  127. Title                                    : Danish-PGS
  128. Language                                 : Danish
  129. Default                                  : No
  130. Forced                                   : No

  131. Text #4
  132. ID                                       : 8
  133. Format                                   : PGS
  134. Muxing mode                              : zlib
  135. Codec ID                                 : S_HDMV/PGS
  136. Codec ID/Info                            : Picture based subtitle format used on BDs/HD-DVDs
  137. Duration                                 : 2 h 0 min
  138. Bit rate                                 : 31.9 kb/s
  139. Count of elements                        : 2600
  140. Stream size                              : 27.6 MiB (0%)
  141. Title                                    : German-PGS
  142. Language                                 : German
  143. Default                                  : No
  144. Forced                                   : No

  145. Text #5
  146. ID                                       : 9
  147. Format                                   : PGS
  148. Muxing mode                              : zlib
  149. Codec ID                                 : S_HDMV/PGS
  150. Codec ID/Info                            : Picture based subtitle format used on BDs/HD-DVDs
  151. Duration                                 : 2 h 0 min
  152. Bit rate                                 : 29.0 kb/s
  153. Count of elements                        : 2452
  154. Stream size                              : 25.0 MiB (0%)
  155. Title                                    : Spanish-PGS
  156. Language                                 : Spanish
  157. Default                                  : No
  158. Forced                                   : No

  159. Text #6
  160. ID                                       : 10
  161. Format                                   : PGS
  162. Muxing mode                              : zlib
  163. Codec ID                                 : S_HDMV/PGS
  164. Codec ID/Info                            : Picture based subtitle format used on BDs/HD-DVDs
  165. Duration                                 : 2 h 0 min
  166. Bit rate                                 : 24.4 kb/s
  167. Count of elements                        : 2420
  168. Stream size                              : 21.1 MiB (0%)
  169. Title                                    : French-PGS
  170. Language                                 : French
  171. Default                                  : No
  172. Forced                                   : No

  173. Text #7
  174. ID                                       : 11
  175. Format                                   : PGS
  176. Muxing mode                              : zlib
  177. Codec ID                                 : S_HDMV/PGS
  178. Codec ID/Info                            : Picture based subtitle format used on BDs/HD-DVDs
  179. Duration                                 : 2 h 0 min
  180. Bit rate                                 : 27.9 kb/s
  181. Count of elements                        : 2344
  182. Stream size                              : 24.1 MiB (0%)
  183. Title                                    : Italian-PGS
  184. Language                                 : Italian
  185. Default                                  : No
  186. Forced                                   : No

  187. Text #8
  188. ID                                       : 12
  189. Format                                   : PGS
  190. Muxing mode                              : zlib
  191. Codec ID                                 : S_HDMV/PGS
  192. Codec ID/Info                            : Picture based subtitle format used on BDs/HD-DVDs
  193. Duration                                 : 2 h 0 min
  194. Bit rate                                 : 25.5 kb/s
  195. Count of elements                        : 2220
  196. Stream size                              : 22.1 MiB (0%)
  197. Title                                    : Dutch-PGS
  198. Language                                 : Dutch
  199. Default                                  : No
  200. Forced                                   : No

  201. Text #9
  202. ID                                       : 13
  203. Format                                   : PGS
  204. Muxing mode                              : zlib
  205. Codec ID                                 : S_HDMV/PGS
  206. Codec ID/Info                            : Picture based subtitle format used on BDs/HD-DVDs
  207. Duration                                 : 2 h 0 min
  208. Bit rate                                 : 26.4 kb/s
  209. Count of elements                        : 2350
  210. Stream size                              : 22.8 MiB (0%)
  211. Title                                    : Norwegian-PGS
  212. Language                                 : Norwegian
  213. Default                                  : No
  214. Forced                                   : No

  215. Text #10
  216. ID                                       : 14
  217. Format                                   : PGS
  218. Muxing mode                              : zlib
  219. Codec ID                                 : S_HDMV/PGS
  220. Codec ID/Info                            : Picture based subtitle format used on BDs/HD-DVDs
  221. Duration                                 : 2 h 0 min
  222. Bit rate                                 : 27.4 kb/s
  223. Count of elements                        : 2594
  224. Stream size                              : 23.7 MiB (0%)
  225. Title                                    : Finnish-PGS
  226. Language                                 : Finnish
  227. Default                                  : No
  228. Forced                                   : No

  229. Text #11
  230. ID                                       : 15
  231. Format                                   : PGS
  232. Muxing mode                              : zlib
  233. Codec ID                                 : S_HDMV/PGS
  234. Codec ID/Info                            : Picture based subtitle format used on BDs/HD-DVDs
  235. Duration                                 : 2 h 0 min
  236. Bit rate                                 : 26.6 kb/s
  237. Count of elements                        : 2352
  238. Stream size                              : 23.0 MiB (0%)
  239. Title                                    : Swedish-PGS
  240. Language                                 : Swedish
  241. Default                                  : No
  242. Forced                                   : No

  243. Text #12
  244. ID                                       : 16
  245. Format                                   : PGS
  246. Muxing mode                              : zlib
  247. Codec ID                                 : S_HDMV/PGS
  248. Codec ID/Info                            : Picture based subtitle format used on BDs/HD-DVDs
  249. Duration                                 : 1 h 51 min
  250. Bit rate                                 : 36.9 kb/s
  251. Count of elements                        : 3054
  252. Stream size                              : 29.5 MiB (0%)
  253. Title                                    : English-FORCED-PGS
  254. Language                                 : English
  255. Default                                  : No
  256. Forced                                   : No

  257. Menu
  258. 00:00:00.000                             : en:Chapter 1
  259. 00:08:26.547                             : en:Chapter 2
  260. 00:16:11.637                             : en:Chapter 3
  261. 00:32:38.289                             : en:Chapter 4
  262. 00:42:16.367                             : en:Chapter 5
  263. 00:52:22.264                             : en:Chapter 6
  264. 00:59:50.628                             : en:Chapter 7
  265. 01:12:05.529                             : en:Chapter 8
  266. 01:22:34.449                             : en:Chapter 9
  267. 01:33:00.950                             : en:Chapter 10
  268. 01:40:33.318                             : en:Chapter 11
  269. 01:47:38.994                             : en:Chapter 12
  270. 01:52:32.662                             : en:Chapter 13
  271. 01:55:41.351                             : en:Chapter 14
  272. <p>
  273. </p>
复制代码





星际迷航3:超越星辰 2016.2160p.BluRay.x264.8bit.SDR.DTS-SWTYBLZ 42GB-2.png 星际迷航3:超越星辰 2016.2160p.BluRay.x264.8bit.SDR.DTS-SWTYBLZ 42GB-3.png
星际迷航3:超越星辰 2016.2160p.BluRay.x264.8bit.SDR.DTS-SWTYBLZ 42GB-4.png 星际迷航3:超越星辰 2016.2160p.BluRay.x264.8bit.SDR.DTS-SWTYBLZ 42GB-5.png





回复

使用道具 举报

发表于 2020-2-15 00:31:35 | 显示全部楼层

这东西我收了!谢谢楼主!蓝光电影网真好!
回复 支持 反对

使用道具 举报

发表于 2020-2-15 09:30:18 | 显示全部楼层
楼主发贴辛苦了,谢谢楼主分享!我觉得蓝光电影网是注册对了!
回复 支持 反对

使用道具 举报

发表于 2020-2-15 11:14:39 | 显示全部楼层

感谢楼主的无私分享!要想蓝光电影网好 就靠你我他
回复 支持 反对

使用道具 举报

发表于 2020-2-17 13:03:34 | 显示全部楼层
感谢楼主分享
回复 支持 反对

使用道具 举报

发表于 2020-2-18 10:04:56 | 显示全部楼层

这东西我收了!谢谢楼主!蓝光电影网真好!
回复 支持 反对

使用道具 举报

发表于 2020-2-18 12:52:05 | 显示全部楼层
楼主发贴辛苦了,谢谢楼主分享!我觉得蓝光电影网是注册对了!
回复 支持 反对

使用道具 举报

 成长值: 3385

发表于 2020-2-28 15:43:56 | 显示全部楼层
下载不了呀
回复 支持 反对

使用道具 举报

懒得打字嘛,点击右侧快捷回复 【右侧内容,后台自定义】
您需要登录后才可以回帖 登录 | 立即加入

本版积分规则

现在加入蓝光电影网,注册一个账号
上个主题 下个主题 快速回复 收藏帖子 返回列表 客服中心 搜索

手机版|小黑屋| 蓝光电影网 |网站地图 

Copyright © 2015-2019 Comsenz Inc.  Template by 蓝光电影论坛 All Rights Reserved.

Powered by 蓝光电影网 X3.4

特别声明:本站所有资源均由网上收集而来,版权归原影音公司所有,如果侵犯了你的权益,请通知我们,我们会及时删除侵权内容.

快速回复 返回顶部 返回列表