找回密码

蓝光电影网

查看: 1238|回复: 14

[2160p-WEB] 致所有我曾爱过的男孩2 To.All.the.Boys.P.S.I.Still.Love.You.2020.2160p.NF.WEBRip.DDP5.1.x264-AJP69 21.65GB

[复制链接]

 成长值: 27925

发表于 2020-2-14 20:56:56 | 显示全部楼层 |阅读模式
致所有我曾爱过的男孩2 To.All.the.Boys.P.S.I.Still.Love.You.2020.2160p.NF.WEBRip.DDP5.1.x264-AJP69 21.65GB-1.png

译  名 致所有我曾爱过的男孩2 / To All the Boys I've Loved Before 2 / 爱的过去进行式2(台) / 致所有我曾爱过的男孩:P.S.我仍然爱你 / 致所有的男孩:附言,我仍然爱你
片  名 To All The Boys: P.S. I Still Love You
年  代 2020
产  地 美国
类  别 剧情 / 爱情
语  言 英语
上映日期 2020-02-12(美国)
IMDb评分  7.0/10 from 6 users
IMDb链接  https://www.imdb.com/title/tt9354842
豆瓣评分 0/10 from 0 users
豆瓣链接 https://movie.douban.com/subject/30395081/
导  演 迈克尔·费穆格纳瑞 Michael Fimognari
编  剧 索菲娅·阿尔瓦雷斯 Sofia Alvarez / 珍妮·汉 Jenny Han
主  演 诺亚·琴蒂内奥 Noah Centineo
       拉娜·康多 Lana Condor
       乔丹·费舍 Jordan Fisher
       贾娜尔·帕里希 Janel Parrish
       罗斯·巴特勒 Ross Butler
       约翰·考伯特 John Corbett
       埃米利娅·巴拉纳茨 Emilija Baranac
       安娜·卡思卡特 Anna Cathcart
       特雷佐·马霍洛 Trezzo Mahoro
       吉尔·莫里森 Jill Morrison
       霍兰德·泰勒 Holland Taylor
       莎拉尤·拉奧 Sarayu Blue


标  签 老夫的少女心 | 青春 | Netflix | 爱情 | 校园 | 美国电影 | 电影 | 成长

简  介  

  迈克尔·费穆格纳瑞(Michael Fimognari)将执导Netflix影片[致所有我曾爱过的男孩2]。迈克尔曾为首部影片的摄影指导,首部导演苏珊·约翰逊将担任执行制片人。首部主演拉娜·康多、诺亚·琴蒂内奥、安娜·卡思卡特、 贾娜尔·帕里希、约翰·考伯特回归出演。首部编剧索菲娅·阿尔瓦雷斯正打造剧本。
  1. Video
  2. ID                                       : 1
  3. Format                                   : AVC
  4. Format/Info                              : Advanced Video Codec
  5. Format profile                           : High@L4
  6. Format settings                          : CABAC / 7 Ref Frames
  7. Format settings, CABAC                   : Yes
  8. Format settings, Reference frames        : 7 frames
  9. Codec ID                                 : V_MPEG4/ISO/AVC
  10. Duration                                 : 1 h 42 min
  11. Bit rate                                 : 29.7 Mb/s
  12. Width                                    : 3 840 pixels
  13. Height                                   : 1 608 pixels
  14. Display aspect ratio                     : 2.40:1
  15. Frame rate mode                          : Constant
  16. Frame rate                               : 23.976 (24000/1001) FPS
  17. Color space                              : YUV
  18. Chroma subsampling                       : 4:2:0
  19. Bit depth                                : 8 bits
  20. Scan type                                : Progressive
  21. Bits/(Pixel*Frame)                       : 0.201
  22. Stream size                              : 21.2 GiB (98%)
  23. Writing library                          : x264 core 155 r2901 7d0ff22
  24. Encoding settings                        : cabac=1 / ref=7 / deblock=1:-3:-3 / analyse=0x3:0x133 / me=umh / subme=10 / psy=1 / psy_rd=1.00:0.00 / mixed_ref=1 / me_range=48 / chroma_me=1 / trellis=2 / 8x8dct=1 / cqm=0 / deadzone=21,11 / fast_pskip=0 / chroma_qp_offset=-2 / threads=12 / lookahead_threads=2 / sliced_threads=0 / nr=0 / decimate=0 / interlaced=0 / bluray_compat=0 / constrained_intra=0 / bframes=8 / b_pyramid=2 / b_adapt=2 / b_bias=0 / direct=3 / weightb=1 / open_gop=0 / weightp=2 / keyint=250 / keyint_min=23 / scenecut=40 / intra_refresh=0 / rc=crf / mbtree=0 / crf=17.0 / qcomp=0.60 / qpmin=0 / qpmax=69 / qpstep=4 / ip_ratio=1.40 / pb_ratio=1.30 / aq=3:0.70
  25. Default                                  : Yes
  26. Forced                                   : No

  27. Audio
  28. ID                                       : 2
  29. Format                                   : E-AC-3
  30. Format/Info                              : Enhanced AC-3
  31. Commercial name                          : Dolby Digital Plus
  32. Codec ID                                 : A_EAC3
  33. Duration                                 : 1 h 42 min
  34. Bit rate mode                            : Constant
  35. Bit rate                                 : 640 kb/s
  36. Channel(s)                               : 6 channels
  37. Channel layout                           : L R C LFE Ls Rs
  38. Sampling rate                            : 48.0 kHz
  39. Frame rate                               : 31.250 FPS (1536 SPF)
  40. Compression mode                         : Lossy
  41. Stream size                              : 467 MiB (2%)
  42. Title                                    : English
  43. Language                                 : English
  44. Service kind                             : Complete Main
  45. Default                                  : Yes
  46. Forced                                   : No

  47. Text #1
  48. ID                                       : 3
  49. Format                                   : UTF-8
  50. Codec ID                                 : S_TEXT/UTF8
  51. Codec ID/Info                            : UTF-8 Plain Text
  52. Duration                                 : 1 h 40 min
  53. Bit rate                                 : 79 b/s
  54. Count of elements                        : 1680
  55. Stream size                              : 58.6 KiB (0%)
  56. Language                                 : English
  57. Default                                  : No
  58. Forced                                   : No

  59. Text #2
  60. ID                                       : 4
  61. Format                                   : UTF-8
  62. Codec ID                                 : S_TEXT/UTF8
  63. Codec ID/Info                            : UTF-8 Plain Text
  64. Duration                                 : 1 h 40 min
  65. Bit rate                                 : 84 b/s
  66. Count of elements                        : 1796
  67. Stream size                              : 62.6 KiB (0%)
  68. Title                                    : SDH
  69. Language                                 : English
  70. Default                                  : No
  71. Forced                                   : No

  72. Text #3
  73. ID                                       : 5
  74. Format                                   : UTF-8
  75. Codec ID                                 : S_TEXT/UTF8
  76. Codec ID/Info                            : UTF-8 Plain Text
  77. Duration                                 : 1 h 40 min
  78. Bit rate                                 : 108 b/s
  79. Count of elements                        : 1508
  80. Stream size                              : 79.7 KiB (0%)
  81. Language                                 : Arabic
  82. Default                                  : No
  83. Forced                                   : No

  84. Text #4
  85. ID                                       : 6
  86. Format                                   : UTF-8
  87. Codec ID                                 : S_TEXT/UTF8
  88. Codec ID/Info                            : UTF-8 Plain Text
  89. Duration                                 : 1 h 39 min
  90. Bit rate                                 : 60 b/s
  91. Count of elements                        : 1415
  92. Stream size                              : 44.5 KiB (0%)
  93. Language                                 : Czech
  94. Default                                  : No
  95. Forced                                   : No

  96. Text #5
  97. ID                                       : 7
  98. Format                                   : UTF-8
  99. Codec ID                                 : S_TEXT/UTF8
  100. Codec ID/Info                            : UTF-8 Plain Text
  101. Duration                                 : 1 h 40 min
  102. Bit rate                                 : 61 b/s
  103. Count of elements                        : 1426
  104. Stream size                              : 45.2 KiB (0%)
  105. Language                                 : Danish
  106. Default                                  : No
  107. Forced                                   : No

  108. Text #6
  109. ID                                       : 8
  110. Format                                   : UTF-8
  111. Codec ID                                 : S_TEXT/UTF8
  112. Codec ID/Info                            : UTF-8 Plain Text
  113. Duration                                 : 1 h 40 min
  114. Bit rate                                 : 59 b/s
  115. Count of elements                        : 1474
  116. Stream size                              : 43.9 KiB (0%)
  117. Language                                 : German
  118. Default                                  : No
  119. Forced                                   : No

  120. Text #7
  121. ID                                       : 9
  122. Format                                   : UTF-8
  123. Codec ID                                 : S_TEXT/UTF8
  124. Codec ID/Info                            : UTF-8 Plain Text
  125. Duration                                 : 1 h 40 min
  126. Bit rate                                 : 104 b/s
  127. Count of elements                        : 1469
  128. Stream size                              : 76.7 KiB (0%)
  129. Language                                 : Greek
  130. Default                                  : No
  131. Forced                                   : No

  132. Text #8
  133. ID                                       : 10
  134. Format                                   : UTF-8
  135. Codec ID                                 : S_TEXT/UTF8
  136. Codec ID/Info                            : UTF-8 Plain Text
  137. Duration                                 : 1 h 40 min
  138. Bit rate                                 : 60 b/s
  139. Count of elements                        : 1477
  140. Stream size                              : 44.9 KiB (0%)
  141. Language                                 : Spanish
  142. Default                                  : No
  143. Forced                                   : No

  144. Text #9
  145. ID                                       : 11
  146. Format                                   : UTF-8
  147. Codec ID                                 : S_TEXT/UTF8
  148. Codec ID/Info                            : UTF-8 Plain Text
  149. Duration                                 : 1 h 40 min
  150. Bit rate                                 : 62 b/s
  151. Count of elements                        : 1506
  152. Stream size                              : 45.8 KiB (0%)
  153. Title                                    : European
  154. Language                                 : Spanish
  155. Default                                  : No
  156. Forced                                   : No

  157. Text #10
  158. ID                                       : 12
  159. Format                                   : UTF-8
  160. Codec ID                                 : S_TEXT/UTF8
  161. Codec ID/Info                            : UTF-8 Plain Text
  162. Duration                                 : 1 h 40 min
  163. Bit rate                                 : 53 b/s
  164. Count of elements                        : 1451
  165. Stream size                              : 39.5 KiB (0%)
  166. Language                                 : Finnish
  167. Default                                  : No
  168. Forced                                   : No

  169. Text #11
  170. ID                                       : 13
  171. Format                                   : UTF-8
  172. Codec ID                                 : S_TEXT/UTF8
  173. Codec ID/Info                            : UTF-8 Plain Text
  174. Duration                                 : 1 h 40 min
  175. Bit rate                                 : 64 b/s
  176. Count of elements                        : 1430
  177. Stream size                              : 47.6 KiB (0%)
  178. Language                                 : French
  179. Default                                  : No
  180. Forced                                   : No

  181. Text #12
  182. ID                                       : 14
  183. Format                                   : UTF-8
  184. Codec ID                                 : S_TEXT/UTF8
  185. Codec ID/Info                            : UTF-8 Plain Text
  186. Duration                                 : 1 h 40 min
  187. Bit rate                                 : 106 b/s
  188. Count of elements                        : 1530
  189. Stream size                              : 78.4 KiB (0%)
  190. Language                                 : Hebrew
  191. Default                                  : No
  192. Forced                                   : No

  193. Text #13
  194. ID                                       : 15
  195. Format                                   : UTF-8
  196. Codec ID                                 : S_TEXT/UTF8
  197. Codec ID/Info                            : UTF-8 Plain Text
  198. Duration                                 : 1 h 40 min
  199. Bit rate                                 : 174 b/s
  200. Count of elements                        : 1526
  201. Stream size                              : 128 KiB (0%)
  202. Language                                 : Hindi
  203. Default                                  : No
  204. Forced                                   : No

  205. Text #14
  206. ID                                       : 16
  207. Format                                   : UTF-8
  208. Codec ID                                 : S_TEXT/UTF8
  209. Codec ID/Info                            : UTF-8 Plain Text
  210. Duration                                 : 1 h 40 min
  211. Bit rate                                 : 60 b/s
  212. Count of elements                        : 1466
  213. Stream size                              : 45.0 KiB (0%)
  214. Language                                 : Hungarian
  215. Default                                  : No
  216. Forced                                   : No

  217. Text #15
  218. ID                                       : 17
  219. Format                                   : UTF-8
  220. Codec ID                                 : S_TEXT/UTF8
  221. Codec ID/Info                            : UTF-8 Plain Text
  222. Duration                                 : 1 h 40 min
  223. Bit rate                                 : 62 b/s
  224. Count of elements                        : 1527
  225. Stream size                              : 45.9 KiB (0%)
  226. Language                                 : Indonesian
  227. Default                                  : No
  228. Forced                                   : No

  229. Text #16
  230. ID                                       : 18
  231. Format                                   : UTF-8
  232. Codec ID                                 : S_TEXT/UTF8
  233. Codec ID/Info                            : UTF-8 Plain Text
  234. Duration                                 : 1 h 40 min
  235. Bit rate                                 : 57 b/s
  236. Count of elements                        : 1429
  237. Stream size                              : 42.1 KiB (0%)
  238. Language                                 : Italian
  239. Default                                  : No
  240. Forced                                   : No

  241. Text #17
  242. ID                                       : 19
  243. Format                                   : UTF-8
  244. Codec ID                                 : S_TEXT/UTF8
  245. Codec ID/Info                            : UTF-8 Plain Text
  246. Duration                                 : 1 h 40 min
  247. Bit rate                                 : 62 b/s
  248. Count of elements                        : 1569
  249. Stream size                              : 46.1 KiB (0%)
  250. Language                                 : Japanese
  251. Default                                  : No
  252. Forced                                   : No

  253. Text #18
  254. ID                                       : 20
  255. Format                                   : UTF-8
  256. Codec ID                                 : S_TEXT/UTF8
  257. Codec ID/Info                            : UTF-8 Plain Text
  258. Duration                                 : 1 h 40 min
  259. Bit rate                                 : 79 b/s
  260. Count of elements                        : 1550
  261. Stream size                              : 58.7 KiB (0%)
  262. Language                                 : Korean
  263. Default                                  : No
  264. Forced                                   : No

  265. Text #19
  266. ID                                       : 21
  267. Format                                   : UTF-8
  268. Codec ID                                 : S_TEXT/UTF8
  269. Codec ID/Info                            : UTF-8 Plain Text
  270. Duration                                 : 1 h 40 min
  271. Bit rate                                 : 57 b/s
  272. Count of elements                        : 1346
  273. Stream size                              : 42.6 KiB (0%)
  274. Language                                 : Norwegian Bokmal
  275. Default                                  : No
  276. Forced                                   : No

  277. Text #20
  278. ID                                       : 22
  279. Format                                   : UTF-8
  280. Codec ID                                 : S_TEXT/UTF8
  281. Codec ID/Info                            : UTF-8 Plain Text
  282. Duration                                 : 1 h 40 min
  283. Bit rate                                 : 52 b/s
  284. Count of elements                        : 1248
  285. Stream size                              : 39.0 KiB (0%)
  286. Language                                 : Dutch
  287. Default                                  : No
  288. Forced                                   : No

  289. Text #21
  290. ID                                       : 23
  291. Format                                   : UTF-8
  292. Codec ID                                 : S_TEXT/UTF8
  293. Codec ID/Info                            : UTF-8 Plain Text
  294. Duration                                 : 1 h 40 min
  295. Bit rate                                 : 54 b/s
  296. Count of elements                        : 1427
  297. Stream size                              : 40.5 KiB (0%)
  298. Language                                 : Polish
  299. Default                                  : No
  300. Forced                                   : No

  301. Text #22
  302. ID                                       : 24
  303. Format                                   : UTF-8
  304. Codec ID                                 : S_TEXT/UTF8
  305. Codec ID/Info                            : UTF-8 Plain Text
  306. Duration                                 : 1 h 40 min
  307. Bit rate                                 : 65 b/s
  308. Count of elements                        : 1512
  309. Stream size                              : 48.0 KiB (0%)
  310. Language                                 : Portuguese
  311. Default                                  : No
  312. Forced                                   : No

  313. Text #23
  314. ID                                       : 25
  315. Format                                   : UTF-8
  316. Codec ID                                 : S_TEXT/UTF8
  317. Codec ID/Info                            : UTF-8 Plain Text
  318. Duration                                 : 1 h 40 min
  319. Bit rate                                 : 59 b/s
  320. Count of elements                        : 1451
  321. Stream size                              : 44.2 KiB (0%)
  322. Title                                    : Brazilian
  323. Language                                 : Portuguese
  324. Default                                  : No
  325. Forced                                   : No

  326. Text #24
  327. ID                                       : 26
  328. Format                                   : UTF-8
  329. Codec ID                                 : S_TEXT/UTF8
  330. Codec ID/Info                            : UTF-8 Plain Text
  331. Duration                                 : 1 h 40 min
  332. Bit rate                                 : 69 b/s
  333. Count of elements                        : 1401
  334. Stream size                              : 51.2 KiB (0%)
  335. Language                                 : Romanian
  336. Default                                  : No
  337. Forced                                   : No

  338. Text #25
  339. ID                                       : 27
  340. Format                                   : UTF-8
  341. Codec ID                                 : S_TEXT/UTF8
  342. Codec ID/Info                            : UTF-8 Plain Text
  343. Duration                                 : 1 h 40 min
  344. Bit rate                                 : 97 b/s
  345. Count of elements                        : 1383
  346. Stream size                              : 72.2 KiB (0%)
  347. Language                                 : Russian
  348. Default                                  : No
  349. Forced                                   : No

  350. Text #26
  351. ID                                       : 28
  352. Format                                   : UTF-8
  353. Codec ID                                 : S_TEXT/UTF8
  354. Codec ID/Info                            : UTF-8 Plain Text
  355. Duration                                 : 1 h 40 min
  356. Bit rate                                 : 60 b/s
  357. Count of elements                        : 1154
  358. Stream size                              : 44.9 KiB (0%)
  359. Language                                 : Swedish
  360. Default                                  : No
  361. Forced                                   : No

  362. Text #27
  363. ID                                       : 29
  364. Format                                   : UTF-8
  365. Codec ID                                 : S_TEXT/UTF8
  366. Codec ID/Info                            : UTF-8 Plain Text
  367. Duration                                 : 1 h 40 min
  368. Bit rate                                 : 164 b/s
  369. Count of elements                        : 1555
  370. Stream size                              : 121 KiB (0%)
  371. Language                                 : Thai
  372. Default                                  : No
  373. Forced                                   : No

  374. Text #28
  375. ID                                       : 30
  376. Format                                   : UTF-8
  377. Codec ID                                 : S_TEXT/UTF8
  378. Codec ID/Info                            : UTF-8 Plain Text
  379. Duration                                 : 1 h 40 min
  380. Bit rate                                 : 61 b/s
  381. Count of elements                        : 1303
  382. Stream size                              : 45.6 KiB (0%)
  383. Language                                 : Turkish
  384. Default                                  : No
  385. Forced                                   : No

  386. Text #29
  387. ID                                       : 31
  388. Format                                   : UTF-8
  389. Codec ID                                 : S_TEXT/UTF8
  390. Codec ID/Info                            : UTF-8 Plain Text
  391. Duration                                 : 1 h 40 min
  392. Bit rate                                 : 86 b/s
  393. Count of elements                        : 1515
  394. Stream size                              : 64.1 KiB (0%)
  395. Language                                 : Vietnamese
  396. Default                                  : No
  397. Forced                                   : No

  398. Text #30
  399. ID                                       : 32
  400. Format                                   : UTF-8
  401. Codec ID                                 : S_TEXT/UTF8
  402. Codec ID/Info                            : UTF-8 Plain Text
  403. Duration                                 : 1 h 40 min
  404. Bit rate                                 : 72 b/s
  405. Count of elements                        : 1539
  406. Stream size                              : 53.4 KiB (0%)
  407. Title                                    : Simplified
  408. Language                                 : Chinese
  409. Default                                  : No
  410. Forced                                   : No

  411. Text #31
  412. ID                                       : 33
  413. Format                                   : UTF-8
  414. Codec ID                                 : S_TEXT/UTF8
  415. Codec ID/Info                            : UTF-8 Plain Text
  416. Duration                                 : 1 h 40 min
  417. Bit rate                                 : 69 b/s
  418. Count of elements                        : 1539
  419. Stream size                              : 51.1 KiB (0%)
  420. Title                                    : Traditional
  421. Language                                 : Chinese
  422. Default                                  : No
  423. Forced                                   : No
复制代码

致所有我曾爱过的男孩2 To.All.the.Boys.P.S.I.Still.Love.You.2020.2160p.NF.WEBRip.DDP5.1.x264-AJP69 21.65GB-2.png 致所有我曾爱过的男孩2 To.All.the.Boys.P.S.I.Still.Love.You.2020.2160p.NF.WEBRip.DDP5.1.x264-AJP69 21.65GB-1.png 致所有我曾爱过的男孩2 To.All.the.Boys.P.S.I.Still.Love.You.2020.2160p.NF.WEBRip.DDP5.1.x264-AJP69 21.65GB-4.png






回复

使用道具 举报

 成长值: 4040

发表于 2020-2-14 21:18:06 | 显示全部楼层
这个电影看过,女主角不是很漂亮,剧情也不怎么样
回复 支持 反对

使用道具 举报

发表于 2020-2-14 22:16:45 | 显示全部楼层
楼主发贴辛苦了,谢谢楼主分享!我觉得蓝光电影网是注册对了!
回复 支持 反对

使用道具 举报

发表于 2020-2-14 22:46:20 | 显示全部楼层

楼主太厉害了!楼主,电影应该很好看我觉得蓝光电影网真是个好地方!
回复 支持 反对

使用道具 举报

发表于 2020-2-14 23:18:08 | 显示全部楼层
这个电影看过,剧情也不怎么样
回复 支持 反对

使用道具 举报

发表于 2020-2-15 15:12:53 | 显示全部楼层
多謝版主的無私發佈分享!
回复 支持 反对

使用道具 举报

 成长值: 1330

发表于 2020-2-15 17:18:44 | 显示全部楼层

这东西我收了!谢谢楼主!蓝光电影网真好!
回复 支持 反对

使用道具 举报

发表于 2020-2-15 18:11:26 | 显示全部楼层

我看不错噢 谢谢楼主!蓝光电影网越来越好!
回复 支持 反对

使用道具 举报

发表于 2020-2-16 08:07:07 | 显示全部楼层

既然你诚信诚意的推荐了,那我就勉为其难的看看吧!蓝光电影网不走平凡路。
回复 支持 反对

使用道具 举报

发表于 2020-2-16 09:03:59 | 显示全部楼层

这东西我收了!谢谢楼主!蓝光电影网真好!
回复 支持 反对

使用道具 举报

懒得打字嘛,点击右侧快捷回复 【右侧内容,后台自定义】
您需要登录后才可以回帖 登录 | 立即加入

本版积分规则

现在加入蓝光电影网,注册一个账号
上个主题 下个主题 快速回复 收藏帖子 返回列表 客服中心 搜索

手机版|小黑屋| 蓝光电影网 |网站地图 

Copyright © 2015-2019 Comsenz Inc.  Template by 蓝光电影论坛 All Rights Reserved.

Powered by 蓝光电影网 X3.4

特别声明:本站所有资源均由网上收集而来,版权归原影音公司所有,如果侵犯了你的权益,请通知我们,我们会及时删除侵权内容.

快速回复 返回顶部 返回列表